  0
SECTION
  2
HEADER
  9
$ACADVER
  1
AC1015
  9
$ACADMAINTVER
 70
     6
  9
$DWGCODEPAGE
  3
ANSI_1252
  9
$INSBASE
 10
0.0
 20
0.0
 30
0.0
  9
$EXTMIN
 10
-1483.641732283465
 20
-923.1791338582677
 30
-15.2625
  9
$EXTMAX
 10
1476.358267716535
 20
926.8208661417324
 30
15.2625
  9
$LIMMIN
 10
0.0
 20
0.0
  9
$LIMMAX
 10
12.0
 20
9.0
  9
$ORTHOMODE
 70
     0
  9
$REGENMODE
 70
     1
  9
$FILLMODE
 70
     1
  9
$QTEXTMODE
 70
     0
  9
$MIRRTEXT
 70
     1
  9
$LTSCALE
 40
37.0
  9
$ATTMODE
 70
     1
  9
$TEXTSIZE
 40
0.2
  9
$TRACEWID
 40
1.0
  9
$TEXTSTYLE
  7
STANDARD
  9
$CLAYER
  8
None
  9
$CELTYPE
  6
ByLayer
  9
$CECOLOR
 62
   256
  9
$CELTSCALE
 40
1.0
  9
$DISPSILH
 70
     0
  9
$DIMSCALE
 40
1.0
  9
$DIMASZ
 40
23.125
  9
$DIMEXO
 40
11.5625
  9
$DIMDLI
 40
0.4
  9
$DIMRND
 40
0.0
  9
$DIMDLE
 40
11.5625
  9
$DIMEXE
 40
23.125
  9
$DIMTP
 40
0.0
  9
$DIMTM
 40
0.0
  9
$DIMTXT
 40
22.11764227146026
  9
$DIMCEN
 40
0.0
  9
$DIMTSZ
 40
0.0
  9
$DIMTOL
 70
     0
  9
$DIMLIM
 70
     0
  9
$DIMTIH
 70
     0
  9
$DIMTOH
 70
     0
  9
$DIMSE1
 70
     0
  9
$DIMSE2
 70
     0
  9
$DIMTAD
 70
     1
  9
$DIMZIN
 70
     8
  9
$DIMBLK
  1
VW_SLASH
  9
$DIMASO
 70
     1
  9
$DIMSHO
 70
     1
  9
$DIMPOST
  1
<>
  9
$DIMAPOST
  1
[]
  9
$DIMALT
 70
     0
  9
$DIMALTD
 70
     3
  9
$DIMALTF
 40
1.0
  9
$DIMLFAC
 40
1.0
  9
$DIMTOFL
 70
     1
  9
$DIMTVP
 40
0.0
  9
$DIMTIX
 70
     1
  9
$DIMSOXD
 70
     0
  9
$DIMSAH
 70
     0
  9
$DIMBLK1
  1
VW_SLASH
  9
$DIMBLK2
  1
VW_SLASH
  9
$DIMSTYLE
  2
Arch
  9
$DIMCLRD
 70
     0
  9
$DIMCLRE
 70
     0
  9
$DIMCLRT
 70
     0
  9
$DIMTFAC
 40
1.0
  9
$DIMGAP
 40
0.0625
  9
$DIMJUST
 70
     0
  9
$DIMSD1
 70
     0
  9
$DIMSD2
 70
     0
  9
$DIMTOLJ
 70
     1
  9
$DIMTZIN
 70
     8
  9
$DIMALTZ
 70
     8
  9
$DIMALTTZ
 70
     8
  9
$DIMUPT
 70
     0
  9
$DIMDEC
 70
     3
  9
$DIMTDEC
 70
     3
  9
$DIMALTU
 70
     4
  9
$DIMALTTD
 70
     2
  9
$DIMTXSTY
  7
Helvetica
  9
$DIMAUNIT
 70
     0
  9
$DIMADEC
 70
     2
  9
$DIMALTRND
 40
0.0
  9
$DIMAZIN
 70
     0
  9
$DIMDSEP
 70
    46
  9
$DIMATFIT
 70
     0
  9
$DIMFRAC
 70
     2
  9
$DIMLDRBLK
  1
VW_FILLEDARROW
  9
$DIMLUNIT
 70
     4
  9
$DIMLWD
 70
    -2
  9
$DIMLWE
 70
    -2
  9
$DIMTMOVE
 70
     0
  9
$LUNITS
 70
     4
  9
$LUPREC
 70
     4
  9
$SKETCHINC
 40
0.1
  9
$FILLETRAD
 40
0.5
  9
$AUNITS
 70
     0
  9
$AUPREC
 70
     0
  9
$MENU
  1
.
  9
$ELEVATION
 40
0.0
  9
$PELEVATION
 40
0.0
  9
$THICKNESS
 40
0.0
  9
$LIMCHECK
 70
     0
  9
$CHAMFERA
 40
0.5
  9
$CHAMFERB
 40
0.5
  9
$CHAMFERC
 40
1.0
  9
$CHAMFERD
 40
0.0
  9
$SKPOLY
 70
     0
  9
$TDCREATE
 40
2455711.788067107
  9
$TDUCREATE
 40
2455712.121400451
  9
$TDUPDATE
 40
2455711.788067118
  9
$TDUUPDATE
 40
2455712.121400463
  9
$TDINDWG
 40
0.0000000116
  9
$TDUSRTIMER
 40
0.0000000116
  9
$USRTIMER
 70
     1
  9
$ANGBASE
 50
0.0
  9
$ANGDIR
 70
     0
  9
$PDMODE
 70
     1
  9
$PDSIZE
 40
-2.0
  9
$PLINEWID
 40
0.0
  9
$SPLFRAME
 70
     0
  9
$SPLINETYPE
 70
     6
  9
$SPLINESEGS
 70
     8
  9
$HANDSEED
  5
53E
  9
$SURFTAB1
 70
     6
  9
$SURFTAB2
 70
     6
  9
$SURFTYPE
 70
     6
  9
$SURFU
 70
     6
  9
$SURFV
 70
     6
  9
$UCSBASE
  2

  9
$UCSNAME
  2

  9
$UCSORG
 10
0.0
 20
0.0
 30
0.0
  9
$UCSXDIR
 10
1.0
 20
0.0
 30
0.0
  9
$UCSYDIR
 10
0.0
 20
1.0
 30
0.0
  9
$UCSORTHOREF
  2

  9
$UCSORTHOVIEW
 70
     0
  9
$UCSORGTOP
 10
0.0
 20
0.0
 30
0.0
  9
$UCSORGBOTTOM
 10
0.0
 20
0.0
 30
0.0
  9
$UCSORGLEFT
 10
0.0
 20
0.0
 30
0.0
  9
$UCSORGRIGHT
 10
0.0
 20
0.0
 30
0.0
  9
$UCSORGFRONT
 10
0.0
 20
0.0
 30
0.0
  9
$UCSORGBACK
 10
0.0
 20
0.0
 30
0.0
  9
$PUCSBASE
  2

  9
$PUCSNAME
  2

  9
$PUCSORG
 10
0.0
 20
0.0
 30
0.0
  9
$PUCSXDIR
 10
1.0
 20
0.0
 30
0.0
  9
$PUCSYDIR
 10
0.0
 20
1.0
 30
0.0
  9
$PUCSORTHOREF
  2

  9
$PUCSORTHOVIEW
 70
     0
  9
$PUCSORGTOP
 10
0.0
 20
0.0
 30
0.0
  9
$PUCSORGBOTTOM
 10
0.0
 20
0.0
 30
0.0
  9
$PUCSORGLEFT
 10
0.0
 20
0.0
 30
0.0
  9
$PUCSORGRIGHT
 10
0.0
 20
0.0
 30
0.0
  9
$PUCSORGFRONT
 10
0.0
 20
0.0
 30
0.0
  9
$PUCSORGBACK
 10
0.0
 20
0.0
 30
0.0
  9
$USERI1
 70
     0
  9
$USERI2
 70
     0
  9
$USERI3
 70
     0
  9
$USERI4
 70
     0
  9
$USERI5
 70
     0
  9
$USERR1
 40
0.0
  9
$USERR2
 40
0.0
  9
$USERR3
 40
0.0
  9
$USERR4
 40
0.0
  9
$USERR5
 40
0.0
  9
$WORLDVIEW
 70
     1
  9
$SHADEDGE
 70
     3
  9
$SHADEDIF
 70
    70
  9
$TILEMODE
 70
     1
  9
$MAXACTVP
 70
    64
  9
$PINSBASE
 10
0.0
 20
0.0
 30
0.0
  9
$PLIMCHECK
 70
     0
  9
$PEXTMIN
 10
1.000000000000000E+20
 20
1.000000000000000E+20
 30
1.000000000000000E+20
  9
$PEXTMAX
 10
-1.000000000000000E+20
 20
-1.000000000000000E+20
 30
-1.000000000000000E+20
  9
$PLIMMIN
 10
-0.25
 20
-0.25
  9
$PLIMMAX
 10
10.75
 20
8.25
  9
$UNITMODE
 70
     0
  9
$VISRETAIN
 70
     1
  9
$PLINEGEN
 70
     0
  9
$PSLTSCALE
 70
     1
  9
$TREEDEPTH
 70
  3020
  9
$CMLSTYLE
  2
Standard
  9
$CMLJUST
 70
     0
  9
$CMLSCALE
 40
1.0
  9
$PROXYGRAPHICS
 70
     1
  9
$MEASUREMENT
 70
     0
  9
$CELWEIGHT
370
    -1
  9
$ENDCAPS
280
     0
  9
$JOINSTYLE
280
     0
  9
$LWDISPLAY
290
     1
  9
$INSUNITS
 70
     1
  9
$HYPERLINKBASE
  1

  9
$STYLESHEET
  1

  9
$XEDIT
290
     1
  9
$CEPSNTYPE
380
     0
  9
$PSTYLEMODE
290
     1
  9
$FINGERPRINTGUID
  2
{278AC92E-3934-4CA5-E9B7-E16529AF8488}
  9
$VERSIONGUID
  2
{FAEB1C32-E019-11D5-929B-00C0DF256EC4}
  9
$EXTNAMES
290
     1
  9
$PSVPSCALE
 40
0.0
  9
$OLESTARTUP
290
     0
  0
ENDSEC
  0
SECTION
  2
CLASSES
  0
CLASS
  1
ACDBDICTIONARYWDFLT
  2
AcDbDictionaryWithDefault
  3
ObjectDBX Classes
 90
        0
280
     0
281
     0
  0
CLASS
  1
VISUALSTYLE
  2
AcDbVisualStyle
  3
ObjectDBX Classes
 90
     4095
280
     0
281
     0
  0
CLASS
  1
MATERIAL
  2
AcDbMaterial
  3
ObjectDBX Classes
 90
     1153
280
     0
281
     0
  0
CLASS
  1
WIPEOUTVARIABLES
  2
AcDbWipeoutVariables
  3
WipeOut|AutoCAD Express Tool|expresstools@autodesk.com
 90
        0
280
     0
281
     0
  0
CLASS
  1
WIPEOUT
  2
AcDbWipeout
  3
WipeOut|AutoCAD Express Tool|expresstools@autodesk.com
 90
      127
280
     0
281
     1
  0
CLASS
  1
SCALE
  2
AcDbScale
  3
ObjectDBX Classes
 90
     1153
280
     0
281
     0
  0
CLASS
  1
DICTIONARYVAR
  2
AcDbDictionaryVar
  3
ObjectDBX Classes
 90
        0
280
     0
281
     0
  0
CLASS
  1
ACDBPLACEHOLDER
  2
AcDbPlaceHolder
  3
ObjectDBX Classes
 90
        0
280
     0
281
     0
  0
CLASS
  1
LAYOUT
  2
AcDbLayout
  3
ObjectDBX Classes
 90
        0
280
     0
281
     0
  0
ENDSEC
  0
SECTION
  2
TABLES
  0
TABLE
  2
VPORT
  5
8
330
0
100
AcDbSymbolTable
 70
     1
  0
VPORT
  5
29
330
8
100
AcDbSymbolTableRecord
100
AcDbViewportTableRecord
  2
*Active
 70
     0
 10
0.0
 20
0.0
 11
1.0
 21
1.0
 12
-3.641732283464762
 22
1.820866141732267
 13
0.0
 23
0.0
 14
0.5
 24
0.5
 15
0.5
 25
0.5
 16
0.0
 26
0.0
 36
1.0
 17
0.0
 27
0.0
 37
0.0
 40
1850.0
 41
0.0095982468949475
 42
2000.0
 43
0.0
 44
0.0
 50
0.0
 51
0.0
 71
     0
 72
   100
 73
     1
 74
     3
 75
     0
 76
     0
 77
     0
 78
     0
281
     0
 65
     1
110
0.0
120
0.0
130
0.0
111
1.0
121
0.0
131
0.0
112
0.0
122
1.0
132
0.0
 79
     0
146
0.0
  0
ENDTAB
  0
TABLE
  2
LTYPE
  5
5
330
0
100
AcDbSymbolTable
 70
    11
  0
LTYPE
  5
14
330
5
100
AcDbSymbolTableRecord
100
AcDbLinetypeTableRecord
  2
ByBlock
 70
     0
  3

 72
    65
 73
     0
 40
0.0
  0
LTYPE
  5
15
330
5
100
AcDbSymbolTableRecord
100
AcDbLinetypeTableRecord
  2
ByLayer
 70
     0
  3

 72
    65
 73
     0
 40
0.0
  0
LTYPE
  5
16
330
5
100
AcDbSymbolTableRecord
100
AcDbLinetypeTableRecord
  2
Continuous
 70
     0
  3
Solid line
 72
    65
 73
     0
 40
0.0
  0
LTYPE
  5
85
330
5
100
AcDbSymbolTableRecord
100
AcDbLinetypeTableRecord
  2
Dash Style-1
 70
     0
  3

 72
    65
 73
     2
 40
0.20828
 49
0.20828
 74
     0
 49
-0.20836
 74
     0
  0
LTYPE
  5
86
330
5
100
AcDbSymbolTableRecord
100
AcDbLinetypeTableRecord
  2
Dash Style-2
 70
     0
  3

 72
    65
 73
     2
 40
0.48607
 49
0.48607
 74
     0
 49
-0.2083550000000001
 74
     0
  0
LTYPE
  5
87
330
5
100
AcDbSymbolTableRecord
100
AcDbLinetypeTableRecord
  2
Dash Style-3
 70
     0
  3

 72
    65
 73
     2
 40
1.04164
 49
1.04164
 74
     0
 49
-0.2083599999999999
 74
     0
  0
LTYPE
  5
88
330
5
100
AcDbSymbolTableRecord
100
AcDbLinetypeTableRecord
  2
Dash Style-4
 70
     0
  3

 72
    65
 73
     2
 40
1.319425
 49
1.319425
 74
     0
 49
-0.208285
 74
     0
  0
LTYPE
  5
89
330
5
100
AcDbSymbolTableRecord
100
AcDbLinetypeTableRecord
  2
Dash Style-5
 70
     0
  3

 72
    65
 73
     2
 40
0.069425
 49
0.069425
 74
     0
 49
-0.138855
 74
     0
  0
LTYPE
  5
8A
330
5
100
AcDbSymbolTableRecord
100
AcDbLinetypeTableRecord
  2
Dash Style-6
 70
     0
  3

 72
    65
 73
     4
 40
0.625
 49
0.625
 74
     0
 49
-0.20828
 74
     0
 49
0.06943
 74
     0
 49
-0.13893
 74
     0
  0
LTYPE
  5
8B
330
5
100
AcDbSymbolTableRecord
100
AcDbLinetypeTableRecord
  2
Dash Style-7
 70
     0
  3

 72
    65
 73
     6
 40
0.625
 49
0.625
 74
     0
 49
-0.20828
 74
     0
 49
0.6250000000000001
 74
     0
 49
-0.2083599999999999
 74
     0
 49
0.06943
 74
     0
 49
-0.1389299999999999
 74
     0
  0
LTYPE
  5
8C
330
5
100
AcDbSymbolTableRecord
100
AcDbLinetypeTableRecord
  2
Dash Style-8
 70
     0
  3

 72
    65
 73
     6
 40
0.625
 49
0.625
 74
     0
 49
-0.20828
 74
     0
 49
0.06943
 74
     0
 49
-0.13893
 74
     0
 49
0.0694299999999999
 74
     0
 49
-0.13893
 74
     0
  0
LTYPE
  5
8D
330
5
100
AcDbSymbolTableRecord
100
AcDbLinetypeTableRecord
  2
Dash Style-9
 70
     0
  3

 72
    65
 73
     4
 40
3.75
 49
3.75
 74
     0
 49
-0.2777849999999998
 74
     0
 49
0.6944300000000003
 74
     0
 49
-0.2777849999999998
 74
     0
  0
LTYPE
  5
8E
330
5
100
AcDbSymbolTableRecord
100
AcDbLinetypeTableRecord
  2
Dash Style-10
 70
     0
  3

 72
    65
 73
     6
 40
3.75
 49
3.75
 74
     0
 49
-0.2777849999999998
 74
     0
 49
0.6944300000000003
 74
     0
 49
-0.2777849999999998
 74
     0
 49
0.625
 74
     0
 49
-0.3125
 74
     0
  0
ENDTAB
  0
TABLE
  2
LAYER
  5
2
330
0
100
AcDbSymbolTable
 70
     9
  0
LAYER
  5
10
330
2
100
AcDbSymbolTableRecord
100
AcDbLayerTableRecord
  2
0
 70
     0
 62
     7
  6
Continuous
370
    -3
390
F
  0
LAYER
  5
8F
330
2
100
AcDbSymbolTableRecord
100
AcDbLayerTableRecord
  2
None
 70
     0
 62
     7
  6
Continuous
370
     5
390
F
  0
LAYER
  5
90
330
2
100
AcDbSymbolTableRecord
100
AcDbLayerTableRecord
  2
Dimension
 70
     0
 62
     7
  6
Continuous
370
     5
390
F
  0
LAYER
  5
91
330
2
100
AcDbSymbolTableRecord
100
AcDbLayerTableRecord
  2
A-ARCH
 70
     0
 62
   251
  6
Continuous
370
    15
390
F
  0
LAYER
  5
92
330
2
100
AcDbSymbolTableRecord
100
AcDbLayerTableRecord
  2
elements-ojects
 70
     0
 62
     7
  6
Continuous
370
    15
390
F
  0
LAYER
  5
93
330
2
100
AcDbSymbolTableRecord
100
AcDbLayerTableRecord
  2
Layer0
 70
     0
 62
     1
  6
Continuous
370
    15
390
F
  0
LAYER
  5
94
330
2
100
AcDbSymbolTableRecord
100
AcDbLayerTableRecord
  2
WINDOW
 70
     0
 62
     2
  6
Continuous
370
    15
390
F
  0
LAYER
  5
95
330
2
100
AcDbSymbolTableRecord
100
AcDbLayerTableRecord
  2
FIXT
 70
     0
 62
     7
  6
Continuous
370
    15
390
F
  0
LAYER
  5
96
330
2
100
AcDbSymbolTableRecord
100
AcDbLayerTableRecord
  2
Defpoints
 70
     0
 62
     7
  6
Continuous
290
     0
370
    -3
390
F
  0
ENDTAB
  0
TABLE
  2
STYLE
  5
3
330
0
100
AcDbSymbolTable
 70
     4
  0
STYLE
  5
11
330
3
100
AcDbSymbolTableRecord
100
AcDbTextStyleTableRecord
  2
STANDARD
 70
     0
 40
0.0
 41
1.0
 50
0.0
 71
     0
 42
0.2
  3
txt
  4

  0
STYLE
  5
82
330
3
100
AcDbSymbolTableRecord
100
AcDbTextStyleTableRecord
  2
Arial Narrow
 70
     0
 40
0.0
 41
1.0
 50
0.0
 71
     0
 42
0.0
  3
Arial Narrow
  4

1001
ACAD
1000
Arial Narrow
1071
        0
  0
STYLE
  5
83
330
3
100
AcDbSymbolTableRecord
100
AcDbTextStyleTableRecord
  2
Arial Narrow (bold)
 70
     0
 40
0.0
 41
1.0
 50
0.0
 71
     0
 42
0.0
  3
Arial Narrow
  4

1001
ACAD
1000
Arial Narrow
1071
 33554432
  0
STYLE
  5
84
330
3
100
AcDbSymbolTableRecord
100
AcDbTextStyleTableRecord
  2
Helvetica
 70
     0
 40
0.0
 41
1.0
 50
0.0
 71
     0
 42
0.0
  3
Helvetica
  4

1001
ACAD
1000
Helvetica
1071
        0
  0
ENDTAB
  0
TABLE
  2
VIEW
  5
6
330
0
100
AcDbSymbolTable
 70
     0
  0
ENDTAB
  0
TABLE
  2
UCS
  5
7
330
0
100
AcDbSymbolTable
 70
     0
  0
ENDTAB
  0
TABLE
  2
APPID
  5
9
330
0
100
AcDbSymbolTable
 70
     1
  0
APPID
  5
12
330
9
100
AcDbSymbolTableRecord
100
AcDbRegAppTableRecord
  2
ACAD
 70
     0
  0
ENDTAB
  0
TABLE
  2
DIMSTYLE
  5
A
330
0
100
AcDbSymbolTable
 70
     3
100
AcDbDimStyleTable
  0
DIMSTYLE
105
27
330
A
100
AcDbSymbolTableRecord
100
AcDbDimStyleTableRecord
  2
Standard
 70
     0
340
11
  0
DIMSTYLE
105
97
330
A
100
AcDbSymbolTableRecord
100
AcDbDimStyleTableRecord
  2
Arch
 70
     0
  3
<>
  4
[]
 41
23.125
 42
11.5625
 43
0.4
 44
23.125
 46
11.5625
 73
     0
 74
     0
 77
     1
 78
     8
140
22.11764227146026
141
0.0
143
1.0
147
0.0625
171
     3
172
     1
174
     1
179
     2
271
     3
272
     3
273
     4
276
     2
277
     4
284
     8
285
     8
286
     8
289
     0
340
84
341
A1
342
98
343
98
344
98
  0
DIMSTYLE
105
AB
102
{ACAD_REACTORS
330
4E8
330
4E9
330
4EA
330
4EB
102
}
330
A
100
AcDbSymbolTableRecord
100
AcDbDimStyleTableRecord
  2
ASME
 70
     0
  3
<>
  4
[]
 41
23.125
 42
11.5625
 43
0.4
 44
23.125
 78
     8
140
22.11764227146026
141
0.0
143
1.0
147
0.0
171
     3
174
     1
179
     2
271
     3
272
     3
273
     4
276
     2
277
     4
284
     8
285
     8
286
     8
289
     0
340
84
341
A1
342
A1
343
A1
344
A1
  0
ENDTAB
  0
TABLE
  2
BLOCK_RECORD
  5
1
330
0
100
AcDbSymbolTable
 70
    25
  0
BLOCK_RECORD
  5
1F
330
1
100
AcDbSymbolTableRecord
100
AcDbBlockTableRecord
  2
*Model_Space
340
22
  0
BLOCK_RECORD
  5
1B
330
1
100
AcDbSymbolTableRecord
100
AcDbBlockTableRecord
  2
*Paper_Space
340
1E
  0
BLOCK_RECORD
  5
3F
330
1
100
AcDbSymbolTableRecord
100
AcDbBlockTableRecord
  2
Group-1
340
0
102
{BLKREFS
331
4E0
102
}
  0
BLOCK_RECORD
  5
42
330
1
100
AcDbSymbolTableRecord
100
AcDbBlockTableRecord
  2
Group-2-1
340
0
102
{BLKREFS
331
1CB
102
}
  0
BLOCK_RECORD
  5
45
330
1
100
AcDbSymbolTableRecord
100
AcDbBlockTableRecord
  2
Group-3-1
340
0
102
{BLKREFS
331
24F
102
}
  0
BLOCK_RECORD
  5
48
330
1
100
AcDbSymbolTableRecord
100
AcDbBlockTableRecord
  2
Group-4-1
340
0
102
{BLKREFS
331
4E5
102
}
  0
BLOCK_RECORD
  5
4B
330
1
100
AcDbSymbolTableRecord
100
AcDbBlockTableRecord
  2
Group-5-1
340
0
102
{BLKREFS
331
2AD
102
}
  0
BLOCK_RECORD
  5
4E
330
1
100
AcDbSymbolTableRecord
100
AcDbBlockTableRecord
  2
Group-6-1
340
0
102
{BLKREFS
331
2BA
102
}
  0
BLOCK_RECORD
  5
51
330
1
100
AcDbSymbolTableRecord
100
AcDbBlockTableRecord
  2
Group-7-1
340
0
102
{BLKREFS
331
2BD
102
}
  0
BLOCK_RECORD
  5
54
330
1
100
AcDbSymbolTableRecord
100
AcDbBlockTableRecord
  2
Group-8-1
340
0
102
{BLKREFS
331
4E6
102
}
  0
BLOCK_RECORD
  5
57
330
1
100
AcDbSymbolTableRecord
100
AcDbBlockTableRecord
  2
Group-9-1
340
0
102
{BLKREFS
331
3A8
102
}
  0
BLOCK_RECORD
  5
5A
330
1
100
AcDbSymbolTableRecord
100
AcDbBlockTableRecord
  2
Group-10-1
340
0
102
{BLKREFS
331
3FE
102
}
  0
BLOCK_RECORD
  5
5D
330
1
100
AcDbSymbolTableRecord
100
AcDbBlockTableRecord
  2
Group-11-1
340
0
102
{BLKREFS
331
3FF
102
}
  0
BLOCK_RECORD
  5
60
330
1
100
AcDbSymbolTableRecord
100
AcDbBlockTableRecord
  2
Group-12-1
340
0
102
{BLKREFS
331
404
102
}
  0
BLOCK_RECORD
  5
63
330
1
100
AcDbSymbolTableRecord
100
AcDbBlockTableRecord
  2
Group-13-1
340
0
102
{BLKREFS
331
405
102
}
  0
BLOCK_RECORD
  5
66
330
1
100
AcDbSymbolTableRecord
100
AcDbBlockTableRecord
  2
Group-14-1
340
0
102
{BLKREFS
331
40E
102
}
  0
BLOCK_RECORD
  5
69
330
1
100
AcDbSymbolTableRecord
100
AcDbBlockTableRecord
  2
Group-15-1
340
0
102
{BLKREFS
331
42F
102
}
  0
BLOCK_RECORD
  5
6C
330
1
100
AcDbSymbolTableRecord
100
AcDbBlockTableRecord
  2
Group-16-1
340
0
102
{BLKREFS
331
453
102
}
  0
BLOCK_RECORD
  5
6F
330
1
100
AcDbSymbolTableRecord
100
AcDbBlockTableRecord
  2
Group-17-1
340
0
102
{BLKREFS
331
4E7
102
}
  0
BLOCK_RECORD
  5
72
330
1
100
AcDbSymbolTableRecord
100
AcDbBlockTableRecord
  2
*D18
340
0
  0
BLOCK_RECORD
  5
75
330
1
100
AcDbSymbolTableRecord
100
AcDbBlockTableRecord
  2
*D19
340
0
  0
BLOCK_RECORD
  5
78
330
1
100
AcDbSymbolTableRecord
100
AcDbBlockTableRecord
  2
*D20
340
0
  0
BLOCK_RECORD
  5
7B
330
1
100
AcDbSymbolTableRecord
100
AcDbBlockTableRecord
  2
*D21
340
0
  0
BLOCK_RECORD
  5
7E
330
1
100
AcDbSymbolTableRecord
100
AcDbBlockTableRecord
  2
Group-18-1
340
0
102
{BLKREFS
331
50E
102
}
  0
BLOCK_RECORD
  5
98
330
1
100
AcDbSymbolTableRecord
100
AcDbBlockTableRecord
  2
VW_SLASH
340
0
  0
BLOCK_RECORD
  5
A1
330
1
100
AcDbSymbolTableRecord
100
AcDbBlockTableRecord
  2
VW_FILLEDARROW
340
0
102
{BLKREFS
331
475
331
474
331
489
331
488
331
49D
331
49C
331
4B1
331
4B0
102
}
  0
ENDTAB
  0
ENDSEC
  0
SECTION
  2
BLOCKS
  0
BLOCK
  5
20
330
1F
100
AcDbEntity
  8
0
100
AcDbBlockBegin
  2
*Model_Space
 70
     0
 10
0.0
 20
0.0
 30
0.0
  3
*Model_Space
  1

  0
ENDBLK
  5
21
330
1F
100
AcDbEntity
  8
0
100
AcDbBlockEnd
  0
BLOCK
  5
1C
330
1B
100
AcDbEntity
 67
     1
  8
0
100
AcDbBlockBegin
  2
*Paper_Space
 70
     0
 10
0.0
 20
0.0
 30
0.0
  3
*Paper_Space
  1

  0
ENDBLK
  5
1D
330
1B
100
AcDbEntity
 67
     1
  8
0
100
AcDbBlockEnd
  0
BLOCK
  5
40
330
3F
100
AcDbEntity
  8
0
100
AcDbBlockBegin
  2
Group-1
 70
     0
 10
0.0
 20
0.0
 30
0.0
  3
Group-1
  1

  0
ELLIPSE
  5
AC
330
3F
100
AcDbEntity
  8
None
  6
Continuous
 62
     7
370
    20
100
AcDbEllipse
 10
-7.452929080540777
 20
4.461161964625585
 30
0.0
 11
0.3453220542379974
 21
0.0
 31
0.0
210
0.0
220
0.0
230
1.0
 40
1.0
 41
0.0
 42
6.283185307179586
  0
POLYLINE
  5
AD
102
{ACAD_REACTORS
330
B8
102
}
330
3F
100
AcDbEntity
  8
None
  6
Continuous
 62
     7
370
    20
100
AcDb2dPolyline
 66
     1
 10
0.0
 20
0.0
 30
0.0
 70
     1
  0
VERTEX
  5
AE
330
AD
100
AcDbEntity
  8
None
  6
Continuous
 62
     7
370
    20
100
AcDbVertex
100
AcDb2dVertex
 10
-7.483269766870236
 20
4.180979528895537
 30
0.0
  0
VERTEX
  5
AF
330
AD
100
AcDbEntity
  8
None
  6
Continuous
 62
     7
370
    20
100
AcDbVertex
100
AcDb2dVertex
 10
-7.413147841763736
 20
4.180979528895537
 30
0.0
  0
VERTEX
  5
B0
330
AD
100
AcDbEntity
  8
None
  6
Continuous
 62
     7
370
    20
100
AcDbVertex
100
AcDb2dVertex
 10
-7.413147841763736
 20
4.617134820022656
 30
0.0
  0
VERTEX
  5
B1
330
AD
100
AcDbEntity
  8
None
  6
Continuous
 62
     7
370
    20
100
AcDbVertex
100
AcDb2dVertex
 10
-7.170642528469851
 20
4.374629368599948
 30
0.0
  0
VERTEX
  5
B2
330
AD
100
AcDbEntity
  8
None
  6
Continuous
 62
     7
370
    20
100
AcDbVertex
100
AcDb2dVertex
 10
-7.170642528469851
 20
4.464115158833429
 30
0.0
  0
VERTEX
  5
B3
330
AD
100
AcDbEntity
  8
None
  6
Continuous
 62
     7
370
    20
100
AcDbVertex
100
AcDb2dVertex
 10
-7.448208804316989
 20
4.74168143468057
 30
0.0
  0
VERTEX
  5
B4
330
AD
100
AcDbEntity
  8
None
  6
Continuous
 62
     7
370
    20
100
AcDbVertex
100
AcDb2dVertex
 10
-7.73161820557948
 20
4.458272033418078
 30
0.0
  0
VERTEX
  5
B5
330
AD
100
AcDbEntity
  8
None
  6
Continuous
 62
     7
370
    20
100
AcDbVertex
100
AcDb2dVertex
 10
-7.73161820557948
 20
4.368785276282842
 30
0.0
  0
VERTEX
  5
B6
330
AD
100
AcDbEntity
  8
None
  6
Continuous
 62
     7
370
    20
100
AcDbVertex
100
AcDb2dVertex
 10
-7.483269766870236
 20
4.617134820022656
 30
0.0
  0
SEQEND
  5
B7
330
AD
100
AcDbEntity
  8
None
  6
Continuous
 62
     7
370
    20
  0
HATCH
  5
B8
330
3F
100
AcDbEntity
  8
None
  6
Continuous
 62
     7
370
     0
100
AcDbHatch
 10
0.0
 20
0.0
 30
0.0
210
0.0
220
0.0
230
1.0
  2
SOLID
 70
     1
 71
     1
 91
        1
 92
        1
 93
        9
 72
     1
 10
-7.483269766870236
 20
4.180979528895537
 11
-7.413147841763736
 21
4.180979528895537
 72
     1
 10
-7.413147841763736
 20
4.180979528895537
 11
-7.413147841763736
 21
4.617134820022656
 72
     1
 10
-7.413147841763736
 20
4.617134820022656
 11
-7.170642528469851
 21
4.374629368599948
 72
     1
 10
-7.170642528469851
 20
4.374629368599948
 11
-7.170642528469851
 21
4.464115158833429
 72
     1
 10
-7.170642528469851
 20
4.464115158833429
 11
-7.448208804316989
 21
4.74168143468057
 72
     1
 10
-7.448208804316989
 20
4.74168143468057
 11
-7.73161820557948
 21
4.458272033418078
 72
     1
 10
-7.73161820557948
 20
4.458272033418078
 11
-7.73161820557948
 21
4.368785276282842
 72
     1
 10
-7.73161820557948
 20
4.368785276282842
 11
-7.483269766870236
 21
4.617134820022656
 72
     1
 10
-7.483269766870236
 20
4.617134820022656
 11
-7.483269766870236
 21
4.180979528895537
 97
        1
330
AD
 75
     0
 76
     1
 98
        1
 10
0.0
 20
0.0
  0
ENDBLK
  5
41
330
3F
100
AcDbEntity
  8
0
100
AcDbBlockEnd
  0
BLOCK
  5
43
330
42
100
AcDbEntity
  8
0
100
AcDbBlockBegin
  2
Group-2-1
 70
     0
 10
0.0
 20
0.0
 30
0.0
  3
Group-2-1
  1

  0
LINE
  5
B9
330
42
100
AcDbEntity
  8
A-ARCH
  6
Continuous
 62
   250
370
     9
100
AcDbLine
 10
7.863555103975447
 20
-3.424102189536526
 30
0.0
 11
7.863555103975447
 21
-4.701284458089557
 31
0.0
  0
POLYLINE
  5
BA
330
42
100
AcDbEntity
  8
WINDOW
  6
Continuous
 62
   250
370
     9
100
AcDb2dPolyline
 66
     1
 10
0.0
 20
0.0
 30
0.0
 70
     1
  0
VERTEX
  5
BB
330
BA
100
AcDbEntity
  8
WINDOW
  6
Continuous
 62
   250
370
     9
100
AcDbVertex
100
AcDb2dVertex
 10
5.440053378592385
 20
-3.678295151429747
 30
0.0
  0
VERTEX
  5
BC
330
BA
100
AcDbEntity
  8
WINDOW
  6
Continuous
 62
   250
370
     9
100
AcDbVertex
100
AcDb2dVertex
 10
5.547409834694519
 20
-3.661923859915148
 30
0.0
  0
VERTEX
  5
BD
330
BA
100
AcDbEntity
  8
WINDOW
  6
Continuous
 62
   250
370
     9
100
AcDbVertex
100
AcDb2dVertex
 10
5.649637126465617
 20
-3.625881138295007
 30
0.0
  0
VERTEX
  5
BE
330
BA
100
AcDbEntity
  8
WINDOW
  6
Continuous
 62
   250
370
     9
100
AcDbVertex
100
AcDb2dVertex
 10
5.754114163761181
 20
-3.573900338677198
 30
0.0
  0
VERTEX
  5
BF
330
BA
100
AcDbEntity
  8
WINDOW
  6
Continuous
 62
   250
370
     9
100
AcDbVertex
100
AcDb2dVertex
 10
5.923262810258285
 20
-3.643564729196933
 30
0.0
  0
VERTEX
  5
C0
330
BA
100
AcDbEntity
  8
WINDOW
  6
Continuous
 62
   250
370
     9
100
AcDbVertex
100
AcDb2dVertex
 10
5.923262810258285
 20
-3.726262697998546
 30
0.0
  0
VERTEX
  5
C1
330
BA
100
AcDbEntity
  8
WINDOW
  6
Continuous
 62
   250
370
     9
100
AcDbVertex
100
AcDb2dVertex
 10
5.3514519375272
 20
-3.726262697998546
 30
0.0
  0
VERTEX
  5
C2
330
BA
100
AcDbEntity
  8
WINDOW
  6
Continuous
 62
   250
370
     9
100
AcDbVertex
100
AcDb2dVertex
 10
5.3514519375272
 20
-3.702450924143875
 30
0.0
  0
VERTEX
  5
C3
330
BA
100
AcDbEntity
  8
WINDOW
  6
Continuous
 62
   250
370
     9
100
AcDbVertex
100
AcDb2dVertex
 10
5.351204396922495
 20
-3.678893934491183
 30
0.0
  0
SEQEND
  5
C4
330
BA
100
AcDbEntity
  8
WINDOW
  6
Continuous
 62
   250
370
     9
  0
POLYLINE
  5
C5
330
42
100
AcDbEntity
  8
None
  6
Continuous
 62
   250
370
     9
100
AcDb2dPolyline
 66
     1
 10
0.0
 20
0.0
 30
0.0
 70
     1
  0
VERTEX
  5
C6
330
C5
100
AcDbEntity
  8
None
  6
Continuous
 62
   250
370
     9
100
AcDbVertex
100
AcDb2dVertex
 10
6.008229334465643
 20
-3.844487077747153
 30
0.0
  0
VERTEX
  5
C7
330
C5
100
AcDbEntity
  8
None
  6
Continuous
 62
   250
370
     9
100
AcDbVertex
100
AcDb2dVertex
 10
6.008229334465643
 20
-3.927601057945823
 30
0.0
  0
VERTEX
  5
C8
330
C5
100
AcDbEntity
  8
None
  6
Continuous
 62
   250
370
     9
100
AcDbVertex
100
AcDb2dVertex
 10
5.955510926651987
 20
-3.927601057945823
 30
0.0
  0
VERTEX
  5
C9
330
C5
100
AcDbEntity
  8
None
  6
Continuous
 62
   250
370
     9
100
AcDbVertex
100
AcDb2dVertex
 10
5.955510926651987
 20
-3.844487077747153
 30
0.0
  0
SEQEND
  5
CA
330
C5
100
AcDbEntity
  8
None
  6
Continuous
 62
   250
370
     9
  0
POLYLINE
  5
CB
330
42
100
AcDbEntity
  8
WINDOW
  6
Continuous
 62
   250
370
     9
100
AcDb2dPolyline
 66
     1
 10
0.0
 20
0.0
 30
0.0
 70
     1
  0
VERTEX
  5
CC
330
CB
100
AcDbEntity
  8
WINDOW
  6
Continuous
 62
   250
370
     9
100
AcDbVertex
100
AcDb2dVertex
 10
5.979663384592793
 20
-3.44825464747733
 30
0.0
  0
VERTEX
  5
CD
330
CB
100
AcDbEntity
  8
WINDOW
  6
Continuous
 62
   250
370
     9
100
AcDbVertex
100
AcDb2dVertex
 10
5.979203884080467
 20
-3.440725319984767
 30
0.0
  0
VERTEX
  5
CE
330
CB
100
AcDbEntity
  8
WINDOW
  6
Continuous
 62
   250
370
     9
100
AcDbVertex
100
AcDb2dVertex
 10
6.07684401944534
 20
-3.387585484564378
 30
0.0
  0
VERTEX
  5
CF
330
CB
100
AcDbEntity
  8
WINDOW
  6
Continuous
 62
   250
370
     9
100
AcDbVertex
100
AcDb2dVertex
 10
6.102405773306988
 20
-3.376074221839308
 30
0.0
  0
VERTEX
  5
D0
330
CB
100
AcDbEntity
  8
WINDOW
  6
Continuous
 62
   250
370
     9
100
AcDbVertex
100
AcDb2dVertex
 10
6.118434552019402
 20
-3.370905998380941
 30
0.0
  0
VERTEX
  5
D1
330
CB
100
AcDbEntity
  8
WINDOW
  6
Continuous
 62
   250
370
     9
100
AcDbVertex
100
AcDb2dVertex
 10
6.14548953159324
 20
-3.36580117512467
 30
0.0
  0
VERTEX
  5
D2
330
CB
100
AcDbEntity
  8
WINDOW
  6
Continuous
 62
   250
370
     9
100
AcDbVertex
100
AcDb2dVertex
 10
6.18845816316331
 20
-3.36383597013022
 30
0.0
  0
VERTEX
  5
D3
330
CB
100
AcDbEntity
  8
WINDOW
  6
Continuous
 62
   250
370
     9
100
AcDbVertex
100
AcDb2dVertex
 10
7.51063797965105
 20
-3.36383597013022
 30
0.0
  0
VERTEX
  5
D4
330
CB
100
AcDbEntity
  8
WINDOW
  6
Continuous
 62
   250
370
     9
100
AcDbVertex
100
AcDb2dVertex
 10
7.510944313325931
 20
-3.382110726160646
 30
0.0
  0
VERTEX
  5
D5
330
CB
100
AcDbEntity
  8
WINDOW
  6
Continuous
 62
   250
370
     9
100
AcDbVertex
100
AcDb2dVertex
 10
6.119098140801325
 20
-3.382263691727604
 30
0.0
  0
SEQEND
  5
D6
330
CB
100
AcDbEntity
  8
WINDOW
  6
Continuous
 62
   250
370
     9
  0
POLYLINE
  5
D7
330
42
100
AcDbEntity
  8
WINDOW
  6
Continuous
 62
   250
370
     9
100
AcDb2dPolyline
 66
     1
 10
0.0
 20
0.0
 30
0.0
 70
     1
  0
VERTEX
  5
D8
330
D7
100
AcDbEntity
  8
WINDOW
  6
Continuous
 62
   250
370
     9
100
AcDbVertex
100
AcDb2dVertex
 10
7.509771912763388
 20
-3.419652099160933
 30
0.0
  0
VERTEX
  5
D9
330
D7
100
AcDbEntity
  8
WINDOW
  6
Continuous
 62
   250
370
     9
100
AcDbVertex
100
AcDb2dVertex
 10
6.552029137955878
 20
-3.419652099160934
 30
0.0
  0
VERTEX
  5
DA
330
D7
100
AcDbEntity
  8
WINDOW
  6
Continuous
 62
   250
370
     9
100
AcDbVertex
100
AcDb2dVertex
 10
6.552029137955878
 20
-3.404886695269306
 30
0.0
  0
VERTEX
  5
DB
330
D7
100
AcDbEntity
  8
WINDOW
  6
Continuous
 62
   250
370
     9
100
AcDbVertex
100
AcDb2dVertex
 10
7.509771912763388
 20
-3.404874015228887
 30
0.0
  0
SEQEND
  5
DC
330
D7
100
AcDbEntity
  8
WINDOW
  6
Continuous
 62
   250
370
     9
  0
POLYLINE
  5
DD
330
42
100
AcDbEntity
  8
WINDOW
  6
Continuous
 62
   250
370
     9
100
AcDb2dPolyline
 66
     1
 10
0.0
 20
0.0
 30
0.0
 70
     1
  0
VERTEX
  5
DE
330
DD
100
AcDbEntity
  8
WINDOW
  6
Continuous
 62
   250
370
     9
100
AcDbVertex
100
AcDb2dVertex
 10
6.027968300474397
 20
-3.436178418506927
 30
0.0
  0
VERTEX
  5
DF
330
DD
100
AcDbEntity
  8
WINDOW
  6
Continuous
 62
   250
370
     9
100
AcDbVertex
100
AcDb2dVertex
 10
6.030443927413329
 20
-3.441372404587098
 30
0.0
  0
VERTEX
  5
E0
330
DD
100
AcDbEntity
  8
WINDOW
  6
Continuous
 62
   250
370
     9
100
AcDbVertex
100
AcDb2dVertex
 10
6.287529331661174
 20
-3.420047595659713
 30
0.0
  0
VERTEX
  5
E1
330
DD
100
AcDbEntity
  8
WINDOW
  6
Continuous
 62
   250
370
     9
100
AcDbVertex
100
AcDb2dVertex
 10
6.552029137955878
 20
-3.419652099160933
 30
0.0
  0
VERTEX
  5
E2
330
DD
100
AcDbEntity
  8
WINDOW
  6
Continuous
 62
   250
370
     9
100
AcDbVertex
100
AcDb2dVertex
 10
6.552029137955878
 20
-3.404886695269306
 30
0.0
  0
VERTEX
  5
E3
330
DD
100
AcDbEntity
  8
WINDOW
  6
Continuous
 62
   250
370
     9
100
AcDbVertex
100
AcDb2dVertex
 10
7.509771912763388
 20
-3.404874015228887
 30
0.0
  0
VERTEX
  5
E4
330
DD
100
AcDbEntity
  8
WINDOW
  6
Continuous
 62
   250
370
     9
100
AcDbVertex
100
AcDb2dVertex
 10
7.509771912763388
 20
-3.39359260339522
 30
0.0
  0
VERTEX
  5
E5
330
DD
100
AcDbEntity
  8
WINDOW
  6
Continuous
 62
   250
370
     9
100
AcDbVertex
100
AcDb2dVertex
 10
6.119750659706694
 20
-3.39359260339522
 30
0.0
  0
SEQEND
  5
E6
330
DD
100
AcDbEntity
  8
WINDOW
  6
Continuous
 62
   250
370
     9
  0
POLYLINE
  5
E7
330
42
100
AcDbEntity
  8
WINDOW
  6
Continuous
 62
   250
370
     9
100
AcDb2dPolyline
 66
     1
 10
0.0
 20
0.0
 30
0.0
 70
     1
  0
VERTEX
  5
E8
330
E7
100
AcDbEntity
  8
WINDOW
  6
Continuous
 62
   250
370
     9
100
AcDbVertex
100
AcDb2dVertex
 10
6.668008435905684
 20
-3.44825464747733
 30
0.0
  0
VERTEX
  5
E9
330
E7
100
AcDbEntity
  8
WINDOW
  6
Continuous
 62
   250
370
     9
100
AcDbVertex
100
AcDb2dVertex
 10
6.668008435905684
 20
-3.625030311285242
 30
0.0
  0
VERTEX
  5
EA
330
E7
100
AcDbEntity
  8
WINDOW
  6
Continuous
 62
   250
370
     9
100
AcDbVertex
100
AcDb2dVertex
 10
6.619703520024079
 20
-3.590644373461467
 30
0.0
  0
VERTEX
  5
EB
330
E7
100
AcDbEntity
  8
WINDOW
  6
Continuous
 62
   250
370
     9
100
AcDbVertex
100
AcDb2dVertex
 10
6.619703520024079
 20
-3.44825464747733
 30
0.0
  0
SEQEND
  5
EC
330
E7
100
AcDbEntity
  8
WINDOW
  6
Continuous
 62
   250
370
     9
  0
POLYLINE
  5
ED
330
42
100
AcDbEntity
  8
None
  6
Continuous
 62
   250
370
     9
100
AcDb2dPolyline
 66
     1
 10
0.0
 20
0.0
 30
0.0
 70
     1
  0
VERTEX
  5
EE
330
ED
100
AcDbEntity
  8
None
  6
Continuous
 62
   250
370
     9
100
AcDbVertex
100
AcDb2dVertex
 10
6.827772526859668
 20
-3.629398082033353
 30
0.0
  0
VERTEX
  5
EF
330
ED
100
AcDbEntity
  8
None
  6
Continuous
 62
   250
370
     9
100
AcDbVertex
100
AcDb2dVertex
 10
6.827772526859668
 20
-3.581142645201538
 30
0.0
  0
VERTEX
  5
F0
330
ED
100
AcDbEntity
  8
None
  6
Continuous
 62
   250
370
     9
100
AcDbVertex
100
AcDb2dVertex
 10
6.8008469545801
 20
-3.581142645201538
 30
0.0
  0
VERTEX
  5
F1
330
ED
100
AcDbEntity
  8
None
  6
Continuous
 62
   250
370
     9
100
AcDbVertex
100
AcDb2dVertex
 10
6.8008469545801
 20
-3.629398082033353
 30
0.0
  0
VERTEX
  5
F2
330
ED
100
AcDbEntity
  8
None
  6
Continuous
 62
   250
370
     9
100
AcDbVertex
100
AcDb2dVertex
 10
6.668008435905684
 20
-3.629398082033353
 30
0.0
  0
VERTEX
  5
F3
330
ED
100
AcDbEntity
  8
None
  6
Continuous
 62
   250
370
     9
100
AcDbVertex
100
AcDb2dVertex
 10
6.668008435905684
 20
-3.44825464747733
 30
0.0
  0
VERTEX
  5
F4
330
ED
100
AcDbEntity
  8
None
  6
Continuous
 62
   250
370
     9
100
AcDbVertex
100
AcDb2dVertex
 10
6.994066618106531
 20
-3.44825464747733
 30
0.0
  0
VERTEX
  5
F5
330
ED
100
AcDbEntity
  8
None
  6
Continuous
 62
   250
370
     9
100
AcDbVertex
100
AcDb2dVertex
 10
6.994066618106531
 20
-3.608520093577875
 30
0.0
  0
VERTEX
  5
F6
330
ED
100
AcDbEntity
  8
None
  6
Continuous
 62
   250
370
     9
100
AcDbVertex
100
AcDb2dVertex
 10
6.961932577898221
 20
-3.608520093577875
 30
0.0
  0
VERTEX
  5
F7
330
ED
100
AcDbEntity
  8
None
  6
Continuous
 62
   250
370
     9
100
AcDbVertex
100
AcDb2dVertex
 10
6.961932577898221
 20
-3.629398082033353
 30
0.0
  0
SEQEND
  5
F8
330
ED
100
AcDbEntity
  8
None
  6
Continuous
 62
   250
370
     9
  0
POLYLINE
  5
F9
330
42
100
AcDbEntity
  8
FIXT
  6
Continuous
 62
   250
370
     9
100
AcDb2dPolyline
 66
     1
 10
0.0
 20
0.0
 30
0.0
 70
     1
  0
VERTEX
  5
FA
330
F9
100
AcDbEntity
  8
FIXT
  6
Continuous
 62
   250
370
     9
100
AcDbVertex
100
AcDb2dVertex
 10
6.994066618106531
 20
-3.629398082033353
 30
0.0
  0
VERTEX
  5
FB
330
F9
100
AcDbEntity
  8
FIXT
  6
Continuous
 62
   250
370
     9
100
AcDbVertex
100
AcDb2dVertex
 10
6.994066618106531
 20
-3.608520093577875
 30
0.0
  0
VERTEX
  5
FC
330
F9
100
AcDbEntity
  8
FIXT
  6
Continuous
 62
   250
370
     9
100
AcDbVertex
100
AcDb2dVertex
 10
6.961932577898221
 20
-3.608520093577875
 30
0.0
  0
VERTEX
  5
FD
330
F9
100
AcDbEntity
  8
FIXT
  6
Continuous
 62
   250
370
     9
100
AcDbVertex
100
AcDb2dVertex
 10
6.961932577898221
 20
-3.629398082033353
 30
0.0
  0
SEQEND
  5
FE
330
F9
100
AcDbEntity
  8
FIXT
  6
Continuous
 62
   250
370
     9
  0
POLYLINE
  5
FF
330
42
100
AcDbEntity
  8
None
  6
Continuous
 62
   250
370
     9
100
AcDb2dPolyline
 66
     1
 10
0.0
 20
0.0
 30
0.0
 70
     1
  0
VERTEX
  5
100
330
FF
100
AcDbEntity
  8
None
  6
Continuous
 62
   250
370
     9
100
AcDbVertex
100
AcDb2dVertex
 10
7.138981365751348
 20
-3.460330876447733
 30
0.0
  0
VERTEX
  5
101
330
FF
100
AcDbEntity
  8
None
  6
Continuous
 62
   250
370
     9
100
AcDbVertex
100
AcDb2dVertex
 10
7.288809727895122
 20
-3.460330876447733
 30
0.0
  0
VERTEX
  5
102
330
FF
100
AcDbEntity
  8
None
  6
Continuous
 62
   250
370
     9
100
AcDbVertex
100
AcDb2dVertex
 10
7.288809727895122
 20
-3.543644377573567
 30
0.0
  0
VERTEX
  5
103
330
FF
100
AcDbEntity
  8
None
  6
Continuous
 62
   250
370
     9
100
AcDbVertex
100
AcDb2dVertex
 10
7.138981365751348
 20
-3.543644377573567
 30
0.0
  0
SEQEND
  5
104
330
FF
100
AcDbEntity
  8
None
  6
Continuous
 62
   250
370
     9
  0
POLYLINE
  5
105
330
42
100
AcDbEntity
  8
None
  6
Continuous
 62
   250
370
     9
100
AcDb2dPolyline
 66
     1
 10
0.0
 20
0.0
 30
0.0
 70
     1
  0
VERTEX
  5
106
330
105
100
AcDbEntity
  8
None
  6
Continuous
 62
   250
370
     9
100
AcDbVertex
100
AcDb2dVertex
 10
7.492533297178625
 20
-3.641474311003756
 30
0.0
  0
VERTEX
  5
107
330
105
100
AcDbEntity
  8
None
  6
Continuous
 62
   250
370
     9
100
AcDbVertex
100
AcDb2dVertex
 10
7.389572219566197
 20
-3.641474311003756
 30
0.0
  0
VERTEX
  5
108
330
105
100
AcDbEntity
  8
None
  6
Continuous
 62
   250
370
     9
100
AcDbVertex
100
AcDb2dVertex
 10
7.389572219566197
 20
-3.626485857158475
 30
0.0
  0
VERTEX
  5
109
330
105
100
AcDbEntity
  8
None
  6
Continuous
 62
   250
370
     9
100
AcDbVertex
100
AcDb2dVertex
 10
7.360209024587863
 20
-3.626485857158475
 30
0.0
  0
VERTEX
  5
10A
330
105
100
AcDbEntity
  8
None
  6
Continuous
 62
   250
370
     9
100
AcDbVertex
100
AcDb2dVertex
 10
7.360209024587863
 20
-3.641474311003756
 30
0.0
  0
VERTEX
  5
10B
330
105
100
AcDbEntity
  8
None
  6
Continuous
 62
   250
370
     9
100
AcDbVertex
100
AcDb2dVertex
 10
7.307073617118094
 20
-3.641474311003756
 30
0.0
  0
VERTEX
  5
10C
330
105
100
AcDbEntity
  8
None
  6
Continuous
 62
   250
370
     9
100
AcDbVertex
100
AcDb2dVertex
 10
7.307073617118094
 20
-3.569016937181346
 30
0.0
  0
VERTEX
  5
10D
330
105
100
AcDbEntity
  8
None
  6
Continuous
 62
   250
370
     9
100
AcDbVertex
100
AcDb2dVertex
 10
7.492533297178625
 20
-3.569016937181346
 30
0.0
  0
SEQEND
  5
10E
330
105
100
AcDbEntity
  8
None
  6
Continuous
 62
   250
370
     9
  0
POLYLINE
  5
10F
330
42
100
AcDbEntity
  8
None
  6
Continuous
 62
   250
370
     9
100
AcDb2dPolyline
 66
     1
 10
0.0
 20
0.0
 30
0.0
 70
     1
  0
VERTEX
  5
110
330
10F
100
AcDbEntity
  8
None
  6
Continuous
 62
   250
370
     9
100
AcDbVertex
100
AcDb2dVertex
 10
7.320124800307372
 20
-3.460330876447731
 30
0.0
  0
VERTEX
  5
111
330
10F
100
AcDbEntity
  8
None
  6
Continuous
 62
   250
370
     9
100
AcDbVertex
100
AcDb2dVertex
 10
7.320124800307372
 20
-3.551009426093465
 30
0.0
  0
VERTEX
  5
112
330
10F
100
AcDbEntity
  8
None
  6
Continuous
 62
   250
370
     9
100
AcDbVertex
100
AcDb2dVertex
 10
7.490632297468201
 20
-3.551009426093465
 30
0.0
  0
VERTEX
  5
113
330
10F
100
AcDbEntity
  8
None
  6
Continuous
 62
   250
370
     9
100
AcDbVertex
100
AcDb2dVertex
 10
7.490632297468201
 20
-3.460330876447731
 30
0.0
  0
SEQEND
  5
114
330
10F
100
AcDbEntity
  8
None
  6
Continuous
 62
   250
370
     9
  0
POLYLINE
  5
115
330
42
100
AcDbEntity
  8
WINDOW
  6
Continuous
 62
   250
370
     9
100
AcDb2dPolyline
 66
     1
 10
0.0
 20
0.0
 30
0.0
 70
     1
  0
VERTEX
  5
116
330
115
100
AcDbEntity
  8
WINDOW
  6
Continuous
 62
   250
370
     9
100
AcDbVertex
100
AcDb2dVertex
 10
6.803675880372306
 20
-4.093014175400041
 30
0.0
  0
VERTEX
  5
117
330
115
100
AcDbEntity
  8
WINDOW
  6
Continuous
 62
   250
370
     9
100
AcDbVertex
100
AcDb2dVertex
 10
6.803675880372306
 20
-4.146231398931253
 30
0.0
  0
VERTEX
  5
118
330
115
100
AcDbEntity
  8
WINDOW
  6
Continuous
 62
   250
370
     9
100
AcDbVertex
100
AcDb2dVertex
 10
6.701452064131368
 20
-4.146231398931253
 30
0.0
  0
VERTEX
  5
119
330
115
100
AcDbEntity
  8
WINDOW
  6
Continuous
 62
   250
370
     9
100
AcDbVertex
100
AcDb2dVertex
 10
6.701452064131368
 20
-4.093014175400041
 30
0.0
  0
SEQEND
  5
11A
330
115
100
AcDbEntity
  8
WINDOW
  6
Continuous
 62
   250
370
     9
  0
POLYLINE
  5
11B
330
42
100
AcDbEntity
  8
WINDOW
  6
Continuous
 62
   250
370
     9
100
AcDb2dPolyline
 66
     1
 10
0.0
 20
0.0
 30
0.0
 70
     1
  0
VERTEX
  5
11C
330
11B
100
AcDbEntity
  8
WINDOW
  6
Continuous
 62
   250
370
     9
100
AcDbVertex
100
AcDb2dVertex
 10
4.818743894202274
 20
-3.726020593836988
 30
0.0
  0
VERTEX
  5
11D
330
11B
100
AcDbEntity
  8
WINDOW
  6
Continuous
 62
   250
370
     9
100
AcDbVertex
100
AcDb2dVertex
 10
5.267165875339094
 20
-3.726007913796568
 30
0.0
  0
VERTEX
  5
11E
330
11B
100
AcDbEntity
  8
WINDOW
  6
Continuous
 62
   250
370
     9
100
AcDbVertex
100
AcDb2dVertex
 10
5.267165875339094
 20
-3.678827697373072
 30
0.0
  0
VERTEX
  5
11F
330
11B
100
AcDbEntity
  8
WINDOW
  6
Continuous
 62
   250
370
     9
100
AcDbVertex
100
AcDb2dVertex
 10
4.82341457702706
 20
-3.678827697373072
 30
0.0
  0
VERTEX
  5
120
330
11B
100
AcDbEntity
  8
WINDOW
  6
Continuous
 62
   250
370
     9
100
AcDbVertex
100
AcDb2dVertex
 10
4.795057981240693
 20
-3.684621469492104
 30
0.0
  0
VERTEX
  5
121
330
11B
100
AcDbEntity
  8
WINDOW
  6
Continuous
 62
   250
370
     9
100
AcDbVertex
100
AcDb2dVertex
 10
4.775277319457658
 20
-3.697115334714399
 30
0.0
  0
VERTEX
  5
122
330
11B
100
AcDbEntity
  8
WINDOW
  6
Continuous
 62
   250
370
     9
100
AcDbVertex
100
AcDb2dVertex
 10
4.761265069712818
 20
-3.713782140857414
 30
0.0
  0
VERTEX
  5
123
330
11B
100
AcDbEntity
  8
WINDOW
  6
Continuous
 62
   250
370
     9
100
AcDbVertex
100
AcDb2dVertex
 10
4.752676254398586
 20
-3.733779772220953
 30
0.0
  0
VERTEX
  5
124
330
11B
100
AcDbEntity
  8
WINDOW
  6
Continuous
 62
   250
370
     9
100
AcDbVertex
100
AcDb2dVertex
 10
4.755011797081461
 20
-4.388750353339796
 30
0.0
  0
VERTEX
  5
125
330
11B
100
AcDbEntity
  8
WINDOW
  6
Continuous
 62
   250
370
     9
100
AcDbVertex
100
AcDb2dVertex
 10
4.752050907008402
 20
-4.472416279081084
 30
0.0
  0
VERTEX
  5
126
330
11B
100
AcDbEntity
  8
WINDOW
  6
Continuous
 62
   250
370
     9
100
AcDbVertex
100
AcDb2dVertex
 10
4.725927608499632
 20
-4.625276380306496
 30
0.0
  0
VERTEX
  5
127
330
11B
100
AcDbEntity
  8
WINDOW
  6
Continuous
 62
   250
370
     9
100
AcDbVertex
100
AcDb2dVertex
 10
4.700519021475422
 20
-4.69956249773599
 30
0.0
  0
VERTEX
  5
128
330
11B
100
AcDbEntity
  8
WINDOW
  6
Continuous
 62
   250
370
     9
100
AcDbVertex
100
AcDb2dVertex
 10
4.766990586519199
 20
-4.701092176891843
 30
0.0
  0
VERTEX
  5
129
330
11B
100
AcDbEntity
  8
WINDOW
  6
Continuous
 62
   250
370
     9
100
AcDbVertex
100
AcDb2dVertex
 10
4.76985399670947
 20
-4.701092176891843
 30
0.0
  0
VERTEX
  5
12A
330
11B
100
AcDbEntity
  8
WINDOW
  6
Continuous
 62
   250
370
     9
100
AcDbVertex
100
AcDb2dVertex
 10
4.794190304189169
 20
-4.580112692850575
 30
0.0
  0
VERTEX
  5
12B
330
11B
100
AcDbEntity
  8
WINDOW
  6
Continuous
 62
   250
370
     9
100
AcDbVertex
100
AcDb2dVertex
 10
4.804144337188506
 20
-4.314477117221203
 30
0.0
  0
VERTEX
  5
12C
330
11B
100
AcDbEntity
  8
WINDOW
  6
Continuous
 62
   250
370
     9
100
AcDbVertex
100
AcDb2dVertex
 10
4.804067854405027
 20
-3.740913603214735
 30
0.0
  0
SEQEND
  5
12D
330
11B
100
AcDbEntity
  8
WINDOW
  6
Continuous
 62
   250
370
     9
  0
POLYLINE
  5
12E
330
42
100
AcDbEntity
  8
WINDOW
  6
Continuous
 62
   250
370
     9
100
AcDb2dPolyline
 66
     1
 10
0.0
 20
0.0
 30
0.0
 70
     1
  0
VERTEX
  5
12F
330
12E
100
AcDbEntity
  8
WINDOW
  6
Continuous
 62
   250
370
     9
100
AcDbVertex
100
AcDb2dVertex
 10
5.267165875339094
 20
-3.726007913796568
 30
0.0
  0
VERTEX
  5
130
330
12E
100
AcDbEntity
  8
WINDOW
  6
Continuous
 62
   250
370
     9
100
AcDbVertex
100
AcDb2dVertex
 10
4.818041862758128
 20
-3.726020593836988
 30
0.0
  0
VERTEX
  5
131
330
12E
100
AcDbEntity
  8
WINDOW
  6
Continuous
 62
   250
370
     9
100
AcDbVertex
100
AcDb2dVertex
 10
4.804284823985529
 20
-3.740913603214735
 30
0.0
  0
VERTEX
  5
132
330
12E
100
AcDbEntity
  8
WINDOW
  6
Continuous
 62
   250
370
     9
100
AcDbVertex
100
AcDb2dVertex
 10
4.803940248918907
 20
-4.325413953988248
 30
0.0
  0
VERTEX
  5
133
330
12E
100
AcDbEntity
  8
WINDOW
  6
Continuous
 62
   250
370
     9
100
AcDbVertex
100
AcDb2dVertex
 10
4.794407273769672
 20
-4.580112692850575
 30
0.0
  0
VERTEX
  5
134
330
12E
100
AcDbEntity
  8
WINDOW
  6
Continuous
 62
   250
370
     9
100
AcDbVertex
100
AcDb2dVertex
 10
4.770070966289972
 20
-4.701092176891843
 30
0.0
  0
VERTEX
  5
135
330
12E
100
AcDbEntity
  8
WINDOW
  6
Continuous
 62
   250
370
     9
100
AcDbVertex
100
AcDb2dVertex
 10
4.831007908533164
 20
-4.701092176891843
 30
0.0
  0
VERTEX
  5
136
330
12E
100
AcDbEntity
  8
WINDOW
  6
Continuous
 62
   250
370
     9
100
AcDbVertex
100
AcDb2dVertex
 10
4.831007908533164
 20
-3.79715441296424
 30
0.0
  0
VERTEX
  5
137
330
12E
100
AcDbEntity
  8
WINDOW
  6
Continuous
 62
   250
370
     9
100
AcDbVertex
100
AcDb2dVertex
 10
4.869012404914465
 20
-3.79715441296424
 30
0.0
  0
VERTEX
  5
138
330
12E
100
AcDbEntity
  8
WINDOW
  6
Continuous
 62
   250
370
     9
100
AcDbVertex
100
AcDb2dVertex
 10
4.869012404914465
 20
-3.750854956173652
 30
0.0
  0
VERTEX
  5
139
330
12E
100
AcDbEntity
  8
WINDOW
  6
Continuous
 62
   250
370
     9
100
AcDbVertex
100
AcDb2dVertex
 10
5.267165875339094
 20
-3.750854956173652
 30
0.0
  0
SEQEND
  5
13A
330
12E
100
AcDbEntity
  8
WINDOW
  6
Continuous
 62
   250
370
     9
  0
POLYLINE
  5
13B
330
42
100
AcDbEntity
  8
WINDOW
  6
Continuous
 62
   250
370
     9
100
AcDb2dPolyline
 66
     1
 10
0.0
 20
0.0
 30
0.0
 70
     1
  0
VERTEX
  5
13C
330
13B
100
AcDbEntity
  8
WINDOW
  6
Continuous
 62
   250
370
     9
100
AcDbVertex
100
AcDb2dVertex
 10
5.883053552829576
 20
-3.508635792329338
 30
0.0
  0
VERTEX
  5
13D
330
13B
100
AcDbEntity
  8
WINDOW
  6
Continuous
 62
   250
370
     9
100
AcDbVertex
100
AcDb2dVertex
 10
5.85474787847537
 20
-3.529437298001337
 30
0.0
  0
VERTEX
  5
13E
330
13B
100
AcDbEntity
  8
WINDOW
  6
Continuous
 62
   250
370
     9
100
AcDbVertex
100
AcDb2dVertex
 10
5.850830148526891
 20
-3.51776038966889
 30
0.0
  0
VERTEX
  5
13F
330
13B
100
AcDbEntity
  8
WINDOW
  6
Continuous
 62
   250
370
     9
100
AcDbVertex
100
AcDb2dVertex
 10
5.869130465908635
 20
-3.504169197774152
 30
0.0
  0
SEQEND
  5
140
330
13B
100
AcDbEntity
  8
WINDOW
  6
Continuous
 62
   250
370
     9
  0
POLYLINE
  5
141
330
42
100
AcDbEntity
  8
WINDOW
  6
Continuous
 62
   250
370
     9
100
AcDb2dPolyline
 66
     1
 10
0.0
 20
0.0
 30
0.0
 70
     1
  0
VERTEX
  5
142
330
141
100
AcDbEntity
  8
WINDOW
  6
Continuous
 62
   250
370
     9
100
AcDbVertex
100
AcDb2dVertex
 10
5.895129781799979
 20
-3.520712021299739
 30
0.0
  0
VERTEX
  5
143
330
141
100
AcDbEntity
  8
WINDOW
  6
Continuous
 62
   250
370
     9
100
AcDbVertex
100
AcDb2dVertex
 10
5.868713030927226
 20
-3.540122546664831
 30
0.0
  0
VERTEX
  5
144
330
141
100
AcDbEntity
  8
WINDOW
  6
Continuous
 62
   250
370
     9
100
AcDbVertex
100
AcDb2dVertex
 10
5.897656531441553
 20
-3.561013617701695
 30
0.0
  0
VERTEX
  5
145
330
141
100
AcDbEntity
  8
WINDOW
  6
Continuous
 62
   250
370
     9
100
AcDbVertex
100
AcDb2dVertex
 10
5.992565627624766
 20
-3.603318861760322
 30
0.0
  0
VERTEX
  5
146
330
141
100
AcDbEntity
  8
WINDOW
  6
Continuous
 62
   250
370
     9
100
AcDbVertex
100
AcDb2dVertex
 10
6.070718553570584
 20
-3.62145333226421
 30
0.0
  0
VERTEX
  5
147
330
141
100
AcDbEntity
  8
WINDOW
  6
Continuous
 62
   250
370
     9
100
AcDbVertex
100
AcDb2dVertex
 10
6.070718553570584
 20
-3.600855713591327
 30
0.0
  0
VERTEX
  5
148
330
141
100
AcDbEntity
  8
WINDOW
  6
Continuous
 62
   250
370
     9
100
AcDbVertex
100
AcDb2dVertex
 10
6.04602447676046
 20
-3.600855713591327
 30
0.0
  0
VERTEX
  5
149
330
141
100
AcDbEntity
  8
WINDOW
  6
Continuous
 62
   250
370
     9
100
AcDbVertex
100
AcDb2dVertex
 10
6.04602447676046
 20
-3.574298677192034
 30
0.0
  0
VERTEX
  5
14A
330
141
100
AcDbEntity
  8
WINDOW
  6
Continuous
 62
   250
370
     9
100
AcDbVertex
100
AcDb2dVertex
 10
6.068421453549931
 20
-3.574298677192034
 30
0.0
  0
VERTEX
  5
14B
330
141
100
AcDbEntity
  8
WINDOW
  6
Continuous
 62
   250
370
     9
100
AcDbVertex
100
AcDb2dVertex
 10
6.068421453549931
 20
-3.561013617701695
 30
0.0
  0
VERTEX
  5
14C
330
141
100
AcDbEntity
  8
WINDOW
  6
Continuous
 62
   250
370
     9
100
AcDbVertex
100
AcDb2dVertex
 10
6.037218893136209
 20
-3.561013617701695
 30
0.0
  0
VERTEX
  5
14D
330
141
100
AcDbEntity
  8
WINDOW
  6
Continuous
 62
   250
370
     9
100
AcDbVertex
100
AcDb2dVertex
 10
5.947899682072909
 20
-3.536842844146954
 30
0.0
  0
SEQEND
  5
14E
330
141
100
AcDbEntity
  8
WINDOW
  6
Continuous
 62
   250
370
     9
  0
LINE
  5
14F
330
42
100
AcDbEntity
  8
A-ARCH
  6
Continuous
 62
   250
370
     9
100
AcDbLine
 10
6.668008435905684
 20
-3.44825464747733
 30
0.0
 11
6.668008435905684
 21
-3.627901635993438
 31
0.0
  0
LINE
  5
150
330
42
100
AcDbEntity
  8
A-ARCH
  6
Continuous
 62
   250
370
     9
100
AcDbLine
 10
6.668008435905684
 20
-3.44825464747733
 30
0.0
 11
6.668008435905684
 21
-3.624328481111579
 31
0.0
  0
LINE
  5
151
330
42
100
AcDbEntity
  8
A-ARCH
  6
Continuous
 62
   250
370
     9
100
AcDbLine
 10
6.994066618106531
 20
-3.44825464747733
 30
0.0
 11
6.994066618106531
 21
-3.624328481111579
 31
0.0
  0
POLYLINE
  5
152
330
42
100
AcDbEntity
  8
FIXT
  6
Continuous
 62
   250
370
     9
100
AcDb2dPolyline
 66
     1
 10
0.0
 20
0.0
 30
0.0
 70
     1
  0
VERTEX
  5
153
330
152
100
AcDbEntity
  8
FIXT
  6
Continuous
 62
   250
370
     9
100
AcDbVertex
100
AcDb2dVertex
 10
7.271819884425766
 20
-3.550680926464334
 30
0.0
  0
VERTEX
  5
154
330
152
100
AcDbEntity
  8
FIXT
  6
Continuous
 62
   250
370
     9
100
AcDbVertex
100
AcDb2dVertex
 10
7.271819884425766
 20
-3.617935055764363
 30
0.0
  0
VERTEX
  5
155
330
152
100
AcDbEntity
  8
FIXT
  6
Continuous
 62
   250
370
     9
100
AcDbVertex
100
AcDb2dVertex
 10
7.144131072325293
 20
-3.617935055764363
 30
0.0
  0
VERTEX
  5
156
330
152
100
AcDbEntity
  8
FIXT
  6
Continuous
 62
   250
370
     9
100
AcDbVertex
100
AcDb2dVertex
 10
7.144131072325293
 20
-3.550680926464334
 30
0.0
  0
SEQEND
  5
157
330
152
100
AcDbEntity
  8
FIXT
  6
Continuous
 62
   250
370
     9
  0
POLYLINE
  5
158
330
42
100
AcDbEntity
  8
FIXT
  6
Continuous
 62
   250
370
     9
100
AcDb2dPolyline
 66
     1
 10
0.0
 20
0.0
 30
0.0
 70
     1
  0
VERTEX
  5
159
330
158
100
AcDbEntity
  8
FIXT
  6
Continuous
 62
   250
370
     9
100
AcDbVertex
100
AcDb2dVertex
 10
6.762033149587301
 20
-3.795596501159699
 30
0.0
  0
VERTEX
  5
15A
330
158
100
AcDbEntity
  8
FIXT
  6
Continuous
 62
   250
370
     9
100
AcDbVertex
100
AcDb2dVertex
 10
6.762033149587301
 20
-3.756060805834031
 30
0.0
  0
VERTEX
  5
15B
330
158
100
AcDbEntity
  8
FIXT
  6
Continuous
 62
   250
370
     9
100
AcDbVertex
100
AcDb2dVertex
 10
6.588537993379198
 20
-3.756060805834031
 30
0.0
  0
VERTEX
  5
15C
330
158
100
AcDbEntity
  8
FIXT
  6
Continuous
 62
   250
370
     9
100
AcDbVertex
100
AcDb2dVertex
 10
6.588537993379198
 20
-3.795596501159699
 30
0.0
  0
SEQEND
  5
15D
330
158
100
AcDbEntity
  8
FIXT
  6
Continuous
 62
   250
370
     9
  0
POLYLINE
  5
15E
330
42
100
AcDbEntity
  8
WINDOW
  6
Continuous
 62
   250
370
     9
100
AcDb2dPolyline
 66
     1
 10
0.0
 20
0.0
 30
0.0
 70
     1
  0
VERTEX
  5
15F
330
15E
100
AcDbEntity
  8
WINDOW
  6
Continuous
 62
   250
370
     9
100
AcDbVertex
100
AcDb2dVertex
 10
7.551058526908366
 20
-3.375797273654919
 30
0.0
  0
VERTEX
  5
160
330
15E
100
AcDbEntity
  8
WINDOW
  6
Continuous
 62
   250
370
     9
100
AcDbVertex
100
AcDb2dVertex
 10
7.551058526908366
 20
-3.358007378217656
 30
0.0
  0
VERTEX
  5
161
330
15E
100
AcDbEntity
  8
WINDOW
  6
Continuous
 62
   250
370
     9
100
AcDbVertex
100
AcDb2dVertex
 10
7.860760262050732
 20
-3.358007378217656
 30
0.0
  0
VERTEX
  5
162
330
15E
100
AcDbEntity
  8
WINDOW
  6
Continuous
 62
   250
370
     9
100
AcDbVertex
100
AcDb2dVertex
 10
7.860760262050732
 20
-3.375797273654919
 30
0.0
  0
SEQEND
  5
163
330
15E
100
AcDbEntity
  8
WINDOW
  6
Continuous
 62
   250
370
     9
  0
POLYLINE
  5
164
330
42
100
AcDbEntity
  8
WINDOW
  6
Continuous
 62
   250
370
     9
100
AcDb2dPolyline
 66
     1
 10
0.0
 20
0.0
 30
0.0
 70
     1
  0
VERTEX
  5
165
330
164
100
AcDbEntity
  8
WINDOW
  6
Continuous
 62
   250
370
     9
100
AcDbVertex
100
AcDb2dVertex
 10
7.551058526908366
 20
-3.399949731595723
 30
0.0
  0
VERTEX
  5
166
330
164
100
AcDbEntity
  8
WINDOW
  6
Continuous
 62
   250
370
     9
100
AcDbVertex
100
AcDb2dVertex
 10
7.551058526908366
 20
-3.410350585066964
 30
0.0
  0
VERTEX
  5
167
330
164
100
AcDbEntity
  8
WINDOW
  6
Continuous
 62
   250
370
     9
100
AcDbVertex
100
AcDb2dVertex
 10
7.55384048752218
 20
-3.41280085192506
 30
0.0
  0
VERTEX
  5
168
330
164
100
AcDbEntity
  8
WINDOW
  6
Continuous
 62
   250
370
     9
100
AcDbVertex
100
AcDb2dVertex
 10
7.847692373411375
 20
-3.41280085192506
 30
0.0
  0
VERTEX
  5
169
330
164
100
AcDbEntity
  8
WINDOW
  6
Continuous
 62
   250
370
     9
100
AcDbVertex
100
AcDb2dVertex
 10
7.847692373411375
 20
-3.438694500812911
 30
0.0
  0
VERTEX
  5
16A
330
164
100
AcDbEntity
  8
WINDOW
  6
Continuous
 62
   250
370
     9
100
AcDbVertex
100
AcDb2dVertex
 10
7.863555103975447
 20
-3.438694500812911
 30
0.0
  0
VERTEX
  5
16B
330
164
100
AcDbEntity
  8
WINDOW
  6
Continuous
 62
   250
370
     9
100
AcDbVertex
100
AcDb2dVertex
 10
7.863963481785129
 20
-3.399949731595723
 30
0.0
  0
SEQEND
  5
16C
330
164
100
AcDbEntity
  8
WINDOW
  6
Continuous
 62
   250
370
     9
  0
POLYLINE
  5
16D
330
42
100
AcDbEntity
  8
WINDOW
  6
Continuous
 62
   250
370
     9
100
AcDb2dPolyline
 66
     1
 10
0.0
 20
0.0
 30
0.0
 70
     1
  0
VERTEX
  5
16E
330
16D
100
AcDbEntity
  8
WINDOW
  6
Continuous
 62
   250
370
     9
100
AcDbVertex
100
AcDb2dVertex
 10
6.038677500325349
 20
-3.745247359251245
 30
0.0
  0
VERTEX
  5
16F
330
16D
100
AcDbEntity
  8
WINDOW
  6
Continuous
 62
   250
370
     9
100
AcDbVertex
100
AcDb2dVertex
 10
5.991739613563194
 20
-3.745247359251245
 30
0.0
  0
VERTEX
  5
170
330
16D
100
AcDbEntity
  8
WINDOW
  6
Continuous
 62
   250
370
     9
100
AcDbVertex
100
AcDb2dVertex
 10
5.991739613563194
 20
-3.66562676894456
 30
0.0
  0
VERTEX
  5
171
330
16D
100
AcDbEntity
  8
WINDOW
  6
Continuous
 62
   250
370
     9
100
AcDbVertex
100
AcDb2dVertex
 10
6.026030468265614
 20
-3.67426650569095
 30
0.0
  0
VERTEX
  5
172
330
16D
100
AcDbEntity
  8
WINDOW
  6
Continuous
 62
   250
370
     9
100
AcDbVertex
100
AcDb2dVertex
 10
6.038677500325349
 20
-3.676014942375382
 30
0.0
  0
SEQEND
  5
173
330
16D
100
AcDbEntity
  8
WINDOW
  6
Continuous
 62
   250
370
     9
  0
LWPOLYLINE
  5
174
330
42
100
AcDbEntity
  8
None
  6
Continuous
 62
   250
370
     9
100
AcDbPolyline
 90
       14
 70
     1
 43
0.0
 10
6.139069607002093
 20
-3.763420876228813
 10
6.139069607002093
 20
-3.821110833454767
 10
6.116196024429602
 20
-3.821110833454767
 10
6.116196024429602
 20
-4.042290202190558
 10
6.116196024429602
 20
-4.043579140972522
 10
6.116196024429602
 20
-4.047946248225492
 10
6.097387738118661
 20
-4.047946248225492
 10
6.097387738118661
 20
-4.043509685230926
 10
6.097387738118661
 20
-4.042290202190558
 10
6.097387738118661
 20
-3.790925739984124
 42
-0.4142135623730993
 10
6.136031670823947
 20
-3.752281807278839
 10
6.155715907171128
 20
-3.752281807278839
 10
6.160806819148817
 20
-3.752281807278839
 10
6.160806819148817
 20
-3.763420876228813
  0
LWPOLYLINE
  5
175
330
42
100
AcDbEntity
  8
None
  6
Continuous
 62
   250
370
     9
100
AcDbPolyline
 90
        6
 70
     1
 43
0.0
 10
6.092903526704943
 20
-3.618683399716347
 10
6.137673917902284
 20
-3.618471997158657
 10
6.169348903978042
 20
-3.586797011082899
 10
6.139813671123285
 20
-3.557160775669037
 10
6.090827602180387
 20
-3.557160775669037
 10
6.061005855510403
 20
-3.587078475029144
  0
LINE
  5
176
330
42
100
AcDbEntity
  8
None
  6
Continuous
 62
   250
370
     9
100
AcDbLine
 10
4.766235041745587
 20
-4.70107478989199
 30
0.0
 11
7.863555103975447
 21
-4.701284458089557
 31
0.0
  0
LINE
  5
177
330
42
100
AcDbEntity
  8
None
  6
Continuous
 62
   250
370
     9
100
AcDbLine
 10
6.25853229319841
 20
-4.078056354717027
 30
0.0
 11
6.25853229319841
 21
-4.25736198849424
 31
0.0
  0
LINE
  5
178
330
42
100
AcDbEntity
  8
None
  6
Continuous
 62
   250
370
     9
100
AcDbLine
 10
6.300007900326771
 20
-4.078056354717027
 30
0.0
 11
6.300007900326771
 21
-4.25736198849424
 31
0.0
  0
LINE
  5
179
330
42
100
AcDbEntity
  8
None
  6
Continuous
 62
   250
370
     9
100
AcDbLine
 10
6.519446587363924
 20
-4.078056354717027
 30
0.0
 11
6.519446587363924
 21
-4.25736198849424
 31
0.0
  0
LINE
  5
17A
330
42
100
AcDbEntity
  8
None
  6
Continuous
 62
   250
370
     9
100
AcDbLine
 10
6.557910382987067
 20
-4.078056354717027
 30
0.0
 11
6.557910382987067
 21
-4.257612449911134
 31
0.0
  0
LINE
  5
17B
330
42
100
AcDbEntity
  8
None
  6
Continuous
 62
   250
370
     9
100
AcDbLine
 10
6.852674707722858
 20
-4.078056354717027
 30
0.0
 11
6.852674707722858
 21
-4.25736198849424
 31
0.0
  0
LINE
  5
17C
330
42
100
AcDbEntity
  8
None
  6
Continuous
 62
   250
370
     9
100
AcDbLine
 10
6.813701583743939
 20
-4.078056354717027
 30
0.0
 11
6.813701583743939
 21
-4.25736198849424
 31
0.0
  0
POLYLINE
  5
17D
330
42
100
AcDbEntity
  8
WINDOW
  6
Continuous
 62
   250
370
     9
100
AcDb2dPolyline
 66
     1
 10
0.0
 20
0.0
 30
0.0
 70
     1
  0
VERTEX
  5
17E
330
17D
100
AcDbEntity
  8
WINDOW
  6
Continuous
 62
   250
370
     9
100
AcDbVertex
100
AcDb2dVertex
 10
6.655932206935282
 20
-3.641474311003756
 30
0.0
  0
VERTEX
  5
17F
330
17D
100
AcDbEntity
  8
WINDOW
  6
Continuous
 62
   250
370
     9
100
AcDbVertex
100
AcDb2dVertex
 10
6.655932206935282
 20
-3.661357016921591
 30
0.0
  0
VERTEX
  5
180
330
17D
100
AcDbEntity
  8
WINDOW
  6
Continuous
 62
   250
370
     9
100
AcDbVertex
100
AcDb2dVertex
 10
6.602902050693778
 20
-3.661357016921591
 30
0.0
  0
VERTEX
  5
181
330
17D
100
AcDbEntity
  8
WINDOW
  6
Continuous
 62
   250
370
     9
100
AcDbVertex
100
AcDb2dVertex
 10
6.602902050693778
 20
-3.616537703261808
 30
0.0
  0
VERTEX
  5
182
330
17D
100
AcDbEntity
  8
WINDOW
  6
Continuous
 62
   250
370
     9
100
AcDbVertex
100
AcDb2dVertex
 10
6.343586180189367
 20
-3.616588825964449
 30
0.0
  0
VERTEX
  5
183
330
17D
100
AcDbEntity
  8
WINDOW
  6
Continuous
 62
   250
370
     9
100
AcDbVertex
100
AcDb2dVertex
 10
6.343586180189367
 20
-3.605243812658204
 30
0.0
  0
VERTEX
  5
184
330
17D
100
AcDbEntity
  8
WINDOW
  6
Continuous
 62
   250
370
     9
100
AcDbVertex
100
AcDb2dVertex
 10
6.606800037321012
 20
-3.605243812658204
 30
0.0
  0
SEQEND
  5
185
330
17D
100
AcDbEntity
  8
WINDOW
  6
Continuous
 62
   250
370
     9
  0
POLYLINE
  5
186
330
42
100
AcDbEntity
  8
WINDOW
  6
Continuous
 62
   250
370
     9
100
AcDb2dPolyline
 66
     1
 10
0.0
 20
0.0
 30
0.0
 70
     1
  0
VERTEX
  5
187
330
186
100
AcDbEntity
  8
WINDOW
  6
Continuous
 62
   250
370
     9
100
AcDbVertex
100
AcDb2dVertex
 10
6.302143178879223
 20
-3.433203238229586
 30
0.0
  0
VERTEX
  5
188
330
186
100
AcDbEntity
  8
WINDOW
  6
Continuous
 62
   250
370
     9
100
AcDbVertex
100
AcDb2dVertex
 10
6.564077994140612
 20
-3.433203238229586
 30
0.0
  0
VERTEX
  5
189
330
186
100
AcDbEntity
  8
WINDOW
  6
Continuous
 62
   250
370
     9
100
AcDbVertex
100
AcDb2dVertex
 10
6.564077994140612
 20
-3.461751242245134
 30
0.0
  0
VERTEX
  5
18A
330
186
100
AcDbEntity
  8
WINDOW
  6
Continuous
 62
   250
370
     9
100
AcDbVertex
100
AcDb2dVertex
 10
6.247050818504801
 20
-3.461751242245134
 30
0.0
  0
VERTEX
  5
18B
330
186
100
AcDbEntity
  8
WINDOW
  6
Continuous
 62
   250
370
     9
100
AcDbVertex
100
AcDb2dVertex
 10
6.219842873364002
 20
-3.461751242245134
 30
0.0
  0
VERTEX
  5
18C
330
186
100
AcDbEntity
  8
WINDOW
  6
Continuous
 62
   250
370
     9
100
AcDbVertex
100
AcDb2dVertex
 10
6.218273164868336
 20
-3.465247914343513
 30
0.0
  0
VERTEX
  5
18D
330
186
100
AcDbEntity
  8
WINDOW
  6
Continuous
 62
   250
370
     9
100
AcDbVertex
100
AcDb2dVertex
 10
6.21773718157253
 20
-3.497228787714378
 30
0.0
  0
VERTEX
  5
18E
330
186
100
AcDbEntity
  8
WINDOW
  6
Continuous
 62
   250
370
     9
100
AcDbVertex
100
AcDb2dVertex
 10
6.029054758540767
 20
-3.497228787714378
 30
0.0
  0
VERTEX
  5
18F
330
186
100
AcDbEntity
  8
WINDOW
  6
Continuous
 62
   250
370
     9
100
AcDbVertex
100
AcDb2dVertex
 10
6.001144983226308
 20
-3.48514350157225
 30
0.0
  0
VERTEX
  5
190
330
186
100
AcDbEntity
  8
WINDOW
  6
Continuous
 62
   250
370
     9
100
AcDbVertex
100
AcDb2dVertex
 10
5.991739613563194
 20
-3.472407105418132
 30
0.0
  0
VERTEX
  5
191
330
186
100
AcDbEntity
  8
WINDOW
  6
Continuous
 62
   250
370
     9
100
AcDbVertex
100
AcDb2dVertex
 10
6.0377456179898
 20
-3.449729557575581
 30
0.0
  0
VERTEX
  5
192
330
186
100
AcDbEntity
  8
WINDOW
  6
Continuous
 62
   250
370
     9
100
AcDbVertex
100
AcDb2dVertex
 10
6.040221244928733
 20
-3.454923543655751
 30
0.0
  0
SEQEND
  5
193
330
186
100
AcDbEntity
  8
WINDOW
  6
Continuous
 62
   250
370
     9
  0
POLYLINE
  5
194
330
42
100
AcDbEntity
  8
None
  6
Continuous
 62
   250
370
     9
100
AcDb2dPolyline
 66
     1
 10
0.0
 20
0.0
 30
0.0
 70
     1
  0
VERTEX
  5
195
330
194
100
AcDbEntity
  8
None
  6
Continuous
 62
   250
370
     9
100
AcDbVertex
100
AcDb2dVertex
 10
5.3514519375272
 20
-3.726262697998548
 30
0.0
  0
VERTEX
  5
196
330
194
100
AcDbEntity
  8
None
  6
Continuous
 62
   250
370
     9
100
AcDbVertex
100
AcDb2dVertex
 10
5.923262810258285
 20
-3.726262697998548
 30
0.0
  0
VERTEX
  5
197
330
194
100
AcDbEntity
  8
None
  6
Continuous
 62
   250
370
     9
100
AcDbVertex
100
AcDb2dVertex
 10
5.923262810258285
 20
-3.748904355672249
 30
0.0
  0
VERTEX
  5
198
330
194
100
AcDbEntity
  8
None
  6
Continuous
 62
   250
370
     9
100
AcDbVertex
100
AcDb2dVertex
 10
5.3514519375272
 20
-3.748904355672249
 30
0.0
  0
SEQEND
  5
199
330
194
100
AcDbEntity
  8
None
  6
Continuous
 62
   250
370
     9
  0
POLYLINE
  5
19A
330
42
100
AcDbEntity
  8
None
  6
Continuous
 62
   250
370
     9
100
AcDb2dPolyline
 66
     1
 10
0.0
 20
0.0
 30
0.0
 70
     1
  0
VERTEX
  5
19B
330
19A
100
AcDbEntity
  8
None
  6
Continuous
 62
   250
370
     9
100
AcDbVertex
100
AcDb2dVertex
 10
6.025083370850496
 20
-3.520930522171249
 30
0.0
  0
VERTEX
  5
19C
330
19A
100
AcDbEntity
  8
None
  6
Continuous
 62
   250
370
     9
100
AcDbVertex
100
AcDb2dVertex
 10
6.020889335510005
 20
-3.534068167791864
 30
0.0
  0
VERTEX
  5
19D
330
19A
100
AcDbEntity
  8
None
  6
Continuous
 62
   250
370
     9
100
AcDbVertex
100
AcDb2dVertex
 10
5.954380004555643
 20
-3.512835863880631
 30
0.0
  0
VERTEX
  5
19E
330
19A
100
AcDbEntity
  8
None
  6
Continuous
 62
   250
370
     9
100
AcDbVertex
100
AcDb2dVertex
 10
5.948679998458031
 20
-3.530690901825297
 30
0.0
  0
VERTEX
  5
19F
330
19A
100
AcDbEntity
  8
None
  6
Continuous
 62
   250
370
     9
100
AcDbVertex
100
AcDb2dVertex
 10
5.931843936687232
 20
-3.498403224806904
 30
0.0
  0
VERTEX
  5
1A0
330
19A
100
AcDbEntity
  8
None
  6
Continuous
 62
   250
370
     9
100
AcDbVertex
100
AcDb2dVertex
 10
5.964274045993741
 20
-3.481843180315349
 30
0.0
  0
VERTEX
  5
1A1
330
19A
100
AcDbEntity
  8
None
  6
Continuous
 62
   250
370
     9
100
AcDbVertex
100
AcDb2dVertex
 10
5.958574039896131
 20
-3.499698218260016
 30
0.0
  0
SEQEND
  5
1A2
330
19A
100
AcDbEntity
  8
None
  6
Continuous
 62
   250
370
     9
  0
POLYLINE
  5
1A3
330
42
100
AcDbEntity
  8
None
  6
Continuous
 62
   250
370
     9
100
AcDb2dPolyline
 66
     1
 10
0.0
 20
0.0
 30
0.0
 70
     1
  0
VERTEX
  5
1A4
330
1A3
100
AcDbEntity
  8
None
  6
Continuous
 62
   250
370
     9
100
AcDbVertex
100
AcDb2dVertex
 10
5.839349281195388
 20
-3.580734961900518
 30
0.0
  0
VERTEX
  5
1A5
330
1A3
100
AcDbEntity
  8
None
  6
Continuous
 62
   250
370
     9
100
AcDbVertex
100
AcDb2dVertex
 10
5.844737649231908
 20
-3.568040350650338
 30
0.0
  0
VERTEX
  5
1A6
330
1A3
100
AcDbEntity
  8
None
  6
Continuous
 62
   250
370
     9
100
AcDbVertex
100
AcDb2dVertex
 10
5.909004118685939
 20
-3.595318963835213
 30
0.0
  0
VERTEX
  5
1A7
330
1A3
100
AcDbEntity
  8
None
  6
Continuous
 62
   250
370
     9
100
AcDbVertex
100
AcDb2dVertex
 10
5.916327311785385
 20
-3.578066042565281
 30
0.0
  0
VERTEX
  5
1A8
330
1A3
100
AcDbEntity
  8
None
  6
Continuous
 62
   250
370
     9
100
AcDbVertex
100
AcDb2dVertex
 10
5.930112330761764
 20
-3.611769459528774
 30
0.0
  0
VERTEX
  5
1A9
330
1A3
100
AcDbEntity
  8
None
  6
Continuous
 62
   250
370
     9
100
AcDbVertex
100
AcDb2dVertex
 10
5.896292557549975
 20
-3.625266496355324
 30
0.0
  0
VERTEX
  5
1AA
330
1A3
100
AcDbEntity
  8
None
  6
Continuous
 62
   250
370
     9
100
AcDbVertex
100
AcDb2dVertex
 10
5.903615750649421
 20
-3.608013575085391
 30
0.0
  0
SEQEND
  5
1AB
330
1A3
100
AcDbEntity
  8
None
  6
Continuous
 62
   250
370
     9
  0
ENDBLK
  5
44
330
42
100
AcDbEntity
  8
0
100
AcDbBlockEnd
  0
BLOCK
  5
46
330
45
100
AcDbEntity
  8
0
100
AcDbBlockBegin
  2
Group-3-1
 70
     0
 10
0.0
 20
0.0
 30
0.0
  3
Group-3-1
  1

  0
ELLIPSE
  5
1AC
330
45
100
AcDbEntity
  8
None
  6
Continuous
 62
     7
370
    18
100
AcDbEllipse
 10
4.754836483954028
 20
-3.385863501171561
 30
0.0
 11
0.1226330754869231
 21
0.0
 31
0.0
210
0.0
220
0.0
230
1.0
 40
1.0
 41
0.0
 42
6.283185307179586
  0
POLYLINE
  5
1AD
102
{ACAD_REACTORS
330
1B8
102
}
330
45
100
AcDbEntity
  8
None
  6
Continuous
 62
     7
370
    18
100
AcDb2dPolyline
 66
     1
 10
0.0
 20
0.0
 30
0.0
 70
     1
  0
VERTEX
  5
1AE
330
1AD
100
AcDbEntity
  8
None
  6
Continuous
 62
     7
370
    18
100
AcDbVertex
100
AcDb2dVertex
 10
4.744061696675595
 20
-3.485363760043854
 30
0.0
  0
VERTEX
  5
1AF
330
1AD
100
AcDbEntity
  8
None
  6
Continuous
 62
     7
370
    18
100
AcDbVertex
100
AcDb2dVertex
 10
4.768963863303352
 20
-3.485363760043854
 30
0.0
  0
VERTEX
  5
1B0
330
1AD
100
AcDbEntity
  8
None
  6
Continuous
 62
     7
370
    18
100
AcDbVertex
100
AcDb2dVertex
 10
4.768963863303352
 20
-3.330473378487309
 30
0.0
  0
VERTEX
  5
1B1
330
1AD
100
AcDbEntity
  8
None
  6
Continuous
 62
     7
370
    18
100
AcDbVertex
100
AcDb2dVertex
 10
4.855083970681878
 20
-3.416593534919065
 30
0.0
  0
VERTEX
  5
1B2
330
1AD
100
AcDbEntity
  8
None
  6
Continuous
 62
     7
370
    18
100
AcDbVertex
100
AcDb2dVertex
 10
4.855083970681878
 20
-3.384814743109997
 30
0.0
  0
VERTEX
  5
1B3
330
1AD
100
AcDbEntity
  8
None
  6
Continuous
 62
     7
370
    18
100
AcDbVertex
100
AcDb2dVertex
 10
4.756512779989474
 20
-3.286243552417593
 30
0.0
  0
VERTEX
  5
1B4
330
1AD
100
AcDbEntity
  8
None
  6
Continuous
 62
     7
370
    18
100
AcDbVertex
100
AcDb2dVertex
 10
4.655866539553369
 20
-3.386889792853697
 30
0.0
  0
VERTEX
  5
1B5
330
1AD
100
AcDbEntity
  8
None
  6
Continuous
 62
     7
370
    18
100
AcDbVertex
100
AcDb2dVertex
 10
4.655866539553369
 20
-3.418668928035377
 30
0.0
  0
VERTEX
  5
1B6
330
1AD
100
AcDbEntity
  8
None
  6
Continuous
 62
     7
370
    18
100
AcDbVertex
100
AcDb2dVertex
 10
4.744061696675595
 20
-3.330473378487309
 30
0.0
  0
SEQEND
  5
1B7
330
1AD
100
AcDbEntity
  8
None
  6
Continuous
 62
     7
370
    18
  0
HATCH
  5
1B8
330
45
100
AcDbEntity
  8
None
  6
Continuous
 62
     7
370
     0
100
AcDbHatch
 10
0.0
 20
0.0
 30
0.0
210
0.0
220
0.0
230
1.0
  2
SOLID
 70
     1
 71
     1
 91
        1
 92
        1
 93
        9
 72
     1
 10
4.744061696675595
 20
-3.485363760043854
 11
4.768963863303352
 21
-3.485363760043854
 72
     1
 10
4.768963863303352
 20
-3.485363760043854
 11
4.768963863303352
 21
-3.330473378487309
 72
     1
 10
4.768963863303352
 20
-3.330473378487309
 11
4.855083970681878
 21
-3.416593534919065
 72
     1
 10
4.855083970681878
 20
-3.416593534919065
 11
4.855083970681878
 21
-3.384814743109997
 72
     1
 10
4.855083970681878
 20
-3.384814743109997
 11
4.756512779989474
 21
-3.286243552417593
 72
     1
 10
4.756512779989474
 20
-3.286243552417593
 11
4.655866539553369
 21
-3.386889792853697
 72
     1
 10
4.655866539553369
 20
-3.386889792853697
 11
4.655866539553369
 21
-3.418668928035377
 72
     1
 10
4.655866539553369
 20
-3.418668928035377
 11
4.744061696675595
 21
-3.330473378487309
 72
     1
 10
4.744061696675595
 20
-3.330473378487309
 11
4.744061696675595
 21
-3.485363760043854
 97
        1
330
1AD
 75
     0
 76
     1
 98
        1
 10
0.0
 20
0.0
  0
ENDBLK
  5
47
330
45
100
AcDbEntity
  8
0
100
AcDbBlockEnd
  0
BLOCK
  5
49
330
48
100
AcDbEntity
  8
0
100
AcDbBlockBegin
  2
Group-4-1
 70
     0
 10
0.0
 20
0.0
 30
0.0
  3
Group-4-1
  1

  0
WIPEOUT
  5
1B9
330
48
100
AcDbEntity
  8
None
  6
Continuous
 62
     7
370
    18
 92
      200
310
C8000000040000000C0000000E000000B20000000C00000016000000000000C20C00000014000000010000009C000000070000000600000093B4E651EEA21C4074E966CC42EE0DC0000000000000000093B4E651EEA21C40CEEE6F77FC540EC00000000000000000F782F8F75B3F1C40CEEE6F77FC540EC000000000000000
310
00F782F8F75B3F1C409DD84630965510C00000000000000000C39F3CE0215D1D409DD84630965510C00000000000000000C39F3CE0215D1D4074E966CC42EE0DC00000000000000000
100
AcDbWipeout
 90
        0
 10
7.061874270003266
 20
-4.083580736469369
 30
0.0
 11
0.3422423910460308
 21
0.0
 31
0.0
 12
0.0
 22
0.3422423910460308
 32
0.0
 13
1.0
 23
1.0
340
0
 70
     4
280
     1
281
    50
282
    50
283
     0
360
0
 71
     2
 91
        7
 14
-0.2158798094191923
 24
-0.5
 14
-0.2158798094191923
 24
-0.35344065311258
 14
-0.5000000000000036
 24
-0.35344065311258
 14
-0.5000000000000036
 24
0.5
 14
0.315431624476517
 24
0.5
 14
0.315431624476517
 24
-0.5
 14
-0.2158798094191923
 24
-0.5
  0
POLYLINE
  5
1BA
330
48
100
AcDbEntity
  8
None
  6
Continuous
 62
     7
370
    18
100
AcDb2dPolyline
 66
     1
 10
0.0
 20
0.0
 30
0.0
 70
     1
  0
VERTEX
  5
1BB
330
1BA
100
AcDbEntity
  8
None
  6
Continuous
 62
     7
370
    18
100
AcDbVertex
100
AcDb2dVertex
 10
7.159112243372096
 20
-3.741338345423339
 30
0.0
  0
VERTEX
  5
1BC
330
1BA
100
AcDbEntity
  8
None
  6
Continuous
 62
     7
370
    18
100
AcDbVertex
100
AcDb2dVertex
 10
7.159112243372096
 20
-3.791497166732234
 30
0.0
  0
VERTEX
  5
1BD
330
1BA
100
AcDbEntity
  8
None
  6
Continuous
 62
     7
370
    18
100
AcDbVertex
100
AcDb2dVertex
 10
7.061874270003266
 20
-3.791497166732234
 30
0.0
  0
VERTEX
  5
1BE
330
1BA
100
AcDbEntity
  8
None
  6
Continuous
 62
     7
370
    18
100
AcDbVertex
100
AcDb2dVertex
 10
7.061874270003266
 20
-4.083580736469369
 30
0.0
  0
VERTEX
  5
1BF
330
1BA
100
AcDbEntity
  8
None
  6
Continuous
 62
     7
370
    18
100
AcDbVertex
100
AcDb2dVertex
 10
7.340949538898658
 20
-4.083580736469369
 30
0.0
  0
VERTEX
  5
1C0
330
1BA
100
AcDbEntity
  8
None
  6
Continuous
 62
     7
370
    18
100
AcDbVertex
100
AcDb2dVertex
 10
7.340949538898658
 20
-3.741338345423339
 30
0.0
  0
SEQEND
  5
1C1
330
1BA
100
AcDbEntity
  8
None
  6
Continuous
 62
     7
370
    18
  0
WIPEOUT
  5
1C2
330
48
100
AcDbEntity
  8
None
  6
Continuous
 62
     7
370
    18
 92
      200
310
C8000000040000000C0000000E000000B20000000C00000016000000000000C20C00000014000000010000009C00000007000000060000003071F81D40DC1D403C3B43D5C5FB0DC000000000000000008534C75333DC1D40F25AE9B79D7B10C000000000000000008EADC0D49CDD1E40F25AE9B79D7B10C000000000000000
310
008EADC0D49CDD1E403C3B43D5C5FB0DC00000000000000000B2273C3A08C01E403C3B43D5C5FB0DC000000000000000005E5F6B8932811E403C3B43D5C5FB0DC00000000000000000
100
AcDbWipeout
 90
        0
 10
7.465039547952192
 20
-4.120718835466265
 30
0.0
 11
0.3727829051052427
 21
0.0
 31
0.0
 12
0.0
 22
0.3727829051052427
 32
0.0
 13
1.0
 23
1.0
340
0
 70
     4
280
     1
281
    50
282
    50
283
     0
360
0
 71
     2
 91
        7
 14
-0.4998691214992697
 24
-0.5
 14
-0.5
 24
0.5
 14
0.1743308884075105
 24
0.5
 14
0.1743308884075105
 24
-0.5
 14
0.0968402368986148
 24
-0.5
 14
-0.067765058661724
 24
-0.5
 14
-0.4998691214992697
 24
-0.5
  0
POLYLINE
  5
1C3
330
48
100
AcDbEntity
  8
None
  6
Continuous
 62
     7
370
    18
100
AcDb2dPolyline
 66
     1
 10
0.0
 20
0.0
 30
0.0
 70
     1
  0
VERTEX
  5
1C4
330
1C3
100
AcDbEntity
  8
None
  6
Continuous
 62
     7
370
    18
100
AcDbVertex
100
AcDb2dVertex
 10
7.46508833721991
 20
-3.747935930361022
 30
0.0
  0
VERTEX
  5
1C5
330
1C3
100
AcDbEntity
  8
None
  6
Continuous
 62
     7
370
    18
100
AcDbVertex
100
AcDb2dVertex
 10
7.465039547952192
 20
-4.120718835466265
 30
0.0
  0
VERTEX
  5
1C6
330
1C3
100
AcDbEntity
  8
None
  6
Continuous
 62
     7
370
    18
100
AcDbVertex
100
AcDb2dVertex
 10
7.716418575534943
 20
-4.120718835466265
 30
0.0
  0
VERTEX
  5
1C7
330
1C3
100
AcDbEntity
  8
None
  6
Continuous
 62
     7
370
    18
100
AcDbVertex
100
AcDb2dVertex
 10
7.716418575534943
 20
-3.747935930361022
 30
0.0
  0
VERTEX
  5
1C8
330
1C3
100
AcDbEntity
  8
None
  6
Continuous
 62
     7
370
    18
100
AcDbVertex
100
AcDb2dVertex
 10
7.68753138534696
 20
-3.747935930361022
 30
0.0
  0
VERTEX
  5
1C9
330
1C3
100
AcDbEntity
  8
None
  6
Continuous
 62
     7
370
    18
100
AcDbVertex
100
AcDb2dVertex
 10
7.626169345072269
 20
-3.747935930361022
 30
0.0
  0
SEQEND
  5
1CA
330
1C3
100
AcDbEntity
  8
None
  6
Continuous
 62
     7
370
    18
  0
INSERT
  5
1CB
330
48
100
AcDbEntity
  8
None
 62
   250
100
AcDbBlockReference
  2
Group-2-1
 10
0.0
 20
0.0
 30
0.0
  0
WIPEOUT
  5
1EE
330
48
100
AcDbEntity
  8
None
  6
Continuous
 62
     7
370
    18
 92
      200
310
C8000000040000000C0000000E000000B20000000C00000016000000000000C20C00000014000000010000009C0000000700000006000000BA4146CBA50617407697565FC3EE10C00000000000000000B8CC18F597061740B85D296A3AB80FC000000000000000005C53FEEC24291640B85D296A3AB80FC000000000000000
310
00F1ACDDC12729164074FE83B2A4A40FC000000000000000005FCF87BA2AF0154074FE83B2A4A40FC000000000000000005FCF87BA2AF015407697565FC3EE10C00000000000000000
100
AcDbWipeout
 90
        0
 10
5.484537996806323
 20
-4.233167161617407
 30
0.0
 11
0.2777749013967505
 21
0.0
 31
0.0
 12
0.0
 22
0.2777749013967505
 32
0.0
 13
1.0
 23
1.0
340
0
 70
     4
280
     1
281
    50
282
    50
283
     0
360
0
 71
     2
 91
        7
 14
0.47904393413598
 24
0.5
 14
0.4788539149563036
 24
-0.4655731784354327
 14
-0.2996869911817335
 24
-0.4655731784354327
 14
-0.2996481055901015
 24
-0.5
 14
-0.5
 24
-0.5
 14
-0.5
 24
0.5
 14
0.47904393413598
 24
0.5
  0
POLYLINE
  5
1EF
330
48
100
AcDbEntity
  8
None
  6
Continuous
 62
     7
370
    18
100
AcDb2dPolyline
 66
     1
 10
0.0
 20
0.0
 30
0.0
 70
     1
  0
VERTEX
  5
1F0
330
1EF
100
AcDbEntity
  8
None
  6
Continuous
 62
     7
370
    18
100
AcDbVertex
100
AcDb2dVertex
 10
5.756491829074031
 20
-4.233167161617407
 30
0.0
  0
VERTEX
  5
1F1
330
1EF
100
AcDbEntity
  8
None
  6
Continuous
 62
     7
370
    18
100
AcDbVertex
100
AcDb2dVertex
 10
5.756439046515133
 20
-3.964955167186158
 30
0.0
  0
VERTEX
  5
1F2
330
1EF
100
AcDbEntity
  8
None
  6
Continuous
 62
     7
370
    18
100
AcDbVertex
100
AcDb2dVertex
 10
5.540179923079304
 20
-3.964955167186158
 30
0.0
  0
VERTEX
  5
1F3
330
1EF
100
AcDbEntity
  8
None
  6
Continuous
 62
     7
370
    18
100
AcDbVertex
100
AcDb2dVertex
 10
5.540190724520685
 20
-3.955392260220657
 30
0.0
  0
VERTEX
  5
1F4
330
1EF
100
AcDbEntity
  8
None
  6
Continuous
 62
     7
370
    18
100
AcDbVertex
100
AcDb2dVertex
 10
5.484537996806323
 20
-3.955392260220657
 30
0.0
  0
VERTEX
  5
1F5
330
1EF
100
AcDbEntity
  8
None
  6
Continuous
 62
     7
370
    18
100
AcDbVertex
100
AcDb2dVertex
 10
5.484537996806323
 20
-4.233167161617407
 30
0.0
  0
SEQEND
  5
1F6
330
1EF
100
AcDbEntity
  8
None
  6
Continuous
 62
     7
370
    18
  0
WIPEOUT
  5
1F7
330
48
100
AcDbEntity
  8
None
  6
Continuous
 62
     7
370
    18
 92
      248
310
F8000000040000000C0000000E000000B20000000C00000016000000000000C20C0000001400000001000000CC000000070000000800000060CF87BA2AF01540AC1A91D8493112C000000000000000006F911D4D23521640AC1A91D8493112C00000000000000000D43FB4982052164095413810A04A12C000000000000000
310
00634E894D9088164095413810A04A12C00000000000000000634E894D90881640AC1A91D8493112C00000000000000000B9CC18F597061740AC1A91D8493112C00000000000000000BB4146CBA50617407697565FC3EE10C0000000000000000060CF87BA2AF015407697565FC3EE10C00000000000000000
100
AcDbWipeout
 90
        0
 10
5.484537996806323
 20
-4.57287621825562
 30
0.0
 11
0.3397090566382124
 21
0.0
 31
0.0
 12
0.0
 22
0.3397090566382124
 32
0.0
 13
1.0
 23
1.0
340
0
 70
     4
280
     1
281
    50
282
    50
283
     0
360
0
 71
     2
 91
        9
 14
-0.4999999999999964
 24
0.4271642740317425
 14
-0.2183625521930992
 24
0.4271642740317425
 14
-0.2183929244593195
 24
0.4999999999999982
 14
-0.0619046002058496
 24
0.4999999999999982
 14
-0.0619046002058496
 24
0.4271642740317425
 14
0.3003938793965801
 24
0.4271642740317425
 14
0.3005492551743707
 24
-0.5000000000000018
 14
-0.4999999999999964
 24
-0.5000000000000018
 14
-0.4999999999999964
 24
0.4271642740317425
  0
POLYLINE
  5
1F8
330
48
100
AcDbEntity
  8
None
  6
Continuous
 62
     7
370
    18
100
AcDb2dPolyline
 66
     1
 10
0.0
 20
0.0
 30
0.0
 70
     1
  0
VERTEX
  5
1F9
330
1F8
100
AcDbEntity
  8
None
  6
Continuous
 62
     7
370
    18
100
AcDbVertex
100
AcDb2dVertex
 10
5.484537996806323
 20
-4.548133262497385
 30
0.0
  0
VERTEX
  5
1FA
330
1F8
100
AcDbEntity
  8
None
  6
Continuous
 62
     7
370
    18
100
AcDbVertex
100
AcDb2dVertex
 10
5.580212788514799
 20
-4.548133262497385
 30
0.0
  0
VERTEX
  5
1FB
330
1F8
100
AcDbEntity
  8
None
  6
Continuous
 62
     7
370
    18
100
AcDbVertex
100
AcDb2dVertex
 10
5.580202470780893
 20
-4.57287621825562
 30
0.0
  0
VERTEX
  5
1FC
330
1F8
100
AcDbEntity
  8
None
  6
Continuous
 62
     7
370
    18
100
AcDbVertex
100
AcDb2dVertex
 10
5.633362971787934
 20
-4.57287621825562
 30
0.0
  0
VERTEX
  5
1FD
330
1F8
100
AcDbEntity
  8
None
  6
Continuous
 62
     7
370
    18
100
AcDbVertex
100
AcDb2dVertex
 10
5.633362971787934
 20
-4.548133262497385
 30
0.0
  0
VERTEX
  5
1FE
330
1F8
100
AcDbEntity
  8
None
  6
Continuous
 62
     7
370
    18
100
AcDbVertex
100
AcDb2dVertex
 10
5.756439046515133
 20
-4.548133262497385
 30
0.0
  0
VERTEX
  5
1FF
330
1F8
100
AcDbEntity
  8
None
  6
Continuous
 62
     7
370
    18
100
AcDbVertex
100
AcDb2dVertex
 10
5.756491829074031
 20
-4.233167161617407
 30
0.0
  0
VERTEX
  5
200
330
1F8
100
AcDbEntity
  8
None
  6
Continuous
 62
     7
370
    18
100
AcDbVertex
100
AcDb2dVertex
 10
5.484537996806323
 20
-4.233167161617407
 30
0.0
  0
SEQEND
  5
201
330
1F8
100
AcDbEntity
  8
None
  6
Continuous
 62
     7
370
    18
  0
WIPEOUT
  5
202
330
48
100
AcDbEntity
  8
None
  6
Continuous
 62
     7
370
    18
 92
      248
310
F8000000040000000C0000000E000000B20000000C00000016000000000000C20C0000001400000001000000CC0000000700000008000000F69EC037E8881640B75D296A3AB80FC00000000000000000B94146CBA5061740B75D296A3AB80FC00000000000000000B94146CBA50617404963EBE50D0112C000000000000000
310
0037E3C57C055D17404963EBE50D0112C0000000000000000037E3C57C055D1740D8725A80F7BB0FC000000000000000007B4F7B3579371740D8725A80F7BB0FC000000000000000007B4F7B35793717401131B792CE3E0FC00000000000000000F69EC037E88816401131B792CE3E0FC00000000000000000
100
AcDbWipeout
 90
        0
 10
5.633698340541506
 20
-4.501029579631743
 30
0.0
 11
0.5953621351970364
 21
0.0
 31
0.0
 12
0.0
 22
0.5953621351970364
 32
0.0
 13
1.0
 23
1.0
340
0
 70
     4
280
     1
281
    50
282
    50
283
     0
360
0
 71
     2
 91
        9
 14
-0.5000000000000018
 24
-0.4004173775145619
 14
-0.2937499191279862
 24
-0.4004173775145619
 14
-0.2937499191279862
 24
0.4999999999999982
 14
-0.1520724237210231
 24
0.4999999999999982
 14
-0.1520724237210231
 24
-0.3973511798594815
 14
-0.2136617158053351
 24
-0.3973511798594815
 14
-0.2136617158053351
 24
-0.5000000000000018
 14
-0.5000000000000018
 24
-0.5000000000000018
 14
-0.5000000000000018
 24
-0.4004173775145619
  0
POLYLINE
  5
203
330
48
100
AcDbEntity
  8
None
  6
Continuous
 62
     7
370
    18
100
AcDb2dPolyline
 66
     1
 10
0.0
 20
0.0
 30
0.0
 70
     1
  0
VERTEX
  5
204
330
203
100
AcDbEntity
  8
None
  6
Continuous
 62
     7
370
    18
100
AcDbVertex
100
AcDb2dVertex
 10
5.633698340541506
 20
-3.964955167186158
 30
0.0
  0
VERTEX
  5
205
330
203
100
AcDbEntity
  8
None
  6
Continuous
 62
     7
370
    18
100
AcDbVertex
100
AcDb2dVertex
 10
5.756491829074031
 20
-3.964955167186158
 30
0.0
  0
VERTEX
  5
206
330
203
100
AcDbEntity
  8
None
  6
Continuous
 62
     7
370
    18
100
AcDbVertex
100
AcDb2dVertex
 10
5.756491829074031
 20
-4.501029579631743
 30
0.0
  0
VERTEX
  5
207
330
203
100
AcDbEntity
  8
None
  6
Continuous
 62
     7
370
    18
100
AcDbVertex
100
AcDb2dVertex
 10
5.840841245248889
 20
-4.501029579631743
 30
0.0
  0
VERTEX
  5
208
330
203
100
AcDbEntity
  8
None
  6
Continuous
 62
     7
370
    18
100
AcDbVertex
100
AcDb2dVertex
 10
5.840841245248889
 20
-3.966780665169023
 30
0.0
  0
VERTEX
  5
209
330
203
100
AcDbEntity
  8
None
  6
Continuous
 62
     7
370
    18
100
AcDbVertex
100
AcDb2dVertex
 10
5.804173312808299
 20
-3.966780665169023
 30
0.0
  0
VERTEX
  5
20A
330
203
100
AcDbEntity
  8
None
  6
Continuous
 62
     7
370
    18
100
AcDbVertex
100
AcDb2dVertex
 10
5.804173312808299
 20
-3.905667444434706
 30
0.0
  0
VERTEX
  5
20B
330
203
100
AcDbEntity
  8
None
  6
Continuous
 62
     7
370
    18
100
AcDbVertex
100
AcDb2dVertex
 10
5.633698340541506
 20
-3.905667444434706
 30
0.0
  0
SEQEND
  5
20C
330
203
100
AcDbEntity
  8
None
  6
Continuous
 62
     7
370
    18
  0
POLYLINE
  5
20D
102
{ACAD_REACTORS
330
215
102
}
330
48
100
AcDbEntity
  8
None
  6
Continuous
 62
     7
370
    18
100
AcDb2dPolyline
 66
     1
 10
0.0
 20
0.0
 30
0.0
 70
     1
  0
VERTEX
  5
20E
330
20D
100
AcDbEntity
  8
None
  6
Continuous
 62
     7
370
    18
100
AcDbVertex
100
AcDb2dVertex
 10
6.746787335058818
 20
-4.083606200311343
 30
0.0
  0
VERTEX
  5
20F
330
20D
100
AcDbEntity
  8
None
  6
Continuous
 62
     7
370
    18
100
AcDbVertex
100
AcDb2dVertex
 10
6.746733761749973
 20
-3.826930673227211
 30
0.0
  0
VERTEX
  5
210
330
20D
100
AcDbEntity
  8
None
  6
Continuous
 62
     7
370
    18
100
AcDbVertex
100
AcDb2dVertex
 10
7.022761808733305
 20
-3.826930673227211
 30
0.0
  0
VERTEX
  5
211
330
20D
100
AcDbEntity
  8
None
  6
Continuous
 62
     7
370
    18
100
AcDbVertex
100
AcDb2dVertex
 10
7.022761808733305
 20
-4.083606200311343
 30
0.0
  0
VERTEX
  5
212
330
20D
100
AcDbEntity
  8
None
  6
Continuous
 62
     7
370
    18
100
AcDbVertex
100
AcDb2dVertex
 10
6.991042079497736
 20
-4.083606200311343
 30
0.0
  0
VERTEX
  5
213
330
20D
100
AcDbEntity
  8
None
  6
Continuous
 62
     7
370
    18
100
AcDbVertex
100
AcDb2dVertex
 10
6.923663172439311
 20
-4.083606200311343
 30
0.0
  0
SEQEND
  5
214
330
20D
100
AcDbEntity
  8
None
  6
Continuous
 62
     7
370
    18
  0
HATCH
  5
215
330
48
100
AcDbEntity
  8
None
  6
Continuous
 62
   161
370
     0
100
AcDbHatch
 10
0.0
 20
0.0
 30
0.0
210
0.0
220
0.0
230
1.0
  2
SOLID
 70
     1
 71
     1
 91
        1
 92
        1
 93
        6
 72
     1
 10
6.746787335058818
 20
-4.083606200311343
 11
6.746733761749973
 21
-3.826930673227211
 72
     1
 10
6.746733761749973
 20
-3.826930673227211
 11
7.022761808733305
 21
-3.826930673227211
 72
     1
 10
7.022761808733305
 20
-3.826930673227211
 11
7.022761808733305
 21
-4.083606200311343
 72
     1
 10
7.022761808733305
 20
-4.083606200311343
 11
6.991042079497736
 21
-4.083606200311343
 72
     1
 10
6.991042079497736
 20
-4.083606200311343
 11
6.923663172439311
 21
-4.083606200311343
 72
     1
 10
6.923663172439311
 20
-4.083606200311343
 11
6.746787335058818
 21
-4.083606200311343
 97
        1
330
20D
 75
     0
 76
     1
 98
        1
 10
0.0
 20
0.0
  0
WIPEOUT
  5
216
330
48
100
AcDbEntity
  8
None
  6
Continuous
 62
     7
370
    18
 92
      200
310
C8000000040000000C0000000E000000B20000000C00000016000000000000C20C00000014000000010000009C000000070000000600000051C070DD93FC1A409ED84630965510C000000000000000000A2476C6A7FC1A40F29C797A809D0EC00000000000000000C2863967EF6B1940F29C797A809D0EC000000000000000
310
00C2863967EF6B19409ED84630965510C000000000000000008DD2AFDFFB9919409ED84630965510C000000000000000002089E6E3CCFB19409ED84630965510C00000000000000000
100
AcDbWipeout
 90
        0
 10
6.355405438314564
 20
-4.083580736469369
 30
0.0
 11
0.3913283234354088
 21
0.0
 31
0.0
 12
0.0
 22
0.3913283234354088
 32
0.0
 13
1.0
 23
1.0
340
0
 70
     4
280
     1
281
    50
282
    50
283
     0
360
0
 71
     2
 91
        7
 14
0.4998059135315067
 24
0.5000000000000018
 14
0.5
 24
-0.1559083810515354
 14
-0.5
 24
-0.1559083810515354
 14
-0.5
 24
0.5000000000000018
 14
-0.385085122391633
 24
0.5000000000000018
 14
-0.1409834530330301
 24
0.5000000000000018
 14
0.4998059135315067
 24
0.5000000000000018
  0
POLYLINE
  5
217
330
48
100
AcDbEntity
  8
None
  6
Continuous
 62
     7
370
    18
100
AcDb2dPolyline
 66
     1
 10
0.0
 20
0.0
 30
0.0
 70
     1
  0
VERTEX
  5
218
330
217
100
AcDbEntity
  8
None
  6
Continuous
 62
     7
370
    18
100
AcDbVertex
100
AcDb2dVertex
 10
6.746657810217656
 20
-4.083580736469369
 30
0.0
  0
VERTEX
  5
219
330
217
100
AcDbEntity
  8
None
  6
Continuous
 62
     7
370
    18
100
AcDbVertex
100
AcDb2dVertex
 10
6.746733761749973
 20
-3.826905209385238
 30
0.0
  0
VERTEX
  5
21A
330
217
100
AcDbEntity
  8
None
  6
Continuous
 62
     7
370
    18
100
AcDbVertex
100
AcDb2dVertex
 10
6.355405438314564
 20
-3.826905209385238
 30
0.0
  0
VERTEX
  5
21B
330
217
100
AcDbEntity
  8
None
  6
Continuous
 62
     7
370
    18
100
AcDbVertex
100
AcDb2dVertex
 10
6.355405438314564
 20
-4.083580736469369
 30
0.0
  0
VERTEX
  5
21C
330
217
100
AcDbEntity
  8
None
  6
Continuous
 62
     7
370
    18
100
AcDbVertex
100
AcDb2dVertex
 10
6.400374884706832
 20
-4.083580736469369
 30
0.0
  0
VERTEX
  5
21D
330
217
100
AcDbEntity
  8
None
  6
Continuous
 62
     7
370
    18
100
AcDbVertex
100
AcDb2dVertex
 10
6.495898781724719
 20
-4.083580736469369
 30
0.0
  0
SEQEND
  5
21E
330
217
100
AcDbEntity
  8
None
  6
Continuous
 62
     7
370
    18
  0
WIPEOUT
  5
21F
330
48
100
AcDbEntity
  8
None
  6
Continuous
 62
     7
370
    18
 92
      200
310
C8000000040000000C0000000E000000B20000000C00000016000000000000C20C00000014000000010000009C0000000700000006000000D15FA35E777B18409DD84630965510C00000000000000000AE3D5D6B6B7B1840F09C797A809D0EC00000000000000000C3863967EF6B1940F09C797A809D0EC000000000000000
310
00C3863967EF6B19409DD84630965510C00000000000000000C59DC1DD4B5019409DD84630965510C000000000000000009C6BCD0A961519409DD84630965510C00000000000000000
100
AcDbWipeout
 90
        0
 10
6.120526959959006
 20
-4.083580736469369
 30
0.0
 11
0.256675527084131
 21
0.0
 31
0.0
 12
0.0
 22
0.256675527084131
 32
0.0
 13
1.0
 23
1.0
340
0
 70
     4
280
     1
281
    50
282
    50
283
     0
360
0
 71
     2
 91
        7
 14
-0.4998223954776329
 24
0.4999999999999982
 14
-0.4999999999999964
 24
-0.5000000000000018
 14
0.4150793650793716
 24
-0.5000000000000018
 14
0.4150793650793716
 24
0.4999999999999982
 14
0.3099231318393372
 24
0.4999999999999982
 14
0.0865507312278417
 24
0.4999999999999982
 14
-0.4998223954776329
 24
0.4999999999999982
  0
POLYLINE
  5
220
330
48
100
AcDbEntity
  8
None
  6
Continuous
 62
     7
370
    18
100
AcDb2dPolyline
 66
     1
 10
0.0
 20
0.0
 30
0.0
 70
     1
  0
VERTEX
  5
221
330
220
100
AcDbEntity
  8
None
  6
Continuous
 62
     7
370
    18
100
AcDbVertex
100
AcDb2dVertex
 10
6.120572546693396
 20
-4.083580736469369
 30
0.0
  0
VERTEX
  5
222
330
220
100
AcDbEntity
  8
None
  6
Continuous
 62
     7
370
    18
100
AcDbVertex
100
AcDb2dVertex
 10
6.120526959959006
 20
-3.826905209385238
 30
0.0
  0
VERTEX
  5
223
330
220
100
AcDbEntity
  8
None
  6
Continuous
 62
     7
370
    18
100
AcDbVertex
100
AcDb2dVertex
 10
6.355405438314564
 20
-3.826905209385238
 30
0.0
  0
VERTEX
  5
224
330
220
100
AcDbEntity
  8
None
  6
Continuous
 62
     7
370
    18
100
AcDbVertex
100
AcDb2dVertex
 10
6.355405438314564
 20
-4.083580736469369
 30
0.0
  0
VERTEX
  5
225
330
220
100
AcDbEntity
  8
None
  6
Continuous
 62
     7
370
    18
100
AcDbVertex
100
AcDb2dVertex
 10
6.328414406721497
 20
-4.083580736469369
 30
0.0
  0
VERTEX
  5
226
330
220
100
AcDbEntity
  8
None
  6
Continuous
 62
     7
370
    18
100
AcDbVertex
100
AcDb2dVertex
 10
6.271080178058494
 20
-4.083580736469369
 30
0.0
  0
SEQEND
  5
227
330
220
100
AcDbEntity
  8
None
  6
Continuous
 62
     7
370
    18
  0
MTEXT
  5
228
330
48
100
AcDbEntity
  8
None
 62
     7
100
AcDbMText
 10
4.569178931343012
 20
-4.674167181637091
 30
0.0
 40
0.0781091510847966
 41
0.0
 71
     1
 72
     1
  1
BOUNDARY ROAD
  7
Helvetica
 11
0.0
 21
1.0
 31
0.0
 73
     1
 44
0.8397955333929319
  0
MTEXT
  5
229
330
48
100
AcDbEntity
  8
None
 62
     7
100
AcDbMText
 10
6.616605607963247
 20
-3.22910392007349
 30
0.0
 40
0.0781091510847966
 41
0.0
 71
     1
 72
     1
  1
HENNING DRIVE
  7
Helvetica
 73
     1
 44
0.8397955333929319
  0
WIPEOUT
  5
22A
330
48
100
AcDbEntity
  8
None
  6
Continuous
 62
     7
370
    18
 92
      152
310
98000000040000000C0000000E000000B20000000C00000016000000000000C20C00000014000000010000006C00000007000000040000001E85BB0F01921D400529B352452011C000000000000000001C80D2C78B161E400529B352452011C000000000000000001C80D2C78B161E400ABBD1399CFE11C000000000000000
310
001E85BB0F01921D400ABBD1399CFE11C00000000000000000
100
AcDbWipeout
 90
        0
 10
7.392582174129783
 20
-4.498642829347554
 30
0.0
 11
0.2171283829125104
 21
0.0
 31
0.0
 12
0.0
 22
0.2171283829125104
 32
0.0
 13
1.0
 23
1.0
340
0
 70
     4
280
     1
281
    50
282
    50
283
     0
360
0
 71
     2
 91
        5
 14
-0.5
 24
-0.5000000000000036
 14
0.0961239135931322
 24
-0.5000000000000036
 14
0.0961239135931322
 24
0.4999999999999964
 14
-0.5
 24
0.4999999999999964
 14
-0.5
 24
-0.5000000000000036
  0
POLYLINE
  5
22B
330
48
100
AcDbEntity
  8
None
  6
Continuous
 62
     7
370
    18
100
AcDb2dPolyline
 66
     1
 10
0.0
 20
0.0
 30
0.0
 70
     1
  0
VERTEX
  5
22C
330
22B
100
AcDbEntity
  8
None
  6
Continuous
 62
     7
370
    18
100
AcDbVertex
100
AcDb2dVertex
 10
7.392582174129783
 20
-4.281514446435044
 30
0.0
  0
VERTEX
  5
22D
330
22B
100
AcDbEntity
  8
None
  6
Continuous
 62
     7
370
    18
100
AcDbVertex
100
AcDb2dVertex
 10
7.522017595503738
 20
-4.281514446435044
 30
0.0
  0
VERTEX
  5
22E
330
22B
100
AcDbEntity
  8
None
  6
Continuous
 62
     7
370
    18
100
AcDbVertex
100
AcDb2dVertex
 10
7.522017595503738
 20
-4.498642829347554
 30
0.0
  0
VERTEX
  5
22F
330
22B
100
AcDbEntity
  8
None
  6
Continuous
 62
     7
370
    18
100
AcDbVertex
100
AcDb2dVertex
 10
7.392582174129783
 20
-4.498642829347554
 30
0.0
  0
SEQEND
  5
230
330
22B
100
AcDbEntity
  8
None
  6
Continuous
 62
     7
370
    18
  0
WIPEOUT
  5
231
330
48
100
AcDbEntity
  8
None
  6
Continuous
 62
     7
370
    18
 92
      200
310
C8000000040000000C0000000E000000B20000000C00000016000000000000C20C00000014000000010000009C0000000700000006000000D5B66FC619BA1840C04A4FBF583011C00000000000000000B9A1259CE0B9184020136893B9F311C00000000000000000822B4B4667381D4020136893B9F311C000000000000000
310
00822B4B4667381D40C04A4FBF583011C0000000000000000045CB11DC30B41C40C04A4FBF583011C0000000000000000032B8D174589B1B40C04A4FBF583011C00000000000000000
100
AcDbWipeout
 90
        0
 10
6.1815208814591
 20
-4.488012603022782
 30
0.0
 11
1.123560579816009
 21
0.0
 31
0.0
 12
0.0
 22
1.123560579816009
 32
0.0
 13
1.0
 23
1.0
340
0
 70
     4
280
     1
281
    50
282
    50
283
     0
360
0
 71
     2
 91
        7
 14
-0.4998059135315032
 24
0.3301835589875695
 14
-0.4999999999999991
 24
0.4999999999999996
 14
0.5000000000000009
 24
0.4999999999999996
 14
0.5000000000000009
 24
0.3301835589875695
 14
0.3850851223916285
 24
0.3301835589875695
 14
0.1409834530330274
 24
0.3301835589875695
 14
-0.4998059135315032
 24
0.3301835589875695
  0
POLYLINE
  5
232
330
48
100
AcDbEntity
  8
None
  6
Continuous
 62
     7
370
    18
100
AcDb2dPolyline
 66
     1
 10
0.0
 20
0.0
 30
0.0
 70
     1
  0
VERTEX
  5
233
330
232
100
AcDbEntity
  8
None
  6
Continuous
 62
     7
370
    18
100
AcDbVertex
100
AcDb2dVertex
 10
6.181738949364179
 20
-4.297213544096565
 30
0.0
  0
VERTEX
  5
234
330
232
100
AcDbEntity
  8
None
  6
Continuous
 62
     7
370
    18
100
AcDbVertex
100
AcDb2dVertex
 10
6.1815208814591
 20
-4.488012603022782
 30
0.0
  0
VERTEX
  5
235
330
232
100
AcDbEntity
  8
None
  6
Continuous
 62
     7
370
    18
100
AcDbVertex
100
AcDb2dVertex
 10
7.305081461275109
 20
-4.488012603022782
 30
0.0
  0
VERTEX
  5
236
330
232
100
AcDbEntity
  8
None
  6
Continuous
 62
     7
370
    18
100
AcDbVertex
100
AcDb2dVertex
 10
7.305081461275109
 20
-4.297213544096565
 30
0.0
  0
VERTEX
  5
237
330
232
100
AcDbEntity
  8
None
  6
Continuous
 62
     7
370
    18
100
AcDbVertex
100
AcDb2dVertex
 10
7.175967634759961
 20
-4.297213544096565
 30
0.0
  0
VERTEX
  5
238
330
232
100
AcDbEntity
  8
None
  6
Continuous
 62
     7
370
    18
100
AcDbVertex
100
AcDb2dVertex
 10
6.901704621601356
 20
-4.297213544096565
 30
0.0
  0
SEQEND
  5
239
330
232
100
AcDbEntity
  8
None
  6
Continuous
 62
     7
370
    18
  0
WIPEOUT
  5
23A
330
48
100
AcDbEntity
  8
None
  6
Continuous
 62
     7
370
    18
 92
      152
310
98000000040000000C0000000E000000B20000000C00000016000000000000C20C00000014000000010000006C00000007000000040000002080D2C78B161E400529B352452011C00000000000000000D836F91CEDC91E400529B352452011C00000000000000000D836F91CEDC91E400ABBD1399CFE11C000000000000000
310
002080D2C78B161E400ABBD1399CFE11C00000000000000000
100
AcDbWipeout
 90
        0
 10
7.52201759550374
 20
-4.498642829347554
 30
0.0
 11
0.2171283829125104
 21
0.0
 31
0.0
 12
0.0
 22
0.2171283829125104
 32
0.0
 13
1.0
 23
1.0
340
0
 70
     4
280
     1
281
    50
282
    50
283
     0
360
0
 71
     2
 91
        5
 14
-0.5
 24
-0.5000000000000036
 14
0.3067852743944997
 24
-0.5000000000000036
 14
0.3067852743944997
 24
0.4999999999999964
 14
-0.5
 24
0.4999999999999964
 14
-0.5
 24
-0.5000000000000036
  0
POLYLINE
  5
23B
330
48
100
AcDbEntity
  8
None
  6
Continuous
 62
     7
370
    18
100
AcDb2dPolyline
 66
     1
 10
0.0
 20
0.0
 30
0.0
 70
     1
  0
VERTEX
  5
23C
330
23B
100
AcDbEntity
  8
None
  6
Continuous
 62
     7
370
    18
100
AcDbVertex
100
AcDb2dVertex
 10
7.52201759550374
 20
-4.281514446435044
 30
0.0
  0
VERTEX
  5
23D
330
23B
100
AcDbEntity
  8
None
  6
Continuous
 62
     7
370
    18
100
AcDbVertex
100
AcDb2dVertex
 10
7.697193577490643
 20
-4.281514446435044
 30
0.0
  0
VERTEX
  5
23E
330
23B
100
AcDbEntity
  8
None
  6
Continuous
 62
     7
370
    18
100
AcDbVertex
100
AcDb2dVertex
 10
7.697193577490643
 20
-4.498642829347554
 30
0.0
  0
VERTEX
  5
23F
330
23B
100
AcDbEntity
  8
None
  6
Continuous
 62
     7
370
    18
100
AcDbVertex
100
AcDb2dVertex
 10
7.52201759550374
 20
-4.498642829347554
 30
0.0
  0
SEQEND
  5
240
330
23B
100
AcDbEntity
  8
None
  6
Continuous
 62
     7
370
    18
  0
WIPEOUT
  5
241
330
48
100
AcDbEntity
  8
None
  6
Continuous
 62
     7
370
    18
 92
      152
310
98000000040000000C0000000E000000B20000000C00000016000000000000C20C00000014000000010000006C0000000700000004000000802B4B4667381D40C14A4FBF583011C00000000000000000802B4B4667381D40E143AFE6890711C00000000000000000D4B66FC619BA1840E143AFE6890711C000000000000000
310
00D4B66FC619BA1840C14A4FBF583011C00000000000000000
100
AcDbWipeout
 90
        0
 10
6.181738949364179
 20
-4.297213544096565
 30
0.0
 11
1.123342511910931
 21
0.0
 31
0.0
 12
0.0
 22
1.123342511910931
 32
0.0
 13
1.0
 23
1.0
340
0
 70
     4
280
     1
281
    50
282
    50
283
     0
360
0
 71
     2
 91
        5
 14
0.4999999999999991
 24
0.5
 14
0.4999999999999991
 24
0.464524127610435
 14
-0.5000000000000009
 24
0.464524127610435
 14
-0.5000000000000009
 24
0.5
 14
0.4999999999999991
 24
0.5
  0
POLYLINE
  5
242
330
48
100
AcDbEntity
  8
None
  6
Continuous
 62
     7
370
    18
100
AcDb2dPolyline
 66
     1
 10
0.0
 20
0.0
 30
0.0
 70
     1
  0
VERTEX
  5
243
330
242
100
AcDbEntity
  8
None
  6
Continuous
 62
     7
370
    18
100
AcDbVertex
100
AcDb2dVertex
 10
7.305081461275109
 20
-4.297213544096565
 30
0.0
  0
VERTEX
  5
244
330
242
100
AcDbEntity
  8
None
  6
Continuous
 62
     7
370
    18
100
AcDbVertex
100
AcDb2dVertex
 10
7.305081461275109
 20
-4.25736198849424
 30
0.0
  0
VERTEX
  5
245
330
242
100
AcDbEntity
  8
None
  6
Continuous
 62
     7
370
    18
100
AcDbVertex
100
AcDb2dVertex
 10
6.181738949364179
 20
-4.25736198849424
 30
0.0
  0
VERTEX
  5
246
330
242
100
AcDbEntity
  8
None
  6
Continuous
 62
     7
370
    18
100
AcDbVertex
100
AcDb2dVertex
 10
6.181738949364179
 20
-4.297213544096565
 30
0.0
  0
SEQEND
  5
247
330
242
100
AcDbEntity
  8
None
  6
Continuous
 62
     7
370
    18
  0
MTEXT
  5
248
330
48
100
AcDbEntity
  8
None
 62
   251
100
AcDbMText
 10
5.618603976180795
 20
-4.322228721193647
 30
0.0
 40
0.099629019240812
 41
0.0
 71
     2
 72
     1
  1
6
  7
Helvetica
 73
     1
 44
0.8397955333929318
  0
MTEXT
  5
249
330
48
100
AcDbEntity
  8
None
 62
   251
100
AcDbMText
 10
6.549179178356943
 20
-3.896400621398457
 30
0.0
 40
0.099629019240812
 41
0.0
 71
     2
 72
     1
  1
2
  7
Helvetica
 73
     1
 44
0.8397955333929318
  0
MTEXT
  5
24A
330
48
100
AcDbEntity
  8
None
 62
     7
100
AcDbMText
 10
6.884751797476892
 20
-3.896400621398457
 30
0.0
 40
0.099629019240812
 41
0.0
 71
     2
 72
     1
  1
3
  7
Helvetica
 73
     1
 44
0.8397955333929318
  0
MTEXT
  5
24B
330
48
100
AcDbEntity
  8
None
 62
   251
100
AcDbMText
 10
6.720007505161086
 20
-4.33882136549535
 30
0.0
 40
0.099629019240812
 41
0.0
 71
     2
 72
     1
  1
FX
  7
Helvetica
 73
     1
 44
0.8397955333929318
  0
MTEXT
  5
24C
330
48
100
AcDbEntity
  8
None
 62
   251
100
AcDbMText
 10
6.238478075767098
 20
-3.896400621398457
 30
0.0
 40
0.099629019240812
 41
0.0
 71
     2
 72
     1
  1
1
  7
Helvetica
 73
     1
 44
0.8397955333929318
  0
MTEXT
  5
24D
330
48
100
AcDbEntity
  8
None
 62
   251
100
AcDbMText
 10
7.455730416853805
 20
-4.338845230106877
 30
0.0
 40
0.099629019240812
 41
0.0
 71
     2
 72
     1
  1
B
  7
Helvetica
 73
     1
 44
0.8397955333929318
  0
MTEXT
  5
24E
330
48
100
AcDbEntity
  8
None
 62
     7
100
AcDbMText
 10
5.709983344073234
 20
-3.410099045572772
 30
0.0
 40
0.0398516076963248
 41
0.0
 71
     2
 72
     1
  1
SECURITY\PGATE
  7
Helvetica
 73
     1
 44
0.8397955333929318
  0
INSERT
  5
24F
330
48
100
AcDbEntity
  8
elements-ojects
 62
     7
100
AcDbBlockReference
  2
Group-3-1
 10
0.0
 20
0.0
 30
0.0
  0
WIPEOUT
  5
250
330
48
100
AcDbEntity
  8
None
  6
Continuous
 62
   250
370
     9
 92
      392
310
88010000040000000C0000000E000000B20000000C00000016000000000000C20C00000014000000010000005C010000070000000E000000C0ECD5D6A8D7134053D882BCA6480FC00000000000000000C0ECD5D6A8D71340F11865225A630FC00000000000000000D54EBC2AF2B21340F11865225A630FC000000000000000
310
00D54EBC2AF2B2134064957AE07AC70FC00000000000000000B8EF36FBE999134064957AE07AC70FC00000000000000000B8EF36FBE99913407B0977601F3B11C0000000000000000075B587506B2515407B0977601F3B11C0000000000000000075B587506B2515405A226D61BA840FC000000000000000009A22290856E4
310
14405A226D61BA840FC000000000000000009A22290856E414406E448BF2514A0FC000000000000000001CC68E0E2FB814406E448BF2514A0FC000000000000000001CC68E0E2FB8144052E505C349310FC00000000000000000712E58B5F4FB134052E505C349310FC00000000000000000712E58B5F4FB134053D882BCA6
310
480FC00000000000000000
100
AcDbWipeout
 90
        0
 10
4.90030663035207
 20
-4.307736880555576
 30
0.0
 11
0.4086704098205742
 21
0.0
 31
0.0
 12
0.0
 22
0.4086704098205742
 32
0.0
 13
1.0
 23
1.0
340
0
 70
     4
280
     1
281
    50
282
    50
283
     0
360
0
 71
     2
 91
       15
 14
-0.3524523035186551
 24
-0.4720855648435691
 14
-0.3524523035186551
 24
-0.4401833603153538
 14
-0.440183366330146
 24
-0.4401833603153538
 14
-0.440183366330146
 24
-0.3205500929756475
 14
-0.5
 24
-0.3205500929756475
 14
-0.5
 24
0.5
 14
0.4451028150462761
 24
0.5
 14
0.4451028150462761
 24
-0.400305610550248
 14
0.2895795669623258
 24
-0.400305610550248
 14
0.2895795669623258
 24
-0.4700916831650748
 14
0.1840729610664589
 24
-0.4700916831650748
 14
0.1840729610664589
 24
-0.5
 14
-0.2657181845737533
 24
-0.5
 14
-0.2657181845737533
 24
-0.4720855648435691
 14
-0.3524523035186551
 24
-0.4720855648435691
  0
POLYLINE
  5
251
330
48
100
AcDbEntity
  8
None
  6
Continuous
 62
   250
370
     9
100
AcDb2dPolyline
 66
     1
 10
0.0
 20
0.0
 30
0.0
 70
     1
  0
VERTEX
  5
252
330
251
100
AcDbEntity
  8
None
  6
Continuous
 62
   250
370
     9
100
AcDbVertex
100
AcDb2dVertex
 10
4.960605007941183
 20
-3.910474274390291
 30
0.0
  0
VERTEX
  5
253
330
251
100
AcDbEntity
  8
None
  6
Continuous
 62
   250
370
     9
100
AcDbVertex
100
AcDb2dVertex
 10
4.960605007941183
 20
-3.923511761389016
 30
0.0
  0
VERTEX
  5
254
330
251
100
AcDbEntity
  8
None
  6
Continuous
 62
   250
370
     9
100
AcDbVertex
100
AcDb2dVertex
 10
4.924751918548016
 20
-3.923511761389016
 30
0.0
  0
VERTEX
  5
255
330
251
100
AcDbEntity
  8
None
  6
Continuous
 62
   250
370
     9
100
AcDbVertex
100
AcDb2dVertex
 10
4.924751918548016
 20
-3.972402337780908
 30
0.0
  0
VERTEX
  5
256
330
251
100
AcDbEntity
  8
None
  6
Continuous
 62
   250
370
     9
100
AcDbVertex
100
AcDb2dVertex
 10
4.90030663035207
 20
-3.972402337780908
 30
0.0
  0
VERTEX
  5
257
330
251
100
AcDbEntity
  8
None
  6
Continuous
 62
   250
370
     9
100
AcDbVertex
100
AcDb2dVertex
 10
4.90030663035207
 20
-4.307736880555576
 30
0.0
  0
VERTEX
  5
258
330
251
100
AcDbEntity
  8
None
  6
Continuous
 62
   250
370
     9
100
AcDbVertex
100
AcDb2dVertex
 10
5.28654218509961
 20
-4.307736880555576
 30
0.0
  0
VERTEX
  5
259
330
251
100
AcDbEntity
  8
None
  6
Continuous
 62
   250
370
     9
100
AcDbVertex
100
AcDb2dVertex
 10
5.28654218509961
 20
-3.939808617728244
 30
0.0
  0
VERTEX
  5
25A
330
251
100
AcDbEntity
  8
None
  6
Continuous
 62
   250
370
     9
100
AcDbVertex
100
AcDb2dVertex
 10
5.222984435568515
 20
-3.939808617728244
 30
0.0
  0
VERTEX
  5
25B
330
251
100
AcDbEntity
  8
None
  6
Continuous
 62
   250
370
     9
100
AcDbVertex
100
AcDb2dVertex
 10
5.222984435568515
 20
-3.911289114832975
 30
0.0
  0
VERTEX
  5
25C
330
251
100
AcDbEntity
  8
None
  6
Continuous
 62
   250
370
     9
100
AcDbVertex
100
AcDb2dVertex
 10
5.179867007698273
 20
-3.911289114832975
 30
0.0
  0
VERTEX
  5
25D
330
251
100
AcDbEntity
  8
None
  6
Continuous
 62
   250
370
     9
100
AcDbVertex
100
AcDb2dVertex
 10
5.179867007698273
 20
-3.899066470735002
 30
0.0
  0
VERTEX
  5
25E
330
251
100
AcDbEntity
  8
None
  6
Continuous
 62
   250
370
     9
100
AcDbVertex
100
AcDb2dVertex
 10
4.996050675875822
 20
-3.899066470735002
 30
0.0
  0
VERTEX
  5
25F
330
251
100
AcDbEntity
  8
None
  6
Continuous
 62
   250
370
     9
100
AcDbVertex
100
AcDb2dVertex
 10
4.996050675875822
 20
-3.910474274390291
 30
0.0
  0
SEQEND
  5
260
330
251
100
AcDbEntity
  8
None
  6
Continuous
 62
   250
370
     9
  0
MTEXT
  5
261
330
48
100
AcDbEntity
  8
None
 62
   251
100
AcDbMText
 10
7.201387056626372
 20
-3.883202994517626
 30
0.0
 40
0.099629019240812
 41
0.0
 71
     2
 72
     1
  1
H
  7
Helvetica
 73
     1
 44
0.8397955333929318
  0
MTEXT
  5
262
330
48
100
AcDbEntity
  8
None
 62
   251
100
AcDbMText
 10
7.582748699248813
 20
-3.885148478708215
 30
0.0
 40
0.099629019240812
 41
0.0
 71
     2
 72
     1
  1
4
  7
Helvetica
 73
     1
 44
0.8397955333929318
  0
WIPEOUT
  5
263
330
48
100
AcDbEntity
  8
None
  6
Continuous
 62
     7
370
    18
 92
      152
310
98000000040000000C0000000E000000B20000000C00000016000000000000C20C00000014000000010000006C00000007000000040000000BAB46670AAC1A40A08F598806960BC0000000000000000060407B99ECF91B40A08F598806960BC0000000000000000060407B99ECF91B40ACFC93DC01090DC000000000000000
310
000BAB46670AAC1A40ACFC93DC01090DC00000000000000000
100
AcDbWipeout
 90
        0
 10
6.668008435905684
 20
-3.629398082033353
 30
0.0
 11
0.3260581822008435
 21
0.0
 31
0.0
 12
0.0
 22
0.3260581822008435
 32
0.0
 13
1.0
 23
1.0
340
0
 70
     4
280
     1
281
    50
282
    50
283
     0
360
0
 71
     2
 91
        5
 14
-0.4999999999999964
 24
-0.0555555555555589
 14
0.5000000000000036
 24
-0.0555555555555589
 14
0.5000000000000036
 24
0.5
 14
-0.4999999999999964
 24
0.5
 14
-0.4999999999999964
 24
-0.0555555555555589
  0
POLYLINE
  5
264
330
48
100
AcDbEntity
  8
None
  6
Continuous
 62
     7
370
    18
100
AcDb2dPolyline
 66
     1
 10
0.0
 20
0.0
 30
0.0
 70
     1
  0
VERTEX
  5
265
330
264
100
AcDbEntity
  8
None
  6
Continuous
 62
     7
370
    18
100
AcDbVertex
100
AcDb2dVertex
 10
6.668008435905684
 20
-3.448254647477327
 30
0.0
  0
VERTEX
  5
266
330
264
100
AcDbEntity
  8
None
  6
Continuous
 62
     7
370
    18
100
AcDbVertex
100
AcDb2dVertex
 10
6.994066618106528
 20
-3.448254647477327
 30
0.0
  0
VERTEX
  5
267
330
264
100
AcDbEntity
  8
None
  6
Continuous
 62
     7
370
    18
100
AcDbVertex
100
AcDb2dVertex
 10
6.994066618106528
 20
-3.629398082033353
 30
0.0
  0
VERTEX
  5
268
330
264
100
AcDbEntity
  8
None
  6
Continuous
 62
     7
370
    18
100
AcDbVertex
100
AcDb2dVertex
 10
6.668008435905684
 20
-3.629398082033353
 30
0.0
  0
SEQEND
  5
269
330
264
100
AcDbEntity
  8
None
  6
Continuous
 62
     7
370
    18
  0
MTEXT
  5
26A
330
48
100
AcDbEntity
  8
None
 62
   251
100
AcDbMText
 10
6.83064320675202
 20
-3.508572149492363
 30
0.0
 40
0.0398516076963248
 41
0.0
 71
     2
 72
     1
  1
CAFETERIA\P
  7
Helvetica
 73
     1
 44
0.8397955333929318
  0
MTEXT
  5
26B
330
48
100
AcDbEntity
  8
None
 62
   251
100
AcDbMText
 10
5.618603976180795
 20
-4.04501806926748
 30
0.0
 40
0.099629019240812
 41
0.0
 71
     2
 72
     1
  1
5
  7
Helvetica
 73
     1
 44
0.8397955333929318
  0
ENDBLK
  5
4A
330
48
100
AcDbEntity
  8
0
100
AcDbBlockEnd
  0
BLOCK
  5
4C
330
4B
100
AcDbEntity
  8
0
100
AcDbBlockBegin
  2
Group-5-1
 70
     0
 10
0.0
 20
0.0
 30
0.0
  3
Group-5-1
  1

  0
WIPEOUT
  5
26C
330
4B
100
AcDbEntity
  8
None
  6
Continuous
 62
     7
370
    15
 92
      152
310
98000000040000000C0000000E000000B20000000C00000016000000000000C20C00000014000000010000006C00000007000000040000000200000000A88BC0452263D6472886C000000000000000000200000000488BC0452263D6472886C000000000000000000200000000488BC0452263D6475886C000000000000000
310
000200000000A88BC0452263D6475886C00000000000000000
100
AcDbWipeout
 90
        0
 10
-885.0000000000002
 20
-715.0350768799624
 30
0.0
 11
12.00000000000011
 21
0.0
 31
0.0
 12
0.0
 22
12.00000000000011
 32
0.0
 13
1.0
 23
1.0
340
0
 70
     4
280
     1
281
    50
282
    50
283
     0
360
0
 71
     2
 91
        5
 14
-0.5
 24
-0.0000000000000071
 14
0.5
 24
-0.0000000000000071
 14
0.5
 24
0.4999999999999858
 14
-0.5
 24
0.4999999999999858
 14
-0.5
 24
-0.0000000000000071
  0
POLYLINE
  5
26D
330
4B
100
AcDbEntity
  8
None
  6
Continuous
 62
     7
370
    15
100
AcDb2dPolyline
 66
     1
 10
0.0
 20
0.0
 30
0.0
 70
     1
  0
VERTEX
  5
26E
330
26D
100
AcDbEntity
  8
None
  6
Continuous
 62
     7
370
    15
100
AcDbVertex
100
AcDb2dVertex
 10
-885.0000000000002
 20
-709.0350768799624
 30
0.0
  0
VERTEX
  5
26F
330
26D
100
AcDbEntity
  8
None
  6
Continuous
 62
     7
370
    15
100
AcDbVertex
100
AcDb2dVertex
 10
-873.0000000000001
 20
-709.0350768799624
 30
0.0
  0
VERTEX
  5
270
330
26D
100
AcDbEntity
  8
None
  6
Continuous
 62
     7
370
    15
100
AcDbVertex
100
AcDb2dVertex
 10
-873.0000000000001
 20
-715.0350768799624
 30
0.0
  0
VERTEX
  5
271
330
26D
100
AcDbEntity
  8
None
  6
Continuous
 62
     7
370
    15
100
AcDbVertex
100
AcDb2dVertex
 10
-885.0000000000002
 20
-715.0350768799624
 30
0.0
  0
SEQEND
  5
272
330
26D
100
AcDbEntity
  8
None
  6
Continuous
 62
     7
370
    15
  0
WIPEOUT
  5
273
330
4B
100
AcDbEntity
  8
None
  6
Continuous
 62
     7
370
    15
 92
      152
310
98000000040000000C0000000E000000B20000000C00000016000000000000C20C00000014000000010000006C0000000700000004000000FAFFFFFFFF478BC0462263D6475886C00000000000000000FEFFFFFFFFE78AC0462263D6475886C00000000000000000FEFFFFFFFFE78AC0462263D6478886C000000000000000
310
00FAFFFFFFFF478BC0462263D6478886C00000000000000000
100
AcDbWipeout
 90
        0
 10
-872.9999999999995
 20
-721.0350768799623
 30
0.0
 11
11.99999999999955
 21
0.0
 31
0.0
 12
0.0
 22
11.99999999999955
 32
0.0
 13
1.0
 23
1.0
340
0
 70
     4
280
     1
281
    50
282
    50
283
     0
360
0
 71
     2
 91
        5
 14
-0.4999999999999858
 24
-0.0000000000000071
 14
0.5000000000000142
 24
-0.0000000000000071
 14
0.5000000000000142
 24
0.5000000000000071
 14
-0.4999999999999858
 24
0.5000000000000071
 14
-0.4999999999999858
 24
-0.0000000000000071
  0
POLYLINE
  5
274
330
4B
100
AcDbEntity
  8
None
  6
Continuous
 62
     7
370
    15
100
AcDb2dPolyline
 66
     1
 10
0.0
 20
0.0
 30
0.0
 70
     1
  0
VERTEX
  5
275
330
274
100
AcDbEntity
  8
None
  6
Continuous
 62
     7
370
    15
100
AcDbVertex
100
AcDb2dVertex
 10
-872.9999999999995
 20
-715.0350768799624
 30
0.0
  0
VERTEX
  5
276
330
274
100
AcDbEntity
  8
None
  6
Continuous
 62
     7
370
    15
100
AcDbVertex
100
AcDb2dVertex
 10
-861.0
 20
-715.0350768799624
 30
0.0
  0
VERTEX
  5
277
330
274
100
AcDbEntity
  8
None
  6
Continuous
 62
     7
370
    15
100
AcDbVertex
100
AcDb2dVertex
 10
-861.0
 20
-721.0350768799623
 30
0.0
  0
VERTEX
  5
278
330
274
100
AcDbEntity
  8
None
  6
Continuous
 62
     7
370
    15
100
AcDbVertex
100
AcDb2dVertex
 10
-872.9999999999995
 20
-721.0350768799623
 30
0.0
  0
SEQEND
  5
279
330
274
100
AcDbEntity
  8
None
  6
Continuous
 62
     7
370
    15
  0
WIPEOUT
  5
27A
330
4B
100
AcDbEntity
  8
None
  6
Continuous
 62
     7
370
    15
 92
      152
310
98000000040000000C0000000E000000B20000000C00000016000000000000C20C00000014000000010000006C00000007000000040000000000000000E88AC0452263D6472886C000000000000000000000000000888AC0452263D6472886C000000000000000000000000000888AC0452263D6475886C000000000000000
310
000000000000E88AC0452263D6475886C00000000000000000
100
AcDbWipeout
 90
        0
 10
-861.0
 20
-715.0350768799624
 30
0.0
 11
12.00000000000011
 21
0.0
 31
0.0
 12
0.0
 22
12.00000000000011
 32
0.0
 13
1.0
 23
1.0
340
0
 70
     4
280
     1
281
    50
282
    50
283
     0
360
0
 71
     2
 91
        5
 14
-0.5
 24
-0.0000000000000071
 14
0.5
 24
-0.0000000000000071
 14
0.5
 24
0.4999999999999858
 14
-0.5
 24
0.4999999999999858
 14
-0.5
 24
-0.0000000000000071
  0
POLYLINE
  5
27B
330
4B
100
AcDbEntity
  8
None
  6
Continuous
 62
     7
370
    15
100
AcDb2dPolyline
 66
     1
 10
0.0
 20
0.0
 30
0.0
 70
     1
  0
VERTEX
  5
27C
330
27B
100
AcDbEntity
  8
None
  6
Continuous
 62
     7
370
    15
100
AcDbVertex
100
AcDb2dVertex
 10
-861.0
 20
-709.0350768799624
 30
0.0
  0
VERTEX
  5
27D
330
27B
100
AcDbEntity
  8
None
  6
Continuous
 62
     7
370
    15
100
AcDbVertex
100
AcDb2dVertex
 10
-848.9999999999999
 20
-709.0350768799624
 30
0.0
  0
VERTEX
  5
27E
330
27B
100
AcDbEntity
  8
None
  6
Continuous
 62
     7
370
    15
100
AcDbVertex
100
AcDb2dVertex
 10
-848.9999999999999
 20
-715.0350768799624
 30
0.0
  0
VERTEX
  5
27F
330
27B
100
AcDbEntity
  8
None
  6
Continuous
 62
     7
370
    15
100
AcDbVertex
100
AcDb2dVertex
 10
-861.0
 20
-715.0350768799624
 30
0.0
  0
SEQEND
  5
280
330
27B
100
AcDbEntity
  8
None
  6
Continuous
 62
     7
370
    15
  0
WIPEOUT
  5
281
330
4B
100
AcDbEntity
  8
None
  6
Continuous
 62
     7
370
    15
 92
      152
310
98000000040000000C0000000E000000B20000000C00000016000000000000C20C00000014000000010000006C0000000700000004000000FEFFFFFFFF878AC0452263D6475886C00000000000000000FEFFFFFFFF278AC0452263D6475886C00000000000000000FEFFFFFFFF278AC0442263D6478886C000000000000000
310
00FEFFFFFFFF878AC0442263D6478886C00000000000000000
100
AcDbWipeout
 90
        0
 10
-848.9999999999999
 20
-721.0350768799623
 30
0.0
 11
12.00000000000011
 21
0.0
 31
0.0
 12
0.0
 22
12.00000000000011
 32
0.0
 13
1.0
 23
1.0
340
0
 70
     4
280
     1
281
    50
282
    50
283
     0
360
0
 71
     2
 91
        5
 14
-0.5
 24
0.0000000000000071
 14
0.5
 24
0.0000000000000071
 14
0.5
 24
0.4999999999999929
 14
-0.5
 24
0.4999999999999929
 14
-0.5
 24
0.0000000000000071
  0
POLYLINE
  5
282
330
4B
100
AcDbEntity
  8
None
  6
Continuous
 62
     7
370
    15
100
AcDb2dPolyline
 66
     1
 10
0.0
 20
0.0
 30
0.0
 70
     1
  0
VERTEX
  5
283
330
282
100
AcDbEntity
  8
None
  6
Continuous
 62
     7
370
    15
100
AcDbVertex
100
AcDb2dVertex
 10
-848.9999999999999
 20
-715.0350768799624
 30
0.0
  0
VERTEX
  5
284
330
282
100
AcDbEntity
  8
None
  6
Continuous
 62
     7
370
    15
100
AcDbVertex
100
AcDb2dVertex
 10
-836.9999999999998
 20
-715.0350768799624
 30
0.0
  0
VERTEX
  5
285
330
282
100
AcDbEntity
  8
None
  6
Continuous
 62
     7
370
    15
100
AcDbVertex
100
AcDb2dVertex
 10
-836.9999999999998
 20
-721.0350768799623
 30
0.0
  0
VERTEX
  5
286
330
282
100
AcDbEntity
  8
None
  6
Continuous
 62
     7
370
    15
100
AcDbVertex
100
AcDb2dVertex
 10
-848.9999999999999
 20
-721.0350768799623
 30
0.0
  0
SEQEND
  5
287
330
282
100
AcDbEntity
  8
None
  6
Continuous
 62
     7
370
    15
  0
WIPEOUT
  5
288
330
4B
100
AcDbEntity
  8
None
  6
Continuous
 62
     7
370
    15
 92
      152
310
98000000040000000C0000000E000000B20000000C00000016000000000000C20C00000014000000010000006C0000000700000004000000FEFFFFFFFF278AC0452263D6472886C00000000000000000FEFFFFFFFFC789C0452263D6472886C00000000000000000FEFFFFFFFFC789C0452263D6475886C000000000000000
310
00FEFFFFFFFF278AC0452263D6475886C00000000000000000
100
AcDbWipeout
 90
        0
 10
-836.9999999999998
 20
-715.0350768799624
 30
0.0
 11
12.00000000000011
 21
0.0
 31
0.0
 12
0.0
 22
12.00000000000011
 32
0.0
 13
1.0
 23
1.0
340
0
 70
     4
280
     1
281
    50
282
    50
283
     0
360
0
 71
     2
 91
        5
 14
-0.5
 24
-0.0000000000000071
 14
0.5
 24
-0.0000000000000071
 14
0.5
 24
0.4999999999999858
 14
-0.5
 24
0.4999999999999858
 14
-0.5
 24
-0.0000000000000071
  0
POLYLINE
  5
289
330
4B
100
AcDbEntity
  8
None
  6
Continuous
 62
     7
370
    15
100
AcDb2dPolyline
 66
     1
 10
0.0
 20
0.0
 30
0.0
 70
     1
  0
VERTEX
  5
28A
330
289
100
AcDbEntity
  8
None
  6
Continuous
 62
     7
370
    15
100
AcDbVertex
100
AcDb2dVertex
 10
-836.9999999999998
 20
-709.0350768799624
 30
0.0
  0
VERTEX
  5
28B
330
289
100
AcDbEntity
  8
None
  6
Continuous
 62
     7
370
    15
100
AcDbVertex
100
AcDb2dVertex
 10
-824.9999999999997
 20
-709.0350768799624
 30
0.0
  0
VERTEX
  5
28C
330
289
100
AcDbEntity
  8
None
  6
Continuous
 62
     7
370
    15
100
AcDbVertex
100
AcDb2dVertex
 10
-824.9999999999997
 20
-715.0350768799624
 30
0.0
  0
VERTEX
  5
28D
330
289
100
AcDbEntity
  8
None
  6
Continuous
 62
     7
370
    15
100
AcDbVertex
100
AcDb2dVertex
 10
-836.9999999999998
 20
-715.0350768799624
 30
0.0
  0
SEQEND
  5
28E
330
289
100
AcDbEntity
  8
None
  6
Continuous
 62
     7
370
    15
  0
WIPEOUT
  5
28F
330
4B
100
AcDbEntity
  8
None
  6
Continuous
 62
     7
370
    15
 92
      152
310
98000000040000000C0000000E000000B20000000C00000016000000000000C20C00000014000000010000006C00000007000000040000000100000000C889C0462263D6475886C000000000000000000100000000E887C0462263D6475886C000000000000000000100000000E887C0452263D6478886C000000000000000
310
000100000000C889C0452263D6478886C00000000000000000
100
AcDbWipeout
 90
        0
 10
-825.0000000000002
 20
-721.0350768799623
 30
0.0
 11
60.0
 21
0.0
 31
0.0
 12
0.0
 22
60.0
 32
0.0
 13
1.0
 23
1.0
340
0
 70
     4
280
     1
281
    50
282
    50
283
     0
360
0
 71
     2
 91
        5
 14
-0.4999999999999982
 24
0.4000000000000021
 14
0.5000000000000018
 24
0.4000000000000021
 14
0.5000000000000018
 24
0.5
 14
-0.4999999999999982
 24
0.5
 14
-0.4999999999999982
 24
0.4000000000000021
  0
POLYLINE
  5
290
330
4B
100
AcDbEntity
  8
None
  6
Continuous
 62
     7
370
    15
100
AcDb2dPolyline
 66
     1
 10
0.0
 20
0.0
 30
0.0
 70
     1
  0
VERTEX
  5
291
330
290
100
AcDbEntity
  8
None
  6
Continuous
 62
     7
370
    15
100
AcDbVertex
100
AcDb2dVertex
 10
-825.0000000000002
 20
-715.0350768799624
 30
0.0
  0
VERTEX
  5
292
330
290
100
AcDbEntity
  8
None
  6
Continuous
 62
     7
370
    15
100
AcDbVertex
100
AcDb2dVertex
 10
-765.0000000000002
 20
-715.0350768799624
 30
0.0
  0
VERTEX
  5
293
330
290
100
AcDbEntity
  8
None
  6
Continuous
 62
     7
370
    15
100
AcDbVertex
100
AcDb2dVertex
 10
-765.0000000000002
 20
-721.0350768799623
 30
0.0
  0
VERTEX
  5
294
330
290
100
AcDbEntity
  8
None
  6
Continuous
 62
     7
370
    15
100
AcDbVertex
100
AcDb2dVertex
 10
-825.0000000000002
 20
-721.0350768799623
 30
0.0
  0
SEQEND
  5
295
330
290
100
AcDbEntity
  8
None
  6
Continuous
 62
     7
370
    15
  0
WIPEOUT
  5
296
330
4B
100
AcDbEntity
  8
None
  6
Continuous
 62
     7
370
    15
 92
      152
310
98000000040000000C0000000E000000B20000000C00000016000000000000C20C00000014000000010000006C00000007000000040000000200000000E887C0462263D6472886C0000000000000000002000000002884C0462263D6472886C0000000000000000002000000002884C0462263D6475886C000000000000000
310
000200000000E887C0462263D6475886C00000000000000000
100
AcDbWipeout
 90
        0
 10
-765.0000000000002
 20
-715.0350768799624
 30
0.0
 11
119.9999999999999
 21
0.0
 31
0.0
 12
0.0
 22
119.9999999999999
 32
0.0
 13
1.0
 23
1.0
340
0
 70
     4
280
     1
281
    50
282
    50
283
     0
360
0
 71
     2
 91
        5
 14
-0.5
 24
0.4500000000000002
 14
0.5
 24
0.4500000000000002
 14
0.5
 24
0.5
 14
-0.5
 24
0.5
 14
-0.5
 24
0.4500000000000002
  0
POLYLINE
  5
297
330
4B
100
AcDbEntity
  8
None
  6
Continuous
 62
     7
370
    15
100
AcDb2dPolyline
 66
     1
 10
0.0
 20
0.0
 30
0.0
 70
     1
  0
VERTEX
  5
298
330
297
100
AcDbEntity
  8
None
  6
Continuous
 62
     7
370
    15
100
AcDbVertex
100
AcDb2dVertex
 10
-765.0000000000002
 20
-709.0350768799624
 30
0.0
  0
VERTEX
  5
299
330
297
100
AcDbEntity
  8
None
  6
Continuous
 62
     7
370
    15
100
AcDbVertex
100
AcDb2dVertex
 10
-645.0000000000003
 20
-709.0350768799624
 30
0.0
  0
VERTEX
  5
29A
330
297
100
AcDbEntity
  8
None
  6
Continuous
 62
     7
370
    15
100
AcDbVertex
100
AcDb2dVertex
 10
-645.0000000000003
 20
-715.0350768799624
 30
0.0
  0
VERTEX
  5
29B
330
297
100
AcDbEntity
  8
None
  6
Continuous
 62
     7
370
    15
100
AcDbVertex
100
AcDb2dVertex
 10
-765.0000000000002
 20
-715.0350768799624
 30
0.0
  0
SEQEND
  5
29C
330
297
100
AcDbEntity
  8
None
  6
Continuous
 62
     7
370
    15
  0
WIPEOUT
  5
29D
330
4B
100
AcDbEntity
  8
None
  6
Continuous
 62
     7
370
    15
 92
      152
310
98000000040000000C0000000E000000B20000000C00000016000000000000C20C00000014000000010000006C000000070000000400000002000000002884C0452263D6475886C0000000000000000009000000005079C0452263D6475886C0000000000000000009000000005079C0452263D6478886C000000000000000
310
0002000000002884C0452263D6478886C00000000000000000
100
AcDbWipeout
 90
        0
 10
-645.0000000000003
 20
-721.0350768799623
 30
0.0
 11
239.9999999999998
 21
0.0
 31
0.0
 12
0.0
 22
239.9999999999998
 32
0.0
 13
1.0
 23
1.0
340
0
 70
     4
280
     1
281
    50
282
    50
283
     0
360
0
 71
     2
 91
        5
 14
-0.4999999999999996
 24
0.4750000000000001
 14
0.5000000000000002
 24
0.4750000000000001
 14
0.5000000000000002
 24
0.5
 14
-0.4999999999999996
 24
0.5
 14
-0.4999999999999996
 24
0.4750000000000001
  0
POLYLINE
  5
29E
330
4B
100
AcDbEntity
  8
None
  6
Continuous
 62
     7
370
    15
100
AcDb2dPolyline
 66
     1
 10
0.0
 20
0.0
 30
0.0
 70
     1
  0
VERTEX
  5
29F
330
29E
100
AcDbEntity
  8
None
  6
Continuous
 62
     7
370
    15
100
AcDbVertex
100
AcDb2dVertex
 10
-645.0000000000003
 20
-715.0350768799624
 30
0.0
  0
VERTEX
  5
2A0
330
29E
100
AcDbEntity
  8
None
  6
Continuous
 62
     7
370
    15
100
AcDbVertex
100
AcDb2dVertex
 10
-405.0000000000006
 20
-715.0350768799624
 30
0.0
  0
VERTEX
  5
2A1
330
29E
100
AcDbEntity
  8
None
  6
Continuous
 62
     7
370
    15
100
AcDbVertex
100
AcDb2dVertex
 10
-405.0000000000006
 20
-721.0350768799623
 30
0.0
  0
VERTEX
  5
2A2
330
29E
100
AcDbEntity
  8
None
  6
Continuous
 62
     7
370
    15
100
AcDbVertex
100
AcDb2dVertex
 10
-645.0000000000003
 20
-721.0350768799623
 30
0.0
  0
SEQEND
  5
2A3
330
29E
100
AcDbEntity
  8
None
  6
Continuous
 62
     7
370
    15
  0
LINE
  5
2A4
330
4B
100
AcDbEntity
  8
None
  6
Continuous
 62
     7
370
    15
100
AcDbLine
 10
-885.0000000000002
 20
-709.0350768799624
 30
0.0
 11
-885.0000000000002
 21
-721.0350768799623
 31
0.0
  0
LINE
  5
2A5
330
4B
100
AcDbEntity
  8
None
  6
Continuous
 62
     7
370
    15
100
AcDbLine
 10
-165.0000000000004
 20
-721.0350768799623
 30
0.0
 11
-165.0000000000004
 21
-709.0350768799624
 31
0.0
  0
WIPEOUT
  5
2A6
330
4B
100
AcDbEntity
  8
None
  6
Continuous
 62
     7
370
    15
 92
      152
310
98000000040000000C0000000E000000B20000000C00000016000000000000C20C00000014000000010000006C0000000700000004000000FEFFFFFFFF4F79C0462263D6472886C00000000000000000E8FFFFFFFF9F64C0462263D6472886C00000000000000000E8FFFFFFFF9F64C0462263D6475886C000000000000000
310
00FEFFFFFFFF4F79C0462263D6475886C00000000000000000
100
AcDbWipeout
 90
        0
 10
-404.9999999999999
 20
-715.0350768799623
 30
0.0
 11
240.0000000000006
 21
0.0
 31
0.0
 12
0.0
 22
240.0000000000006
 32
0.0
 13
1.0
 23
1.0
340
0
 70
     4
280
     1
281
    50
282
    50
283
     0
360
0
 71
     2
 91
        5
 14
-0.5
 24
0.475000000000001
 14
0.5
 24
0.475000000000001
 14
0.5
 24
0.5000000000000004
 14
-0.5
 24
0.5000000000000004
 14
-0.5
 24
0.475000000000001
  0
POLYLINE
  5
2A7
330
4B
100
AcDbEntity
  8
None
  6
Continuous
 62
     7
370
    15
100
AcDb2dPolyline
 66
     1
 10
0.0
 20
0.0
 30
0.0
 70
     1
  0
VERTEX
  5
2A8
330
2A7
100
AcDbEntity
  8
None
  6
Continuous
 62
     7
370
    15
100
AcDbVertex
100
AcDb2dVertex
 10
-404.9999999999999
 20
-709.0350768799624
 30
0.0
  0
VERTEX
  5
2A9
330
2A7
100
AcDbEntity
  8
None
  6
Continuous
 62
     7
370
    15
100
AcDbVertex
100
AcDb2dVertex
 10
-164.9999999999993
 20
-709.0350768799624
 30
0.0
  0
VERTEX
  5
2AA
330
2A7
100
AcDbEntity
  8
None
  6
Continuous
 62
     7
370
    15
100
AcDbVertex
100
AcDb2dVertex
 10
-164.9999999999993
 20
-715.0350768799623
 30
0.0
  0
VERTEX
  5
2AB
330
2A7
100
AcDbEntity
  8
None
  6
Continuous
 62
     7
370
    15
100
AcDbVertex
100
AcDb2dVertex
 10
-404.9999999999999
 20
-715.0350768799623
 30
0.0
  0
SEQEND
  5
2AC
330
2A7
100
AcDbEntity
  8
None
  6
Continuous
 62
     7
370
    15
  0
ENDBLK
  5
4D
330
4B
100
AcDbEntity
  8
0
100
AcDbBlockEnd
  0
BLOCK
  5
4F
330
4E
100
AcDbEntity
  8
0
100
AcDbBlockBegin
  2
Group-6-1
 70
     0
 10
0.0
 20
0.0
 30
0.0
  3
Group-6-1
  1

  0
INSERT
  5
2AD
330
4E
100
AcDbEntity
  8
None
 62
     7
100
AcDbBlockReference
  2
Group-5-1
 10
0.0
 20
0.0
 30
0.0
  0
WIPEOUT
  5
2AE
330
4E
100
AcDbEntity
  8
None
  6
Continuous
 62
     7
370
     9
 92
      152
310
98000000040000000C0000000E000000B20000000C00000016000000000000C20C00000014000000010000006C00000007000000040000000100000000D88BC0527455A0408187C000000000000000003A8EE3388B7C8BC0527455A0408187C000000000000000003A8EE3388B7C8BC08B0239D9CEDC86C000000000000000
310
000100000000D88BC08B0239D9CEDC86C00000000000000000
100
AcDbWipeout
 90
        0
 10
-891.0
 20
-752.1565558124661
 30
0.0
 11
20.55555555555554
 21
0.0
 31
0.0
 12
0.0
 22
20.55555555555554
 32
0.0
 13
1.0
 23
1.0
340
0
 70
     4
280
     1
281
    50
282
    50
283
     0
360
0
 71
     2
 91
        5
 14
-0.5000000000000071
 24
0.4999999999999929
 14
0.0561523437499929
 24
0.4999999999999929
 14
0.0561523437499929
 24
-0.5000000000000071
 14
-0.5000000000000071
 24
-0.5000000000000071
 14
-0.5000000000000071
 24
0.4999999999999929
  0
MTEXT
  5
2AF
330
4E
100
AcDbEntity
  8
None
 62
     7
100
AcDbMText
 10
-891.0
 20
-732.6836831870482
 30
0.0
 40
14.74509484764017
 41
0.0
 71
     1
 72
     1
  1
0
  7
Helvetica
 73
     1
 44
0.8397955333929318
  0
WIPEOUT
  5
2B0
330
4E
100
AcDbEntity
  8
None
  6
Continuous
 62
     7
370
     9
 92
      152
310
98000000040000000C0000000E000000B20000000C00000016000000000000C20C00000014000000010000006C0000000700000004000000FB0AB101B3F489C0527455A0408187C00000000000000000FB0AB101D97989C0527455A0408187C00000000000000000FB0AB101D97989C08B0239D9CEDC86C000000000000000
310
00FB0AB101B3F489C08B0239D9CEDC86C00000000000000000
100
AcDbWipeout
 90
        0
 10
-830.5874055701709
 20
-752.1565558124661
 30
0.0
 11
20.55555555555554
 21
0.0
 31
0.0
 12
0.0
 22
20.55555555555554
 32
0.0
 13
1.0
 23
1.0
340
0
 70
     4
280
     1
281
    50
282
    50
283
     0
360
0
 71
     2
 91
        5
 14
-0.5000000000000071
 24
0.4999999999999929
 14
0.2470703124999929
 24
0.4999999999999929
 14
0.2470703124999929
 24
-0.5000000000000071
 14
-0.5000000000000071
 24
-0.5000000000000071
 14
-0.5000000000000071
 24
0.4999999999999929
  0
MTEXT
  5
2B1
330
4E
100
AcDbEntity
  8
None
 62
     7
100
AcDbMText
 10
-830.5874055701709
 20
-732.6836831870482
 30
0.0
 40
14.74509484764017
 41
0.0
 71
     1
 72
     1
  1
5'
  7
Helvetica
 73
     1
 44
0.8397955333929318
  0
WIPEOUT
  5
2B2
330
4E
100
AcDbEntity
  8
None
  6
Continuous
 62
     7
370
     9
 92
      152
310
98000000040000000C0000000E000000B20000000C00000016000000000000C20C00000014000000010000006C000000070000000400000083B56641875888C0537455A0408187C00000000000000000BD434A7A388287C0537455A0408187C00000000000000000BD434A7A388287C08C0239D9CEDC86C000000000000000
310
0083B56641875888C08C0239D9CEDC86C00000000000000000
100
AcDbWipeout
 90
        0
 10
-779.066042711653
 20
-752.1565558124661
 30
0.0
 11
26.78846571180543
 21
0.0
 31
0.0
 12
0.0
 22
26.78846571180543
 32
0.0
 13
1.0
 23
1.0
340
0
 70
     4
280
     1
281
    50
282
    50
283
     0
360
0
 71
     2
 91
        5
 14
-0.5
 24
0.5
 14
0.5
 24
0.5
 14
0.5
 24
-0.2673285874859523
 14
-0.5
 24
-0.2673285874859523
 14
-0.5
 24
0.5
  0
MTEXT
  5
2B3
330
4E
100
AcDbEntity
  8
None
 62
     7
100
AcDbMText
 10
-779.066042711653
 20
-732.6836831870482
 30
0.0
 40
14.74509484764017
 41
0.0
 71
     1
 72
     1
  1
10'
  7
Helvetica
 73
     1
 44
0.8397955333929318
  0
WIPEOUT
  5
2B4
330
4E
100
AcDbEntity
  8
None
  6
Continuous
 62
     7
370
     9
 92
      152
310
98000000040000000C0000000E000000B20000000C00000016000000000000C20C00000014000000010000006C0000000700000004000000F5156203667984C0537455A0408187C000000000000000002EA4453C17A383C0537455A0408187C000000000000000002EA4453C17A383C08C0239D9CEDC86C000000000000000
310
00F5156203667984C08C0239D9CEDC86C00000000000000000
100
AcDbWipeout
 90
        0
 10
-655.1748111403418
 20
-752.1565558124661
 30
0.0
 11
26.78846571180554
 21
0.0
 31
0.0
 12
0.0
 22
26.78846571180554
 32
0.0
 13
1.0
 23
1.0
340
0
 70
     4
280
     1
281
    50
282
    50
283
     0
360
0
 71
     2
 91
        5
 14
-0.4999999999999964
 24
0.4999999999999964
 14
0.5000000000000036
 24
0.4999999999999964
 14
0.5000000000000036
 24
-0.2673285874859523
 14
-0.4999999999999964
 24
-0.2673285874859523
 14
-0.4999999999999964
 24
0.4999999999999964
  0
MTEXT
  5
2B5
330
4E
100
AcDbEntity
  8
None
 62
     7
100
AcDbMText
 10
-655.1748111403418
 20
-732.6836831870482
 30
0.0
 40
14.74509484764017
 41
0.0
 71
     1
 72
     1
  1
20'
  7
Helvetica
 73
     1
 44
0.8397955333929318
  0
WIPEOUT
  5
2B6
330
4E
100
AcDbEntity
  8
None
  6
Continuous
 62
     7
370
     9
 92
      152
310
98000000040000000C0000000E000000B20000000C00000016000000000000C20C00000014000000010000006C0000000700000004000000DB2BC406CC327AC0537455A0408187C000000000000000004C488B782E8678C0537455A0408187C000000000000000004C488B782E8678C08C0239D9CEDC86C000000000000000
310
00DB2BC406CC327AC08C0239D9CEDC86C00000000000000000
100
AcDbWipeout
 90
        0
 10
-419.174811140341
 20
-752.1565558124661
 30
0.0
 11
26.7884657118056
 21
0.0
 31
0.0
 12
0.0
 22
26.7884657118056
 32
0.0
 13
1.0
 23
1.0
340
0
 70
     4
280
     1
281
    50
282
    50
283
     0
360
0
 71
     2
 91
        5
 14
-0.4999999999999982
 24
0.5
 14
0.5000000000000018
 24
0.5
 14
0.5000000000000018
 24
-0.2673285874859488
 14
-0.4999999999999982
 24
-0.2673285874859488
 14
-0.4999999999999982
 24
0.5
  0
MTEXT
  5
2B7
330
4E
100
AcDbEntity
  8
None
 62
     7
100
AcDbMText
 10
-419.174811140341
 20
-732.6836831870482
 30
0.0
 40
14.74509484764017
 41
0.0
 71
     1
 72
     1
  1
40'
  7
Helvetica
 73
     1
 44
0.8397955333929318
  0
WIPEOUT
  5
2B8
330
4E
100
AcDbEntity
  8
None
  6
Continuous
 62
     7
370
     9
 92
      152
310
98000000040000000C0000000E000000B20000000C00000016000000000000C20C00000014000000010000006C00000007000000040000002573D5B0939366C0537455A0408187C0000000000000000008AC6394583A63C0537455A0408187C0000000000000000008AC6394583A63C08C0239D9CEDC86C000000000000000
310
002573D5B0939366C08C0239D9CEDC86C00000000000000000
100
AcDbWipeout
 90
        0
 10
-180.6117786568585
 20
-752.1565558124661
 30
0.0
 11
26.78846571180557
 21
0.0
 31
0.0
 12
0.0
 22
26.78846571180557
 32
0.0
 13
1.0
 23
1.0
340
0
 70
     4
280
     1
281
    50
282
    50
283
     0
360
0
 71
     2
 91
        5
 14
-0.5000000000000009
 24
0.5000000000000036
 14
0.4999999999999991
 24
0.5000000000000036
 14
0.4999999999999991
 24
-0.2673285874859452
 14
-0.5000000000000009
 24
-0.2673285874859452
 14
-0.5000000000000009
 24
0.5000000000000036
  0
MTEXT
  5
2B9
330
4E
100
AcDbEntity
  8
None
 62
     7
100
AcDbMText
 10
-180.6117786568585
 20
-732.6836831870482
 30
0.0
 40
14.74509484764017
 41
0.0
 71
     1
 72
     1
  1
60'
  7
Helvetica
 73
     1
 44
0.8397955333929318
  0
ENDBLK
  5
50
330
4E
100
AcDbEntity
  8
0
100
AcDbBlockEnd
  0
BLOCK
  5
52
330
51
100
AcDbEntity
  8
0
100
AcDbBlockBegin
  2
Group-7-1
 70
     0
 10
0.0
 20
0.0
 30
0.0
  3
Group-7-1
  1

  0
INSERT
  5
2BA
330
51
100
AcDbEntity
  8
None
 62
     7
100
AcDbBlockReference
  2
Group-6-1
 10
0.0
 20
0.0
 30
0.0
  0
ENDBLK
  5
53
330
51
100
AcDbEntity
  8
0
100
AcDbBlockEnd
  0
BLOCK
  5
55
330
54
100
AcDbEntity
  8
0
100
AcDbBlockBegin
  2
Group-8-1
 70
     0
 10
0.0
 20
0.0
 30
0.0
  3
Group-8-1
  1

  0
WIPEOUT
  5
2BB
330
54
100
AcDbEntity
  8
None
  6
Continuous
 62
     7
370
     9
 92
      152
310
98000000040000000C0000000E000000B20000000C00000016000000000000C20C00000014000000010000006C00000007000000040000004CCBD92C30BE8BC0A9AAAAAAAAAE85C00000000000000000F7758457D98984C0A9AAAAAAAAAE85C00000000000000000F7758457D98984C0FEFFFFFFFFB784C000000000000000
310
004CCBD92C30BE8BC0FEFFFFFFFFB784C00000000000000000
100
AcDbWipeout
 90
        0
 10
-887.7735230460326
 20
-693.8333333333333
 30
0.0
 11
230.5423990885416
 21
0.0
 31
0.0
 12
0.0
 22
230.5423990885416
 32
0.0
 13
1.0
 23
1.0
340
0
 70
     4
280
     1
281
    50
282
    50
283
     0
360
0
 71
     2
 91
        5
 14
-0.4999999999999996
 24
0.4999999999999991
 14
0.5000000000000004
 24
0.4999999999999991
 14
0.5000000000000004
 24
0.3662574283288698
 14
-0.4999999999999996
 24
0.3662574283288698
 14
-0.4999999999999996
 24
0.4999999999999991
  0
MTEXT
  5
2BC
330
54
100
AcDbEntity
  8
None
 62
     7
100
AcDbMText
 10
-887.7735230460326
 20
-664.6240243952062
 30
0.0
 40
22.11764227146026
 41
0.0
 71
     1
 72
     1
  1
SCALE = 1 : 185
  7
Helvetica
 73
     1
 44
0.8397955333929318
  0
INSERT
  5
2BD
330
54
100
AcDbEntity
  8
None
 62
     7
100
AcDbBlockReference
  2
Group-7-1
 10
0.0
 20
0.0
 30
0.0
  0
ENDBLK
  5
56
330
54
100
AcDbEntity
  8
0
100
AcDbBlockEnd
  0
BLOCK
  5
58
330
57
100
AcDbEntity
  8
0
100
AcDbBlockBegin
  2
Group-9-1
 70
     0
 10
0.0
 20
0.0
 30
0.0
  3
Group-9-1
  1

  0
WIPEOUT
  5
2BE
330
57
100
AcDbEntity
  8
None
  6
Continuous
 62
     7
370
     9
 92
      152
310
98000000040000000C0000000E000000B20000000C00000016000000000000C20C00000014000000010000006C0000000700000004000000C6FE3B203DD67A40909128F9DA61694000000000000000005FFF1D901EAB8240909128F9DA61694000000000000000005FFF1D901EAB82408A9128F9DA01694000000000000000
310
00C6FE3B203DD67A408A9128F9DA0169400000000000000000
100
AcDbWipeout
 90
        0
 10
429.3899233192027
 20
200.0579801361421
 30
0.0
 11
167.9999999999997
 21
0.0
 31
0.0
 12
0.0
 22
167.9999999999997
 32
0.0
 13
1.0
 23
1.0
340
0
 70
     4
280
     1
281
    50
282
    50
283
     0
360
0
 71
     2
 91
        5
 14
-0.5000000000000004
 24
0.4821428571428561
 14
0.4999999999999991
 24
0.4821428571428561
 14
0.4999999999999991
 24
0.5
 14
-0.5000000000000004
 24
0.5
 14
-0.5000000000000004
 24
0.4821428571428561
  0
POLYLINE
  5
2BF
330
57
100
AcDbEntity
  8
None
  6
Continuous
 62
     7
370
     9
100
AcDb2dPolyline
 66
     1
 10
0.0
 20
0.0
 30
0.0
 70
     1
  0
VERTEX
  5
2C0
330
2BF
100
AcDbEntity
  8
None
  6
Continuous
 62
     7
370
     9
100
AcDbVertex
100
AcDb2dVertex
 10
429.3899233192027
 20
203.0579801361423
 30
0.0
  0
VERTEX
  5
2C1
330
2BF
100
AcDbEntity
  8
None
  6
Continuous
 62
     7
370
     9
100
AcDbVertex
100
AcDb2dVertex
 10
597.3899233192024
 20
203.0579801361423
 30
0.0
  0
VERTEX
  5
2C2
330
2BF
100
AcDbEntity
  8
None
  6
Continuous
 62
     7
370
     9
100
AcDbVertex
100
AcDb2dVertex
 10
597.3899233192024
 20
200.0579801361421
 30
0.0
  0
VERTEX
  5
2C3
330
2BF
100
AcDbEntity
  8
None
  6
Continuous
 62
     7
370
     9
100
AcDbVertex
100
AcDb2dVertex
 10
429.3899233192027
 20
200.0579801361421
 30
0.0
  0
SEQEND
  5
2C4
330
2BF
100
AcDbEntity
  8
None
  6
Continuous
 62
     7
370
     9
  0
WIPEOUT
  5
2C5
330
57
100
AcDbEntity
  8
None
  6
Continuous
 62
     7
370
     9
 92
      152
310
98000000040000000C0000000E000000B20000000C00000016000000000000C20C00000014000000010000006C0000000700000004000000C6FE3B203DD67A40909128F9DA61694000000000000000005FFF1D901EAB8240909128F9DA61694000000000000000005FFF1D901EAB8240949128F9DA51694000000000000000
310
00C6FE3B203DD67A40949128F9DA5169400000000000000000
100
AcDbWipeout
 90
        0
 10
429.3899233192027
 20
202.5579801361424
 30
0.0
 11
167.9999999999997
 21
0.0
 31
0.0
 12
0.0
 22
167.9999999999997
 32
0.0
 13
1.0
 23
1.0
340
0
 70
     4
280
     1
281
    50
282
    50
283
     0
360
0
 71
     2
 91
        5
 14
-0.5000000000000004
 24
0.4970238095238098
 14
0.4999999999999991
 24
0.4970238095238098
 14
0.4999999999999991
 24
0.4999999999999996
 14
-0.5000000000000004
 24
0.4999999999999996
 14
-0.5000000000000004
 24
0.4970238095238098
  0
POLYLINE
  5
2C6
330
57
100
AcDbEntity
  8
None
  6
Continuous
 62
     7
370
     9
100
AcDb2dPolyline
 66
     1
 10
0.0
 20
0.0
 30
0.0
 70
     1
  0
VERTEX
  5
2C7
330
2C6
100
AcDbEntity
  8
None
  6
Continuous
 62
     7
370
     9
100
AcDbVertex
100
AcDb2dVertex
 10
429.3899233192027
 20
203.0579801361423
 30
0.0
  0
VERTEX
  5
2C8
330
2C6
100
AcDbEntity
  8
None
  6
Continuous
 62
     7
370
     9
100
AcDbVertex
100
AcDb2dVertex
 10
597.3899233192024
 20
203.0579801361423
 30
0.0
  0
VERTEX
  5
2C9
330
2C6
100
AcDbEntity
  8
None
  6
Continuous
 62
     7
370
     9
100
AcDbVertex
100
AcDb2dVertex
 10
597.3899233192024
 20
202.5579801361424
 30
0.0
  0
VERTEX
  5
2CA
330
2C6
100
AcDbEntity
  8
None
  6
Continuous
 62
     7
370
     9
100
AcDbVertex
100
AcDb2dVertex
 10
429.3899233192027
 20
202.5579801361424
 30
0.0
  0
SEQEND
  5
2CB
330
2C6
100
AcDbEntity
  8
None
  6
Continuous
 62
     7
370
     9
  0
ENDBLK
  5
59
330
57
100
AcDbEntity
  8
0
100
AcDbBlockEnd
  0
BLOCK
  5
5B
330
5A
100
AcDbEntity
  8
0
100
AcDbBlockBegin
  2
Group-10-1
 70
     0
 10
0.0
 20
0.0
 30
0.0
  3
Group-10-1
  1

  0
WIPEOUT
  5
2CC
330
5A
100
AcDbEntity
  8
None
  6
Continuous
 62
     7
370
     9
 92
      152
310
98000000040000000C0000000E000000B20000000C00000016000000000000C20C00000014000000010000006C0000000700000004000000900288BF855362C0909128F9DA616940000000000000000004F6DF01E9B14440909128F9DA616940000000000000000004F6DF01E9B144408A9128F9DA01694000000000000000
310
00900288BF855362C08A9128F9DA0169400000000000000000
100
AcDbWipeout
 90
        0
 10
-146.6100766807981
 20
200.0579801361421
 30
0.0
 11
188.0000000000005
 21
0.0
 31
0.0
 12
0.0
 22
188.0000000000005
 32
0.0
 13
1.0
 23
1.0
340
0
 70
     4
280
     1
281
    50
282
    50
283
     0
360
0
 71
     2
 91
        5
 14
-0.5
 24
0.4840425531914885
 14
0.5
 24
0.4840425531914885
 14
0.5
 24
0.5
 14
-0.5
 24
0.5
 14
-0.5
 24
0.4840425531914885
  0
POLYLINE
  5
2CD
330
5A
100
AcDbEntity
  8
None
  6
Continuous
 62
     7
370
     9
100
AcDb2dPolyline
 66
     1
 10
0.0
 20
0.0
 30
0.0
 70
     1
  0
VERTEX
  5
2CE
330
2CD
100
AcDbEntity
  8
None
  6
Continuous
 62
     7
370
     9
100
AcDbVertex
100
AcDb2dVertex
 10
-146.6100766807981
 20
203.0579801361423
 30
0.0
  0
VERTEX
  5
2CF
330
2CD
100
AcDbEntity
  8
None
  6
Continuous
 62
     7
370
     9
100
AcDbVertex
100
AcDb2dVertex
 10
41.38992331920239
 20
203.0579801361423
 30
0.0
  0
VERTEX
  5
2D0
330
2CD
100
AcDbEntity
  8
None
  6
Continuous
 62
     7
370
     9
100
AcDbVertex
100
AcDb2dVertex
 10
41.38992331920239
 20
200.0579801361421
 30
0.0
  0
VERTEX
  5
2D1
330
2CD
100
AcDbEntity
  8
None
  6
Continuous
 62
     7
370
     9
100
AcDbVertex
100
AcDb2dVertex
 10
-146.6100766807981
 20
200.0579801361421
 30
0.0
  0
SEQEND
  5
2D2
330
2CD
100
AcDbEntity
  8
None
  6
Continuous
 62
     7
370
     9
  0
WIPEOUT
  5
2D3
330
5A
100
AcDbEntity
  8
None
  6
Continuous
 62
     7
370
     9
 92
      152
310
98000000040000000C0000000E000000B20000000C00000016000000000000C20C00000014000000010000006C0000000700000004000000900288BF855362C0909128F9DA616940000000000000000004F6DF01E9B14440909128F9DA616940000000000000000004F6DF01E9B14440949128F9DA51694000000000000000
310
00900288BF855362C0949128F9DA5169400000000000000000
100
AcDbWipeout
 90
        0
 10
-146.6100766807981
 20
202.5579801361424
 30
0.0
 11
188.0000000000005
 21
0.0
 31
0.0
 12
0.0
 22
188.0000000000005
 32
0.0
 13
1.0
 23
1.0
340
0
 70
     4
280
     1
281
    50
282
    50
283
     0
360
0
 71
     2
 91
        5
 14
-0.5
 24
0.4973404255319154
 14
0.5
 24
0.4973404255319154
 14
0.5
 24
0.5
 14
-0.5
 24
0.5
 14
-0.5
 24
0.4973404255319154
  0
POLYLINE
  5
2D4
330
5A
100
AcDbEntity
  8
None
  6
Continuous
 62
     7
370
     9
100
AcDb2dPolyline
 66
     1
 10
0.0
 20
0.0
 30
0.0
 70
     1
  0
VERTEX
  5
2D5
330
2D4
100
AcDbEntity
  8
None
  6
Continuous
 62
     7
370
     9
100
AcDbVertex
100
AcDb2dVertex
 10
-146.6100766807981
 20
203.0579801361423
 30
0.0
  0
VERTEX
  5
2D6
330
2D4
100
AcDbEntity
  8
None
  6
Continuous
 62
     7
370
     9
100
AcDbVertex
100
AcDb2dVertex
 10
41.38992331920239
 20
203.0579801361423
 30
0.0
  0
VERTEX
  5
2D7
330
2D4
100
AcDbEntity
  8
None
  6
Continuous
 62
     7
370
     9
100
AcDbVertex
100
AcDb2dVertex
 10
41.38992331920239
 20
202.5579801361424
 30
0.0
  0
VERTEX
  5
2D8
330
2D4
100
AcDbEntity
  8
None
  6
Continuous
 62
     7
370
     9
100
AcDbVertex
100
AcDb2dVertex
 10
-146.6100766807981
 20
202.5579801361424
 30
0.0
  0
SEQEND
  5
2D9
330
2D4
100
AcDbEntity
  8
None
  6
Continuous
 62
     7
370
     9
  0
ENDBLK
  5
5C
330
5A
100
AcDbEntity
  8
0
100
AcDbBlockEnd
  0
BLOCK
  5
5E
330
5D
100
AcDbEntity
  8
0
100
AcDbBlockBegin
  2
Group-11-1
 70
     0
 10
0.0
 20
0.0
 30
0.0
  3
Group-11-1
  1

  0
WIPEOUT
  5
2DA
330
5D
100
AcDbEntity
  8
None
  6
Continuous
 62
     7
370
     9
 92
      152
310
98000000040000000C0000000E000000B20000000C00000016000000000000C20C00000014000000010000006C0000000700000004000000A000E26FE14C86C08F9128F9DA6169400000000000000000A300E26FE1B480C08F9128F9DA6169400000000000000000A300E26FE1B480C0889128F9DA01694000000000000000
310
00A000E26FE14C86C0889128F9DA0169400000000000000000
100
AcDbWipeout
 90
        0
 10
-713.6100766807976
 20
200.0579801361421
 30
0.0
 11
178.9999999999997
 21
0.0
 31
0.0
 12
0.0
 22
178.9999999999997
 32
0.0
 13
1.0
 23
1.0
340
0
 70
     4
280
     1
281
    50
282
    50
283
     0
360
0
 71
     2
 91
        5
 14
-0.4999999999999996
 24
0.4832402234636863
 14
0.5000000000000004
 24
0.4832402234636863
 14
0.5000000000000004
 24
0.5000000000000002
 14
-0.4999999999999996
 24
0.5000000000000002
 14
-0.4999999999999996
 24
0.4832402234636863
  0
POLYLINE
  5
2DB
330
5D
100
AcDbEntity
  8
None
  6
Continuous
 62
     7
370
     9
100
AcDb2dPolyline
 66
     1
 10
0.0
 20
0.0
 30
0.0
 70
     1
  0
VERTEX
  5
2DC
330
2DB
100
AcDbEntity
  8
None
  6
Continuous
 62
     7
370
     9
100
AcDbVertex
100
AcDb2dVertex
 10
-713.6100766807976
 20
203.0579801361423
 30
0.0
  0
VERTEX
  5
2DD
330
2DB
100
AcDbEntity
  8
None
  6
Continuous
 62
     7
370
     9
100
AcDbVertex
100
AcDb2dVertex
 10
-534.610076680798
 20
203.0579801361423
 30
0.0
  0
VERTEX
  5
2DE
330
2DB
100
AcDbEntity
  8
None
  6
Continuous
 62
     7
370
     9
100
AcDbVertex
100
AcDb2dVertex
 10
-534.610076680798
 20
200.0579801361421
 30
0.0
  0
VERTEX
  5
2DF
330
2DB
100
AcDbEntity
  8
None
  6
Continuous
 62
     7
370
     9
100
AcDbVertex
100
AcDb2dVertex
 10
-713.6100766807976
 20
200.0579801361421
 30
0.0
  0
SEQEND
  5
2E0
330
2DB
100
AcDbEntity
  8
None
  6
Continuous
 62
     7
370
     9
  0
WIPEOUT
  5
2E1
330
5D
100
AcDbEntity
  8
None
  6
Continuous
 62
     7
370
     9
 92
      152
310
98000000040000000C0000000E000000B20000000C00000016000000000000C20C00000014000000010000006C0000000700000004000000A000E26FE14C86C0909128F9DA6169400000000000000000A300E26FE1B480C0909128F9DA6169400000000000000000A300E26FE1B480C0949128F9DA51694000000000000000
310
00A000E26FE14C86C0949128F9DA5169400000000000000000
100
AcDbWipeout
 90
        0
 10
-713.6100766807976
 20
202.5579801361424
 30
0.0
 11
178.9999999999997
 21
0.0
 31
0.0
 12
0.0
 22
178.9999999999997
 32
0.0
 13
1.0
 23
1.0
340
0
 70
     4
280
     1
281
    50
282
    50
283
     0
360
0
 71
     2
 91
        5
 14
-0.4999999999999996
 24
0.4972067039106149
 14
0.5000000000000004
 24
0.4972067039106149
 14
0.5000000000000004
 24
0.4999999999999998
 14
-0.4999999999999996
 24
0.4999999999999998
 14
-0.4999999999999996
 24
0.4972067039106149
  0
POLYLINE
  5
2E2
330
5D
100
AcDbEntity
  8
None
  6
Continuous
 62
     7
370
     9
100
AcDb2dPolyline
 66
     1
 10
0.0
 20
0.0
 30
0.0
 70
     1
  0
VERTEX
  5
2E3
330
2E2
100
AcDbEntity
  8
None
  6
Continuous
 62
     7
370
     9
100
AcDbVertex
100
AcDb2dVertex
 10
-713.6100766807976
 20
203.0579801361423
 30
0.0
  0
VERTEX
  5
2E4
330
2E2
100
AcDbEntity
  8
None
  6
Continuous
 62
     7
370
     9
100
AcDbVertex
100
AcDb2dVertex
 10
-534.610076680798
 20
203.0579801361423
 30
0.0
  0
VERTEX
  5
2E5
330
2E2
100
AcDbEntity
  8
None
  6
Continuous
 62
     7
370
     9
100
AcDbVertex
100
AcDb2dVertex
 10
-534.610076680798
 20
202.5579801361424
 30
0.0
  0
VERTEX
  5
2E6
330
2E2
100
AcDbEntity
  8
None
  6
Continuous
 62
     7
370
     9
100
AcDbVertex
100
AcDb2dVertex
 10
-713.6100766807976
 20
202.5579801361424
 30
0.0
  0
SEQEND
  5
2E7
330
2E2
100
AcDbEntity
  8
None
  6
Continuous
 62
     7
370
     9
  0
ENDBLK
  5
5F
330
5D
100
AcDbEntity
  8
0
100
AcDbBlockEnd
  0
BLOCK
  5
61
330
60
100
AcDbEntity
  8
0
100
AcDbBlockBegin
  2
Group-12-1
 70
     0
 10
0.0
 20
0.0
 30
0.0
  3
Group-12-1
  1

  0
LINE
  5
2E8
330
60
100
AcDbEntity
  8
None
  6
Dash Style-6
 62
     7
370
     9
100
AcDbLine
 10
-532.6100766807973
 20
227.0579801361425
 30
0.0
 11
-532.6100766807973
 21
371.0579801361422
 31
0.0
  0
LINE
  5
2E9
330
60
100
AcDbEntity
  8
None
  6
Dash Style-6
 62
     7
370
     9
100
AcDbLine
 10
-340.6100766807972
 20
227.0579801361425
 30
0.0
 11
-340.6100766807972
 21
371.0579801361422
 31
0.0
  0
LINE
  5
2EA
330
60
100
AcDbEntity
  8
None
  6
Dash Style-6
 62
     7
370
     9
100
AcDbLine
 10
-148.6100766807976
 20
227.0579801361425
 30
0.0
 11
-148.6100766807976
 21
371.0579801361422
 31
0.0
  0
LINE
  5
2EB
330
60
100
AcDbEntity
  8
None
  6
Dash Style-6
 62
     7
370
     9
100
AcDbLine
 10
43.38992331920308
 20
227.0579801361425
 30
0.0
 11
43.38992331920308
 21
371.0579801361422
 31
0.0
  0
LINE
  5
2EC
330
60
100
AcDbEntity
  8
None
  6
Dash Style-6
 62
     7
370
     9
100
AcDbLine
 10
235.389923319203
 20
227.0579801361425
 30
0.0
 11
235.389923319203
 21
371.0579801361422
 31
0.0
  0
LINE
  5
2ED
330
60
100
AcDbEntity
  8
None
  6
Dash Style-6
 62
     7
370
     9
100
AcDbLine
 10
427.3899233192026
 20
227.0579801361425
 30
0.0
 11
427.3899233192026
 21
371.0579801361422
 31
0.0
  0
ENDBLK
  5
62
330
60
100
AcDbEntity
  8
0
100
AcDbBlockEnd
  0
BLOCK
  5
64
330
63
100
AcDbEntity
  8
0
100
AcDbBlockBegin
  2
Group-13-1
 70
     0
 10
0.0
 20
0.0
 30
0.0
  3
Group-13-1
  1

  0
LINE
  5
2EE
330
63
100
AcDbEntity
  8
None
  6
Dash Style-6
 62
     7
370
     9
100
AcDbLine
 10
-532.6100766807973
 20
22.0579801361425
 30
0.0
 11
-532.6100766807973
 21
166.0579801361424
 31
0.0
  0
LINE
  5
2EF
330
63
100
AcDbEntity
  8
None
  6
Dash Style-6
 62
     7
370
     9
100
AcDbLine
 10
-340.6100766807972
 20
22.0579801361425
 30
0.0
 11
-340.6100766807972
 21
166.0579801361424
 31
0.0
  0
LINE
  5
2F0
330
63
100
AcDbEntity
  8
None
  6
Dash Style-6
 62
     7
370
     9
100
AcDbLine
 10
-148.6100766807976
 20
22.0579801361425
 30
0.0
 11
-148.6100766807976
 21
166.0579801361424
 31
0.0
  0
LINE
  5
2F1
330
63
100
AcDbEntity
  8
None
  6
Dash Style-6
 62
     7
370
     9
100
AcDbLine
 10
43.38992331920308
 20
22.0579801361425
 30
0.0
 11
43.38992331920308
 21
166.0579801361424
 31
0.0
  0
LINE
  5
2F2
330
63
100
AcDbEntity
  8
None
  6
Dash Style-6
 62
     7
370
     9
100
AcDbLine
 10
235.389923319203
 20
22.0579801361425
 30
0.0
 11
235.389923319203
 21
166.0579801361424
 31
0.0
  0
LINE
  5
2F3
330
63
100
AcDbEntity
  8
None
  6
Dash Style-6
 62
     7
370
     9
100
AcDbLine
 10
427.3899233192026
 20
22.0579801361425
 30
0.0
 11
427.3899233192026
 21
166.0579801361424
 31
0.0
  0
LINE
  5
2F4
330
63
100
AcDbEntity
  8
None
  6
Dash Style-6
 62
     7
370
     9
100
AcDbLine
 10
-628.6100766807976
 20
22.0579801361425
 30
0.0
 11
-628.6100766807976
 21
166.0579801361424
 31
0.0
  0
LINE
  5
2F5
330
63
100
AcDbEntity
  8
None
  6
Dash Style-6
 62
     7
370
     9
100
AcDbLine
 10
-436.6100766807975
 20
22.0579801361425
 30
0.0
 11
-436.6100766807975
 21
166.0579801361424
 31
0.0
  0
LINE
  5
2F6
330
63
100
AcDbEntity
  8
None
  6
Dash Style-6
 62
     7
370
     9
100
AcDbLine
 10
-244.6100766807974
 20
22.0579801361425
 30
0.0
 11
-244.6100766807974
 21
166.0579801361424
 31
0.0
  0
LINE
  5
2F7
330
63
100
AcDbEntity
  8
None
  6
Dash Style-6
 62
     7
370
     9
100
AcDbLine
 10
-52.61007668079696
 20
22.0579801361425
 30
0.0
 11
-52.61007668079696
 21
166.0579801361424
 31
0.0
  0
LINE
  5
2F8
330
63
100
AcDbEntity
  8
None
  6
Dash Style-6
 62
     7
370
     9
100
AcDbLine
 10
139.3899233192025
 20
22.0579801361425
 30
0.0
 11
139.3899233192025
 21
166.0579801361424
 31
0.0
  0
LINE
  5
2F9
330
63
100
AcDbEntity
  8
None
  6
Dash Style-6
 62
     7
370
     9
100
AcDbLine
 10
331.3899233192028
 20
22.0579801361425
 30
0.0
 11
331.3899233192028
 21
166.0579801361424
 31
0.0
  0
LINE
  5
2FA
330
63
100
AcDbEntity
  8
None
  6
Dash Style-6
 62
     7
370
     9
100
AcDbLine
 10
523.389923319203
 20
22.0579801361425
 30
0.0
 11
523.389923319203
 21
166.0579801361424
 31
0.0
  0
ENDBLK
  5
65
330
63
100
AcDbEntity
  8
0
100
AcDbBlockEnd
  0
BLOCK
  5
67
330
66
100
AcDbEntity
  8
0
100
AcDbBlockBegin
  2
Group-14-1
 70
     0
 10
0.0
 20
0.0
 30
0.0
  3
Group-14-1
  1

  0
WIPEOUT
  5
2FB
330
66
100
AcDbEntity
  8
None
  6
Continuous
 62
     7
370
     9
 92
      152
310
98000000040000000C0000000E000000B20000000C00000016000000000000C20C00000014000000010000006C0000000700000004000000B20920FE164E43C068244ABE767882400000000000000000B42680F85B3821C068244ABE767882400000000000000000B42680F85B3821C068244ABE7688814000000000000000
310
00B20920FE164E43C068244ABE768881400000000000000000
100
AcDbWipeout
 90
        0
 10
-38.6100766807971
 20
561.0579801361428
 30
0.0
 11
30.00000000000004
 21
0.0
 31
0.0
 12
0.0
 22
30.00000000000004
 32
0.0
 13
1.0
 23
1.0
340
0
 70
     4
280
     1
281
    50
282
    50
283
     0
360
0
 71
     2
 91
        5
 14
-0.4999999999999999
 24
-0.5
 14
0.5
 24
-0.5
 14
0.5
 24
0.5
 14
-0.4999999999999999
 24
0.5
 14
-0.4999999999999999
 24
-0.5
  0
POLYLINE
  5
2FC
330
66
100
AcDbEntity
  8
None
  6
Continuous
 62
     7
370
     9
100
AcDb2dPolyline
 66
     1
 10
0.0
 20
0.0
 30
0.0
 70
     1
  0
VERTEX
  5
2FD
330
2FC
100
AcDbEntity
  8
None
  6
Continuous
 62
     7
370
     9
100
AcDbVertex
100
AcDb2dVertex
 10
-38.6100766807971
 20
591.0579801361428
 30
0.0
  0
VERTEX
  5
2FE
330
2FC
100
AcDbEntity
  8
None
  6
Continuous
 62
     7
370
     9
100
AcDbVertex
100
AcDb2dVertex
 10
-8.610076680797057
 20
591.0579801361428
 30
0.0
  0
VERTEX
  5
2FF
330
2FC
100
AcDbEntity
  8
None
  6
Continuous
 62
     7
370
     9
100
AcDbVertex
100
AcDb2dVertex
 10
-8.610076680797057
 20
561.0579801361428
 30
0.0
  0
VERTEX
  5
300
330
2FC
100
AcDbEntity
  8
None
  6
Continuous
 62
     7
370
     9
100
AcDbVertex
100
AcDb2dVertex
 10
-38.6100766807971
 20
561.0579801361428
 30
0.0
  0
SEQEND
  5
301
330
2FC
100
AcDbEntity
  8
None
  6
Continuous
 62
     7
370
     9
  0
WIPEOUT
  5
302
330
66
100
AcDbEntity
  8
None
  6
Continuous
 62
     7
370
     9
 92
      152
310
98000000040000000C0000000E000000B20000000C00000016000000000000C20C00000014000000010000006C0000000700000004000000B42680F85B3821C063244ABE766082400000000000000000624B00F1B77016C063244ABE766082400000000000000000624B00F1B77016C061244ABE76A0814000000000000000
310
00B42680F85B3821C061244ABE76A081400000000000000000
100
AcDbWipeout
 90
        0
 10
-8.610076680797057
 20
564.0579801361421
 30
0.0
 11
24.00000000000023
 21
0.0
 31
0.0
 12
0.0
 22
24.00000000000023
 32
0.0
 13
1.0
 23
1.0
340
0
 70
     4
280
     1
281
    50
282
    50
283
     0
360
0
 71
     2
 91
        5
 14
-0.5
 24
-0.4999999999999964
 14
-0.374999999999982
 24
-0.4999999999999964
 14
-0.374999999999982
 24
0.5000000000000036
 14
-0.5
 24
0.5000000000000036
 14
-0.5
 24
-0.4999999999999964
  0
POLYLINE
  5
303
330
66
100
AcDbEntity
  8
None
  6
Continuous
 62
     7
370
     9
100
AcDb2dPolyline
 66
     1
 10
0.0
 20
0.0
 30
0.0
 70
     1
  0
VERTEX
  5
304
330
303
100
AcDbEntity
  8
None
  6
Continuous
 62
     7
370
     9
100
AcDbVertex
100
AcDb2dVertex
 10
-8.610076680797057
 20
588.0579801361423
 30
0.0
  0
VERTEX
  5
305
330
303
100
AcDbEntity
  8
None
  6
Continuous
 62
     7
370
     9
100
AcDbVertex
100
AcDb2dVertex
 10
-5.610076680796598
 20
588.0579801361423
 30
0.0
  0
VERTEX
  5
306
330
303
100
AcDbEntity
  8
None
  6
Continuous
 62
     7
370
     9
100
AcDbVertex
100
AcDb2dVertex
 10
-5.610076680796598
 20
564.0579801361421
 30
0.0
  0
VERTEX
  5
307
330
303
100
AcDbEntity
  8
None
  6
Continuous
 62
     7
370
     9
100
AcDbVertex
100
AcDb2dVertex
 10
-8.610076680797057
 20
564.0579801361421
 30
0.0
  0
SEQEND
  5
308
330
303
100
AcDbEntity
  8
None
  6
Continuous
 62
     7
370
     9
  0
WIPEOUT
  5
309
330
66
100
AcDbEntity
  8
None
  6
Continuous
 62
     7
370
     9
 92
      152
310
98000000040000000C0000000E000000B20000000C00000016000000000000C20C00000014000000010000006C00000007000000040000006D0920FE16CE41C068244ABE768881400000000000000000712680F85B3827C068244ABE768881400000000000000000712680F85B3827C06A244ABE7670814000000000000000
310
006D0920FE16CE41C06A244ABE767081400000000000000000
100
AcDbWipeout
 90
        0
 10
-35.6100766807966
 20
558.0579801361429
 30
0.0
 11
23.99999999999966
 21
0.0
 31
0.0
 12
0.0
 22
23.99999999999966
 32
0.0
 13
1.0
 23
1.0
340
0
 70
     4
280
     1
281
    50
282
    50
283
     0
360
0
 71
     2
 91
        5
 14
-0.5
 24
0.3750000000000036
 14
0.5000000000000002
 24
0.3750000000000036
 14
0.5000000000000002
 24
0.5
 14
-0.5
 24
0.5
 14
-0.5
 24
0.3750000000000036
  0
POLYLINE
  5
30A
330
66
100
AcDbEntity
  8
None
  6
Continuous
 62
     7
370
     9
100
AcDb2dPolyline
 66
     1
 10
0.0
 20
0.0
 30
0.0
 70
     1
  0
VERTEX
  5
30B
330
30A
100
AcDbEntity
  8
None
  6
Continuous
 62
     7
370
     9
100
AcDbVertex
100
AcDb2dVertex
 10
-35.6100766807966
 20
561.0579801361428
 30
0.0
  0
VERTEX
  5
30C
330
30A
100
AcDbEntity
  8
None
  6
Continuous
 62
     7
370
     9
100
AcDbVertex
100
AcDb2dVertex
 10
-11.61007668079694
 20
561.0579801361428
 30
0.0
  0
VERTEX
  5
30D
330
30A
100
AcDbEntity
  8
None
  6
Continuous
 62
     7
370
     9
100
AcDbVertex
100
AcDb2dVertex
 10
-11.61007668079694
 20
558.0579801361429
 30
0.0
  0
VERTEX
  5
30E
330
30A
100
AcDbEntity
  8
None
  6
Continuous
 62
     7
370
     9
100
AcDbVertex
100
AcDb2dVertex
 10
-35.6100766807966
 20
558.0579801361429
 30
0.0
  0
SEQEND
  5
30F
330
30A
100
AcDbEntity
  8
None
  6
Continuous
 62
     7
370
     9
  0
ENDBLK
  5
68
330
66
100
AcDbEntity
  8
0
100
AcDbBlockEnd
  0
BLOCK
  5
6A
330
69
100
AcDbEntity
  8
0
100
AcDbBlockBegin
  2
Group-15-1
 70
     0
 10
0.0
 20
0.0
 30
0.0
  3
Group-15-1
  1

  0
WIPEOUT
  5
310
330
69
100
AcDbEntity
  8
None
  6
Continuous
 62
     7
370
     9
 92
      152
310
98000000040000000C0000000E000000B20000000C00000016000000000000C20C00000014000000010000006C00000007000000040000003E01C4DFC22978C067244ABE7678824000000000000000003E01C4DFC24976C067244ABE7678824000000000000000003E01C4DFC24976C067244ABE7688814000000000000000
310
003E01C4DFC22978C067244ABE768881400000000000000000
100
AcDbWipeout
 90
        0
 10
-386.6100766807975
 20
561.0579801361428
 30
0.0
 11
30.0
 21
0.0
 31
0.0
 12
0.0
 22
30.0
 32
0.0
 13
1.0
 23
1.0
340
0
 70
     4
280
     1
281
    50
282
    50
283
     0
360
0
 71
     2
 91
        5
 14
-0.5
 24
-0.4999999999999964
 14
0.5
 24
-0.4999999999999964
 14
0.5
 24
0.5000000000000036
 14
-0.5
 24
0.5000000000000036
 14
-0.5
 24
-0.4999999999999964
  0
POLYLINE
  5
311
330
69
100
AcDbEntity
  8
None
  6
Continuous
 62
     7
370
     9
100
AcDb2dPolyline
 66
     1
 10
0.0
 20
0.0
 30
0.0
 70
     1
  0
VERTEX
  5
312
330
311
100
AcDbEntity
  8
None
  6
Continuous
 62
     7
370
     9
100
AcDbVertex
100
AcDb2dVertex
 10
-386.6100766807975
 20
591.0579801361428
 30
0.0
  0
VERTEX
  5
313
330
311
100
AcDbEntity
  8
None
  6
Continuous
 62
     7
370
     9
100
AcDbVertex
100
AcDb2dVertex
 10
-356.6100766807975
 20
591.0579801361428
 30
0.0
  0
VERTEX
  5
314
330
311
100
AcDbEntity
  8
None
  6
Continuous
 62
     7
370
     9
100
AcDbVertex
100
AcDb2dVertex
 10
-356.6100766807975
 20
561.0579801361428
 30
0.0
  0
VERTEX
  5
315
330
311
100
AcDbEntity
  8
None
  6
Continuous
 62
     7
370
     9
100
AcDbVertex
100
AcDb2dVertex
 10
-386.6100766807975
 20
561.0579801361428
 30
0.0
  0
SEQEND
  5
316
330
311
100
AcDbEntity
  8
None
  6
Continuous
 62
     7
370
     9
  0
WIPEOUT
  5
317
330
69
100
AcDbEntity
  8
None
  6
Continuous
 62
     7
370
     9
 92
      152
310
98000000040000000C0000000E000000B20000000C00000016000000000000C20C00000014000000010000006C00000007000000040000004701C4DFC25978C063244ABE7660824000000000000000004801C4DFC22978C063244ABE7660824000000000000000004801C4DFC22978C061244ABE76A0814000000000000000
310
004701C4DFC25978C061244ABE76A081400000000000000000
100
AcDbWipeout
 90
        0
 10
-389.610076680798
 20
564.0579801361421
 30
0.0
 11
24.00000000000023
 21
0.0
 31
0.0
 12
0.0
 22
24.00000000000023
 32
0.0
 13
1.0
 23
1.0
340
0
 70
     4
280
     1
281
    50
282
    50
283
     0
360
0
 71
     2
 91
        5
 14
-0.5000000000000018
 24
-0.4999999999999964
 14
-0.3750000000000053
 24
-0.4999999999999964
 14
-0.3750000000000053
 24
0.5000000000000036
 14
-0.5000000000000018
 24
0.5000000000000036
 14
-0.5000000000000018
 24
-0.4999999999999964
  0
POLYLINE
  5
318
330
69
100
AcDbEntity
  8
None
  6
Continuous
 62
     7
370
     9
100
AcDb2dPolyline
 66
     1
 10
0.0
 20
0.0
 30
0.0
 70
     1
  0
VERTEX
  5
319
330
318
100
AcDbEntity
  8
None
  6
Continuous
 62
     7
370
     9
100
AcDbVertex
100
AcDb2dVertex
 10
-389.610076680798
 20
588.0579801361423
 30
0.0
  0
VERTEX
  5
31A
330
318
100
AcDbEntity
  8
None
  6
Continuous
 62
     7
370
     9
100
AcDbVertex
100
AcDb2dVertex
 10
-386.6100766807981
 20
588.0579801361423
 30
0.0
  0
VERTEX
  5
31B
330
318
100
AcDbEntity
  8
None
  6
Continuous
 62
     7
370
     9
100
AcDbVertex
100
AcDb2dVertex
 10
-386.6100766807981
 20
564.0579801361421
 30
0.0
  0
VERTEX
  5
31C
330
318
100
AcDbEntity
  8
None
  6
Continuous
 62
     7
370
     9
100
AcDbVertex
100
AcDb2dVertex
 10
-389.610076680798
 20
564.0579801361421
 30
0.0
  0
SEQEND
  5
31D
330
318
100
AcDbEntity
  8
None
  6
Continuous
 62
     7
370
     9
  0
WIPEOUT
  5
31E
330
69
100
AcDbEntity
  8
None
  6
Continuous
 62
     7
370
     9
 92
      152
310
98000000040000000C0000000E000000B20000000C00000016000000000000C20C00000014000000010000006C00000007000000040000004001C4DFC2F977C068244ABE7688814000000000000000003C01C4DFC27976C068244ABE7688814000000000000000003C01C4DFC27976C069244ABE7670814000000000000000
310
004001C4DFC2F977C069244ABE767081400000000000000000
100
AcDbWipeout
 90
        0
 10
-383.6100766807976
 20
558.0579801361429
 30
0.0
 11
24.00000000000023
 21
0.0
 31
0.0
 12
0.0
 22
24.00000000000023
 32
0.0
 13
1.0
 23
1.0
340
0
 70
     4
280
     1
281
    50
282
    50
283
     0
360
0
 71
     2
 91
        5
 14
-0.5
 24
0.3750000000000071
 14
0.5
 24
0.3750000000000071
 14
0.5
 24
0.5
 14
-0.5
 24
0.5
 14
-0.5
 24
0.3750000000000071
  0
POLYLINE
  5
31F
330
69
100
AcDbEntity
  8
None
  6
Continuous
 62
     7
370
     9
100
AcDb2dPolyline
 66
     1
 10
0.0
 20
0.0
 30
0.0
 70
     1
  0
VERTEX
  5
320
330
31F
100
AcDbEntity
  8
None
  6
Continuous
 62
     7
370
     9
100
AcDbVertex
100
AcDb2dVertex
 10
-383.6100766807976
 20
561.0579801361428
 30
0.0
  0
VERTEX
  5
321
330
31F
100
AcDbEntity
  8
None
  6
Continuous
 62
     7
370
     9
100
AcDbVertex
100
AcDb2dVertex
 10
-359.6100766807974
 20
561.0579801361428
 30
0.0
  0
VERTEX
  5
322
330
31F
100
AcDbEntity
  8
None
  6
Continuous
 62
     7
370
     9
100
AcDbVertex
100
AcDb2dVertex
 10
-359.6100766807974
 20
558.0579801361429
 30
0.0
  0
VERTEX
  5
323
330
31F
100
AcDbEntity
  8
None
  6
Continuous
 62
     7
370
     9
100
AcDbVertex
100
AcDb2dVertex
 10
-383.6100766807976
 20
558.0579801361429
 30
0.0
  0
SEQEND
  5
324
330
31F
100
AcDbEntity
  8
None
  6
Continuous
 62
     7
370
     9
  0
ENDBLK
  5
6B
330
69
100
AcDbEntity
  8
0
100
AcDbBlockEnd
  0
BLOCK
  5
6D
330
6C
100
AcDbEntity
  8
0
100
AcDbBlockBegin
  2
Group-16-1
 70
     0
 10
0.0
 20
0.0
 30
0.0
  3
Group-16-1
  1

  0
SPLINE
  5
325
330
6C
100
AcDbEntity
  8
Layer0
  6
Continuous
 62
     7
370
     9
100
AcDbSpline
210
0.0
220
0.0
230
1.0
 70
    11
 71
     2
 72
    17
 73
    14
 74
     0
 42
0.000000001
 43
0.0000000000001
 40
0.0
 40
0.0
 40
0.0
 40
1.0
 40
2.0
 40
3.0
 40
4.0
 40
5.0
 40
6.0
 40
7.0
 40
8.0
 40
9.0
 40
10.0
 40
11.0
 40
12.0
 40
12.0
 40
12.0
 10
-704.2258548564922
 20
561.1310634523062
 30
0.0
 10
-704.5771225927558
 20
561.1310634523062
 30
0.0
 10
-705.1855361590234
 20
560.7797957160413
 30
0.0
 10
-705.536803895287
 20
560.1713821497721
 30
0.0
 10
-705.536803895287
 20
559.4688466772432
 30
0.0
 10
-705.1855361590234
 20
558.8604331109739
 30
0.0
 10
-704.5771225927558
 20
558.5091653747096
 30
0.0
 10
-703.8745871202285
 20
558.5091653747096
 30
0.0
 10
-703.2661735539604
 20
558.8604331109739
 30
0.0
 10
-702.9149058176973
 20
559.4688466772432
 30
0.0
 10
-702.9149058176973
 20
560.1713821497721
 30
0.0
 10
-703.2661735539604
 20
560.7797957160413
 30
0.0
 10
-703.8745871202285
 20
561.1310634523062
 30
0.0
 10
-704.2258548564922
 20
561.1310634523062
 30
0.0
  0
LINE
  5
326
330
6C
100
AcDbEntity
  8
Layer0
  6
Continuous
 62
     7
370
     9
100
AcDbLine
 10
-711.2186473181788
 20
572.0579801361425
 30
0.0
 11
-711.2186473181788
 21
547.5822486908727
 31
0.0
  0
LINE
  5
327
330
6C
100
AcDbEntity
  8
Layer0
  6
Continuous
 62
     7
370
     9
100
AcDbLine
 10
-711.2186473181788
 20
572.0579801361425
 30
0.0
 11
-688.491273626611
 21
572.0579801361425
 31
0.0
  0
LINE
  5
328
330
6C
100
AcDbEntity
  8
Layer0
  6
Continuous
 62
     7
370
     9
100
AcDbLine
 10
-688.491273626611
 20
572.0579801361425
 30
0.0
 11
-688.491273626611
 21
547.5822486908727
 31
0.0
  0
LINE
  5
329
330
6C
100
AcDbEntity
  8
Layer0
  6
Continuous
 62
     7
370
     9
100
AcDbLine
 10
-706.8477529340819
 20
550.2047853213376
 30
0.0
 11
-691.113810257069
 21
550.2047853213376
 31
0.0
  0
LINE
  5
32A
330
6C
100
AcDbEntity
  8
Layer0
  6
Continuous
 62
     7
370
     9
100
AcDbLine
 10
-691.113810257069
 20
550.2047853213376
 30
0.0
 11
-691.113810257069
 21
569.4354435056777
 31
0.0
  0
LINE
  5
32B
330
6C
100
AcDbEntity
  8
Layer0
  6
Continuous
 62
     7
370
     9
100
AcDbLine
 10
-691.113810257069
 20
569.4354435056777
 30
0.0
 11
-706.8477529340819
 21
569.4354435056777
 31
0.0
  0
LINE
  5
32C
330
6C
100
AcDbEntity
  8
Layer0
  6
Continuous
 62
     7
370
     9
100
AcDbLine
 10
-706.8477529340819
 20
569.4354435056777
 30
0.0
 11
-706.8477529340819
 21
550.2047853213376
 31
0.0
  0
LINE
  5
32D
330
6C
100
AcDbEntity
  8
Layer0
  6
Continuous
 62
     7
370
     9
100
AcDbLine
 10
-711.2186473181788
 20
547.5822486908727
 30
0.0
 11
-688.491273626611
 21
547.5822486908727
 31
0.0
  0
ENDBLK
  5
6E
330
6C
100
AcDbEntity
  8
0
100
AcDbBlockEnd
  0
BLOCK
  5
70
330
6F
100
AcDbEntity
  8
0
100
AcDbBlockBegin
  2
Group-17-1
 70
     0
 10
0.0
 20
0.0
 30
0.0
  3
Group-17-1
  1

  0
WIPEOUT
  5
32E
330
6F
100
AcDbEntity
  8
None
  6
Continuous
 62
     7
370
     9
 92
      152
310
98000000040000000C0000000E000000B20000000C00000016000000000000C20C00000014000000010000006C00000007000000040000009E00E26FE1FC89C0919128F9DAA167400000000000000000A200E26FE11C8BC0919128F9DAA167400000000000000000A200E26FE11C8BC0959128F9DAE1674000000000000000
310
009E00E26FE1FC89C0959128F9DAE167400000000000000000
100
AcDbWipeout
 90
        0
 10
-867.6100766807979
 20
189.0579801361423
 30
0.0
 11
36.00000000000034
 21
0.0
 31
0.0
 12
0.0
 22
36.00000000000034
 32
0.0
 13
1.0
 23
1.0
340
0
 70
     4
280
     1
281
    50
282
    50
283
     0
360
0
 71
     2
 91
        5
 14
0.5
 24
0.5
 14
-0.5
 24
0.5
 14
-0.5
 24
0.444444444444442
 14
0.5
 24
0.444444444444442
 14
0.5
 24
0.5
  0
POLYLINE
  5
32F
330
6F
100
AcDbEntity
  8
None
  6
Continuous
 62
     7
370
     9
100
AcDb2dPolyline
 66
     1
 10
0.0
 20
0.0
 30
0.0
 70
     1
  0
VERTEX
  5
330
330
32F
100
AcDbEntity
  8
None
  6
Continuous
 62
     7
370
     9
100
AcDbVertex
100
AcDb2dVertex
 10
-831.6100766807975
 20
189.0579801361423
 30
0.0
  0
VERTEX
  5
331
330
32F
100
AcDbEntity
  8
None
  6
Continuous
 62
     7
370
     9
100
AcDbVertex
100
AcDb2dVertex
 10
-867.6100766807979
 20
189.0579801361423
 30
0.0
  0
VERTEX
  5
332
330
32F
100
AcDbEntity
  8
None
  6
Continuous
 62
     7
370
     9
100
AcDbVertex
100
AcDb2dVertex
 10
-867.6100766807979
 20
191.0579801361424
 30
0.0
  0
VERTEX
  5
333
330
32F
100
AcDbEntity
  8
None
  6
Continuous
 62
     7
370
     9
100
AcDbVertex
100
AcDb2dVertex
 10
-831.6100766807975
 20
191.0579801361424
 30
0.0
  0
SEQEND
  5
334
330
32F
100
AcDbEntity
  8
None
  6
Continuous
 62
     7
370
     9
  0
POLYLINE
  5
335
102
{ACAD_REACTORS
330
351
102
}
330
6F
100
AcDbEntity
  8
None
  6
Continuous
 62
     7
370
    15
100
AcDb2dPolyline
 66
     1
 10
0.0
 20
0.0
 30
0.0
 70
     1
  0
VERTEX
  5
336
330
335
100
AcDbEntity
  8
None
  6
Continuous
 62
     7
370
    15
100
AcDbVertex
100
AcDb2dVertex
 10
-313.6100766807976
 20
635.0579801361424
 30
0.0
  0
VERTEX
  5
337
330
335
100
AcDbEntity
  8
None
  6
Continuous
 62
     7
370
    15
100
AcDbVertex
100
AcDb2dVertex
 10
-317.6100766807979
 20
635.0579801361424
 30
0.0
  0
VERTEX
  5
338
330
335
100
AcDbEntity
  8
None
  6
Continuous
 62
     7
370
    15
100
AcDbVertex
100
AcDb2dVertex
 10
-317.6100766807979
 20
640.0579801361424
 30
0.0
  0
VERTEX
  5
339
330
335
100
AcDbEntity
  8
None
  6
Continuous
 62
     7
370
    15
100
AcDbVertex
100
AcDb2dVertex
 10
-313.6100766807976
 20
640.0579801361424
 30
0.0
  0
VERTEX
  5
33A
330
335
100
AcDbEntity
  8
None
  6
Continuous
 62
     7
370
    15
100
AcDbVertex
100
AcDb2dVertex
 10
-313.6100766807976
 20
649.0579801361422
 30
0.0
  0
VERTEX
  5
33B
330
335
100
AcDbEntity
  8
None
  6
Continuous
 62
     7
370
    15
100
AcDbVertex
100
AcDb2dVertex
 10
-514.4957909665126
 20
649.0579801361422
 30
0.0
  0
VERTEX
  5
33C
330
335
100
AcDbEntity
  8
None
  6
Continuous
 62
     7
370
    15
100
AcDbVertex
100
AcDb2dVertex
 10
-702.7915623950838
 20
649.0579801361422
 30
0.0
  0
VERTEX
  5
33D
330
335
100
AcDbEntity
  8
None
  6
Continuous
 62
     7
370
    15
100
AcDbVertex
100
AcDb2dVertex
 10
-890.6100766807978
 20
649.0579801361422
 30
0.0
  0
VERTEX
  5
33E
330
335
100
AcDbEntity
  8
None
  6
Continuous
 62
     7
370
    15
100
AcDbVertex
100
AcDb2dVertex
 10
-890.6100766807978
 20
581.0579801361422
 30
0.0
  0
VERTEX
  5
33F
330
335
100
AcDbEntity
  8
None
  6
Continuous
 62
     7
370
    15
100
AcDbVertex
100
AcDb2dVertex
 10
-831.6100766807975
 20
581.0579801361422
 30
0.0
  0
VERTEX
  5
340
330
335
100
AcDbEntity
  8
None
  6
Continuous
 62
     7
370
    15
100
AcDbVertex
100
AcDb2dVertex
 10
-831.6100766807975
 20
191.0579801361424
 30
0.0
  0
VERTEX
  5
341
330
335
100
AcDbEntity
  8
None
  6
Continuous
 62
     7
370
    15
100
AcDbVertex
100
AcDb2dVertex
 10
-814.610076680798
 20
191.0579801361424
 30
0.0
  0
VERTEX
  5
342
330
335
100
AcDbEntity
  8
None
  6
Continuous
 62
     7
370
    15
100
AcDbVertex
100
AcDb2dVertex
 10
-814.610076680798
 20
622.0579801361425
 30
0.0
  0
VERTEX
  5
343
330
335
100
AcDbEntity
  8
None
  6
Continuous
 62
     7
370
    15
100
AcDbVertex
100
AcDb2dVertex
 10
-730.6100766807978
 20
622.0579801361425
 30
0.0
  0
VERTEX
  5
344
330
335
100
AcDbEntity
  8
None
  6
Continuous
 62
     7
370
    15
100
AcDbVertex
100
AcDb2dVertex
 10
-730.6100766807978
 20
-529.9420198638571
 30
0.0
  0
VERTEX
  5
345
330
335
100
AcDbEntity
  8
None
  6
Continuous
 62
     7
370
    15
100
AcDbVertex
100
AcDb2dVertex
 10
-713.6100766807976
 20
-529.9420198638571
 30
0.0
  0
VERTEX
  5
346
330
335
100
AcDbEntity
  8
None
  6
Continuous
 62
     7
370
    15
100
AcDbVertex
100
AcDb2dVertex
 10
-713.6100766807976
 20
622.0579801361425
 30
0.0
  0
VERTEX
  5
347
330
335
100
AcDbEntity
  8
None
  6
Continuous
 62
     7
370
    15
100
AcDbVertex
100
AcDb2dVertex
 10
-702.7915623950838
 20
622.057980136142
 30
0.0
  0
VERTEX
  5
348
330
335
100
AcDbEntity
  8
None
  6
Continuous
 62
     7
370
    15
100
AcDbVertex
100
AcDb2dVertex
 10
-514.4957909665126
 20
622.0579801361425
 30
0.0
  0
VERTEX
  5
349
330
335
100
AcDbEntity
  8
None
  6
Continuous
 62
     7
370
    15
100
AcDbVertex
100
AcDb2dVertex
 10
-356.6100766807975
 20
622.0579801361425
 30
0.0
  0
VERTEX
  5
34A
330
335
100
AcDbEntity
  8
None
  6
Continuous
 62
     7
370
    15
100
AcDbVertex
100
AcDb2dVertex
 10
-356.6100766807975
 20
535.0579801361424
 30
0.0
  0
VERTEX
  5
34B
330
335
100
AcDbEntity
  8
None
  6
Continuous
 62
     7
370
    15
100
AcDbVertex
100
AcDb2dVertex
 10
-313.6100766807976
 20
535.0579801361424
 30
0.0
  0
VERTEX
  5
34C
330
335
100
AcDbEntity
  8
None
  6
Continuous
 62
     7
370
    15
100
AcDbVertex
100
AcDb2dVertex
 10
-313.6100766807976
 20
552.0579801361425
 30
0.0
  0
VERTEX
  5
34D
330
335
100
AcDbEntity
  8
None
  6
Continuous
 62
     7
370
    15
100
AcDbVertex
100
AcDb2dVertex
 10
-337.6100766807979
 20
552.0579801361425
 30
0.0
  0
VERTEX
  5
34E
330
335
100
AcDbEntity
  8
None
  6
Continuous
 62
     7
370
    15
100
AcDbVertex
100
AcDb2dVertex
 10
-337.6100766807979
 20
622.0579801361425
 30
0.0
  0
VERTEX
  5
34F
330
335
100
AcDbEntity
  8
None
  6
Continuous
 62
     7
370
    15
100
AcDbVertex
100
AcDb2dVertex
 10
-313.6100766807976
 20
622.0579801361425
 30
0.0
  0
SEQEND
  5
350
330
335
100
AcDbEntity
  8
None
  6
Continuous
 62
     7
370
    15
  0
HATCH
  5
351
330
6F
100
AcDbEntity
  8
None
  6
Continuous
 62
     7
370
     0
100
AcDbHatch
 10
0.0
 20
0.0
 30
0.0
210
0.0
220
0.0
230
1.0
  2
SOLID
 70
     1
 71
     1
 91
        1
 92
        1
 93
       26
 72
     1
 10
-313.6100766807976
 20
635.0579801361424
 11
-317.6100766807979
 21
635.0579801361424
 72
     1
 10
-317.6100766807979
 20
635.0579801361424
 11
-317.6100766807979
 21
640.0579801361424
 72
     1
 10
-317.6100766807979
 20
640.0579801361424
 11
-313.6100766807976
 21
640.0579801361424
 72
     1
 10
-313.6100766807976
 20
640.0579801361424
 11
-313.6100766807976
 21
649.0579801361422
 72
     1
 10
-313.6100766807976
 20
649.0579801361422
 11
-514.4957909665126
 21
649.0579801361422
 72
     1
 10
-514.4957909665126
 20
649.0579801361422
 11
-702.7915623950838
 21
649.0579801361422
 72
     1
 10
-702.7915623950838
 20
649.0579801361422
 11
-890.6100766807978
 21
649.0579801361422
 72
     1
 10
-890.6100766807978
 20
649.0579801361422
 11
-890.6100766807978
 21
581.0579801361422
 72
     1
 10
-890.6100766807978
 20
581.0579801361422
 11
-831.6100766807975
 21
581.0579801361422
 72
     1
 10
-831.6100766807975
 20
581.0579801361422
 11
-831.6100766807975
 21
191.0579801361424
 72
     1
 10
-831.6100766807975
 20
191.0579801361424
 11
-814.610076680798
 21
191.0579801361424
 72
     1
 10
-814.610076680798
 20
191.0579801361424
 11
-814.610076680798
 21
622.0579801361425
 72
     1
 10
-814.610076680798
 20
622.0579801361425
 11
-730.6100766807978
 21
622.0579801361425
 72
     1
 10
-730.6100766807978
 20
622.0579801361425
 11
-730.6100766807978
 21
-529.942019863857
 72
     1
 10
-730.6100766807978
 20
-529.9420198638571
 11
-713.6100766807976
 21
-529.9420198638571
 72
     1
 10
-713.6100766807976
 20
-529.9420198638571
 11
-713.6100766807976
 21
622.0579801361424
 72
     1
 10
-713.6100766807976
 20
622.0579801361425
 11
-702.7915623950838
 21
622.057980136142
 72
     1
 10
-702.7915623950838
 20
622.057980136142
 11
-514.4957909665126
 21
622.0579801361425
 72
     1
 10
-514.4957909665126
 20
622.0579801361425
 11
-356.6100766807975
 21
622.0579801361425
 72
     1
 10
-356.6100766807975
 20
622.0579801361425
 11
-356.6100766807975
 21
535.0579801361424
 72
     1
 10
-356.6100766807975
 20
535.0579801361424
 11
-313.6100766807976
 21
535.0579801361424
 72
     1
 10
-313.6100766807976
 20
535.0579801361424
 11
-313.6100766807976
 21
552.0579801361425
 72
     1
 10
-313.6100766807976
 20
552.0579801361425
 11
-337.6100766807979
 21
552.0579801361425
 72
     1
 10
-337.6100766807979
 20
552.0579801361425
 11
-337.6100766807979
 21
622.0579801361425
 72
     1
 10
-337.6100766807979
 20
622.0579801361425
 11
-313.6100766807976
 21
622.0579801361425
 72
     1
 10
-313.6100766807976
 20
622.0579801361425
 11
-313.6100766807976
 21
635.0579801361424
 97
        1
330
335
 75
     0
 76
     1
 98
        1
 10
0.0
 20
0.0
  0
POLYLINE
  5
352
102
{ACAD_REACTORS
330
369
102
}
330
6F
100
AcDbEntity
  8
None
  6
Continuous
 62
     7
370
    15
100
AcDb2dPolyline
 66
     1
 10
0.0
 20
0.0
 30
0.0
 70
     1
  0
VERTEX
  5
353
330
352
100
AcDbEntity
  8
None
  6
Continuous
 62
     7
370
    15
100
AcDbVertex
100
AcDb2dVertex
 10
-831.6100766807975
 20
-583.9420198638579
 30
0.0
  0
VERTEX
  5
354
330
352
100
AcDbEntity
  8
None
  6
Continuous
 62
     7
370
    15
100
AcDbVertex
100
AcDb2dVertex
 10
-890.6100766807978
 20
-583.9420198638579
 30
0.0
  0
VERTEX
  5
355
330
352
100
AcDbEntity
  8
None
  6
Continuous
 62
     7
370
    15
100
AcDbVertex
100
AcDb2dVertex
 10
-890.6100766807978
 20
-610.9420198638575
 30
0.0
  0
VERTEX
  5
356
330
352
100
AcDbEntity
  8
None
  6
Continuous
 62
     7
370
    15
100
AcDbVertex
100
AcDb2dVertex
 10
-151.6100766807975
 20
-610.9420198638575
 30
0.0
  0
VERTEX
  5
357
330
352
100
AcDbEntity
  8
None
  6
Continuous
 62
     7
370
    15
100
AcDbVertex
100
AcDb2dVertex
 10
-151.6100766807975
 20
-665.9420198638574
 30
0.0
  0
VERTEX
  5
358
330
352
100
AcDbEntity
  8
None
  6
Continuous
 62
     7
370
    15
100
AcDbVertex
100
AcDb2dVertex
 10
-117.6100766807979
 20
-665.9420198638574
 30
0.0
  0
VERTEX
  5
359
330
352
100
AcDbEntity
  8
None
  6
Continuous
 62
     7
370
    15
100
AcDbVertex
100
AcDb2dVertex
 10
-117.6100766807979
 20
-648.9420198638578
 30
0.0
  0
VERTEX
  5
35A
330
352
100
AcDbEntity
  8
None
  6
Continuous
 62
     7
370
    15
100
AcDbVertex
100
AcDb2dVertex
 10
-135.1100766807979
 20
-648.9420198638578
 30
0.0
  0
VERTEX
  5
35B
330
352
100
AcDbEntity
  8
None
  6
Continuous
 62
     7
370
    15
100
AcDbVertex
100
AcDb2dVertex
 10
-135.1100766807979
 20
-576.9420198638578
 30
0.0
  0
VERTEX
  5
35C
330
352
100
AcDbEntity
  8
None
  6
Continuous
 62
     7
370
    15
100
AcDbVertex
100
AcDb2dVertex
 10
-117.6100766807979
 20
-576.9420198638578
 30
0.0
  0
VERTEX
  5
35D
330
352
100
AcDbEntity
  8
None
  6
Continuous
 62
     7
370
    15
100
AcDbVertex
100
AcDb2dVertex
 10
-117.6100766807979
 20
-559.9420198638577
 30
0.0
  0
VERTEX
  5
35E
330
352
100
AcDbEntity
  8
None
  6
Continuous
 62
     7
370
    15
100
AcDbVertex
100
AcDb2dVertex
 10
-151.6100766807975
 20
-559.9420198638577
 30
0.0
  0
VERTEX
  5
35F
330
352
100
AcDbEntity
  8
None
  6
Continuous
 62
     7
370
    15
100
AcDbVertex
100
AcDb2dVertex
 10
-151.6100766807975
 20
-583.9420198638579
 30
0.0
  0
VERTEX
  5
360
330
352
100
AcDbEntity
  8
None
  6
Continuous
 62
     7
370
    15
100
AcDbVertex
100
AcDb2dVertex
 10
-663.4610535095121
 20
-583.9420198638579
 30
0.0
  0
VERTEX
  5
361
330
352
100
AcDbEntity
  8
None
  6
Continuous
 62
     7
370
    15
100
AcDbVertex
100
AcDb2dVertex
 10
-713.6100766807976
 20
-583.9420198638579
 30
0.0
  0
VERTEX
  5
362
330
352
100
AcDbEntity
  8
None
  6
Continuous
 62
     7
370
    15
100
AcDbVertex
100
AcDb2dVertex
 10
-713.6100766807976
 20
-565.9420198638575
 30
0.0
  0
VERTEX
  5
363
330
352
100
AcDbEntity
  8
None
  6
Continuous
 62
     7
370
    15
100
AcDbVertex
100
AcDb2dVertex
 10
-730.6100766807978
 20
-565.9420198638575
 30
0.0
  0
VERTEX
  5
364
330
352
100
AcDbEntity
  8
None
  6
Continuous
 62
     7
370
    15
100
AcDbVertex
100
AcDb2dVertex
 10
-730.6100766807978
 20
-583.9420198638579
 30
0.0
  0
VERTEX
  5
365
330
352
100
AcDbEntity
  8
None
  6
Continuous
 62
     7
370
    15
100
AcDbVertex
100
AcDb2dVertex
 10
-814.610076680798
 20
-583.9420198638579
 30
0.0
  0
VERTEX
  5
366
330
352
100
AcDbEntity
  8
None
  6
Continuous
 62
     7
370
    15
100
AcDbVertex
100
AcDb2dVertex
 10
-814.610076680798
 20
155.0579801361424
 30
0.0
  0
VERTEX
  5
367
330
352
100
AcDbEntity
  8
None
  6
Continuous
 62
     7
370
    15
100
AcDbVertex
100
AcDb2dVertex
 10
-831.6100766807975
 20
155.0579801361424
 30
0.0
  0
SEQEND
  5
368
330
352
100
AcDbEntity
  8
None
  6
Continuous
 62
     7
370
    15
  0
HATCH
  5
369
330
6F
100
AcDbEntity
  8
None
  6
Continuous
 62
     7
370
     0
100
AcDbHatch
 10
0.0
 20
0.0
 30
0.0
210
0.0
220
0.0
230
1.0
  2
SOLID
 70
     1
 71
     1
 91
        1
 92
        1
 93
       21
 72
     1
 10
-831.6100766807975
 20
-583.9420198638579
 11
-890.6100766807978
 21
-583.9420198638579
 72
     1
 10
-890.6100766807978
 20
-583.9420198638579
 11
-890.6100766807978
 21
-610.9420198638575
 72
     1
 10
-890.6100766807978
 20
-610.9420198638575
 11
-151.6100766807975
 21
-610.9420198638575
 72
     1
 10
-151.6100766807975
 20
-610.9420198638575
 11
-151.6100766807975
 21
-665.9420198638574
 72
     1
 10
-151.6100766807975
 20
-665.9420198638574
 11
-117.6100766807979
 21
-665.9420198638574
 72
     1
 10
-117.6100766807979
 20
-665.9420198638574
 11
-117.6100766807979
 21
-648.9420198638578
 72
     1
 10
-117.6100766807979
 20
-648.9420198638578
 11
-135.1100766807979
 21
-648.9420198638578
 72
     1
 10
-135.1100766807979
 20
-648.9420198638578
 11
-135.1100766807979
 21
-576.9420198638578
 72
     1
 10
-135.1100766807979
 20
-576.9420198638578
 11
-117.6100766807979
 21
-576.9420198638578
 72
     1
 10
-117.6100766807979
 20
-576.9420198638578
 11
-117.6100766807979
 21
-559.9420198638577
 72
     1
 10
-117.6100766807979
 20
-559.9420198638577
 11
-151.6100766807975
 21
-559.9420198638577
 72
     1
 10
-151.6100766807975
 20
-559.9420198638577
 11
-151.6100766807975
 21
-583.9420198638579
 72
     1
 10
-151.6100766807975
 20
-583.9420198638579
 11
-663.4610535095121
 21
-583.9420198638579
 72
     1
 10
-663.4610535095121
 20
-583.9420198638579
 11
-713.6100766807976
 21
-583.9420198638579
 72
     1
 10
-713.6100766807976
 20
-583.9420198638579
 11
-713.6100766807976
 21
-565.9420198638575
 72
     1
 10
-713.6100766807976
 20
-565.9420198638575
 11
-730.6100766807978
 21
-565.9420198638575
 72
     1
 10
-730.6100766807978
 20
-565.9420198638575
 11
-730.6100766807978
 21
-583.9420198638579
 72
     1
 10
-730.6100766807978
 20
-583.9420198638579
 11
-814.610076680798
 21
-583.9420198638579
 72
     1
 10
-814.610076680798
 20
-583.9420198638579
 11
-814.610076680798
 21
155.0579801361424
 72
     1
 10
-814.610076680798
 20
155.0579801361424
 11
-831.6100766807975
 21
155.0579801361424
 72
     1
 10
-831.6100766807975
 20
155.0579801361424
 11
-831.6100766807975
 21
-583.9420198638579
 97
        1
330
352
 75
     0
 76
     1
 98
        1
 10
0.0
 20
0.0
  0
WIPEOUT
  5
36A
330
6F
100
AcDbEntity
  8
None
  6
Continuous
 62
     7
370
     9
 92
      152
310
98000000040000000C0000000E000000B20000000C00000016000000000000C20C00000014000000010000006C0000000700000004000000A200E26FE12C85C099DBB541899F81C00000000000000000A200E26FE12C85C09ADBB54189AF81C00000000000000000A000E26FE14C86C09ADBB54189AF81C000000000000000
310
00A000E26FE14C86C099DBB541899F81C00000000000000000
100
AcDbWipeout
 90
        0
 10
-713.6100766807976
 20
-565.9420198638575
 30
0.0
 11
35.99999999999977
 21
0.0
 31
0.0
 12
0.0
 22
35.99999999999977
 32
0.0
 13
1.0
 23
1.0
340
0
 70
     4
280
     1
281
    50
282
    50
283
     0
360
0
 71
     2
 91
        5
 14
0.5
 24
0.4444444444444411
 14
0.5
 24
0.5
 14
-0.5
 24
0.5
 14
-0.5
 24
0.4444444444444411
 14
0.5
 24
0.4444444444444411
  0
POLYLINE
  5
36B
330
6F
100
AcDbEntity
  8
None
  6
Continuous
 62
     7
370
     9
100
AcDb2dPolyline
 66
     1
 10
0.0
 20
0.0
 30
0.0
 70
     1
  0
VERTEX
  5
36C
330
36B
100
AcDbEntity
  8
None
  6
Continuous
 62
     7
370
     9
100
AcDbVertex
100
AcDb2dVertex
 10
-677.6100766807979
 20
-563.9420198638574
 30
0.0
  0
VERTEX
  5
36D
330
36B
100
AcDbEntity
  8
None
  6
Continuous
 62
     7
370
     9
100
AcDbVertex
100
AcDb2dVertex
 10
-677.6100766807979
 20
-565.9420198638575
 30
0.0
  0
VERTEX
  5
36E
330
36B
100
AcDbEntity
  8
None
  6
Continuous
 62
     7
370
     9
100
AcDbVertex
100
AcDb2dVertex
 10
-713.6100766807976
 20
-565.9420198638575
 30
0.0
  0
VERTEX
  5
36F
330
36B
100
AcDbEntity
  8
None
  6
Continuous
 62
     7
370
     9
100
AcDbVertex
100
AcDb2dVertex
 10
-713.6100766807976
 20
-563.9420198638574
 30
0.0
  0
SEQEND
  5
370
330
36B
100
AcDbEntity
  8
None
  6
Continuous
 62
     7
370
     9
  0
POLYLINE
  5
371
102
{ACAD_REACTORS
330
389
102
}
330
6F
100
AcDbEntity
  8
None
  6
Continuous
 62
     7
370
    15
100
AcDb2dPolyline
 66
     1
 10
0.0
 20
0.0
 30
0.0
 70
     1
  0
VERTEX
  5
372
330
371
100
AcDbEntity
  8
None
  6
Continuous
 62
     7
370
    15
100
AcDbVertex
100
AcDb2dVertex
 10
624.3899233192017
 20
649.0579801361422
 30
0.0
  0
VERTEX
  5
373
330
371
100
AcDbEntity
  8
None
  6
Continuous
 62
     7
370
    15
100
AcDbVertex
100
AcDb2dVertex
 10
624.3899233192022
 20
-610.9420198638575
 30
0.0
  0
VERTEX
  5
374
330
371
100
AcDbEntity
  8
None
  6
Continuous
 62
     7
370
    15
100
AcDbVertex
100
AcDb2dVertex
 10
47.38992331920274
 20
-610.9420198638575
 30
0.0
  0
VERTEX
  5
375
330
371
100
AcDbEntity
  8
None
  6
Continuous
 62
     7
370
    15
100
AcDbVertex
100
AcDb2dVertex
 10
47.38992331920274
 20
-665.9420198638574
 30
0.0
  0
VERTEX
  5
376
330
371
100
AcDbEntity
  8
None
  6
Continuous
 62
     7
370
    15
100
AcDbVertex
100
AcDb2dVertex
 10
13.38992331920305
 20
-665.9420198638574
 30
0.0
  0
VERTEX
  5
377
330
371
100
AcDbEntity
  8
None
  6
Continuous
 62
     7
370
    15
100
AcDbVertex
100
AcDb2dVertex
 10
13.38992331920305
 20
-648.9420198638578
 30
0.0
  0
VERTEX
  5
378
330
371
100
AcDbEntity
  8
None
  6
Continuous
 62
     7
370
    15
100
AcDbVertex
100
AcDb2dVertex
 10
30.88992331920249
 20
-648.9420198638578
 30
0.0
  0
VERTEX
  5
379
330
371
100
AcDbEntity
  8
None
  6
Continuous
 62
     7
370
    15
100
AcDbVertex
100
AcDb2dVertex
 10
30.88992331920249
 20
-576.9420198638578
 30
0.0
  0
VERTEX
  5
37A
330
371
100
AcDbEntity
  8
None
  6
Continuous
 62
     7
370
    15
100
AcDbVertex
100
AcDb2dVertex
 10
13.38992331920305
 20
-576.9420198638578
 30
0.0
  0
VERTEX
  5
37B
330
371
100
AcDbEntity
  8
None
  6
Continuous
 62
     7
370
    15
100
AcDbVertex
100
AcDb2dVertex
 10
13.38992331920305
 20
-559.9420198638577
 30
0.0
  0
VERTEX
  5
37C
330
371
100
AcDbEntity
  8
None
  6
Continuous
 62
     7
370
    15
100
AcDbVertex
100
AcDb2dVertex
 10
47.38992331920274
 20
-559.9420198638577
 30
0.0
  0
VERTEX
  5
37D
330
371
100
AcDbEntity
  8
None
  6
Continuous
 62
     7
370
    15
100
AcDbVertex
100
AcDb2dVertex
 10
47.38992331920274
 20
-583.9420198638579
 30
0.0
  0
VERTEX
  5
37E
330
371
100
AcDbEntity
  8
None
  6
Continuous
 62
     7
370
    15
100
AcDbVertex
100
AcDb2dVertex
 10
597.3899233192024
 20
-583.9420198638579
 30
0.0
  0
VERTEX
  5
37F
330
371
100
AcDbEntity
  8
None
  6
Continuous
 62
     7
370
    15
100
AcDbVertex
100
AcDb2dVertex
 10
597.3899233192024
 20
622.057980136142
 30
0.0
  0
VERTEX
  5
380
330
371
100
AcDbEntity
  8
None
  6
Continuous
 62
     7
370
    15
100
AcDbVertex
100
AcDb2dVertex
 10
-38.6100766807971
 20
622.0579801361425
 30
0.0
  0
VERTEX
  5
381
330
371
100
AcDbEntity
  8
None
  6
Continuous
 62
     7
370
    15
100
AcDbVertex
100
AcDb2dVertex
 10
-38.6100766807971
 20
535.0579801361424
 30
0.0
  0
VERTEX
  5
382
330
371
100
AcDbEntity
  8
None
  6
Continuous
 62
     7
370
    15
100
AcDbVertex
100
AcDb2dVertex
 10
-79.61007668079742
 20
535.0579801361424
 30
0.0
  0
VERTEX
  5
383
330
371
100
AcDbEntity
  8
None
  6
Continuous
 62
     7
370
    15
100
AcDbVertex
100
AcDb2dVertex
 10
-79.61007668079742
 20
552.0579801361425
 30
0.0
  0
VERTEX
  5
384
330
371
100
AcDbEntity
  8
None
  6
Continuous
 62
     7
370
    15
100
AcDbVertex
100
AcDb2dVertex
 10
-52.61007668079696
 20
552.0579801361425
 30
0.0
  0
VERTEX
  5
385
330
371
100
AcDbEntity
  8
None
  6
Continuous
 62
     7
370
    15
100
AcDbVertex
100
AcDb2dVertex
 10
-52.61007668079696
 20
622.0579801361425
 30
0.0
  0
VERTEX
  5
386
330
371
100
AcDbEntity
  8
None
  6
Continuous
 62
     7
370
    15
100
AcDbVertex
100
AcDb2dVertex
 10
-79.61007668079742
 20
622.057980136142
 30
0.0
  0
VERTEX
  5
387
330
371
100
AcDbEntity
  8
None
  6
Continuous
 62
     7
370
    15
100
AcDbVertex
100
AcDb2dVertex
 10
-79.61007668079742
 20
649.0579801361422
 30
0.0
  0
SEQEND
  5
388
330
371
100
AcDbEntity
  8
None
  6
Continuous
 62
     7
370
    15
  0
HATCH
  5
389
330
6F
100
AcDbEntity
  8
None
  6
Continuous
 62
     7
370
     0
100
AcDbHatch
 10
0.0
 20
0.0
 30
0.0
210
0.0
220
0.0
230
1.0
  2
SOLID
 70
     1
 71
     1
 91
        1
 92
        1
 93
       22
 72
     1
 10
624.3899233192017
 20
649.0579801361422
 11
624.3899233192022
 21
-610.9420198638574
 72
     1
 10
624.3899233192022
 20
-610.9420198638575
 11
47.38992331920269
 21
-610.9420198638575
 72
     1
 10
47.38992331920274
 20
-610.9420198638575
 11
47.38992331920274
 21
-665.9420198638574
 72
     1
 10
47.38992331920274
 20
-665.9420198638574
 11
13.38992331920305
 21
-665.9420198638574
 72
     1
 10
13.38992331920305
 20
-665.9420198638574
 11
13.38992331920305
 21
-648.9420198638578
 72
     1
 10
13.38992331920305
 20
-648.9420198638578
 11
30.88992331920249
 21
-648.9420198638578
 72
     1
 10
30.88992331920249
 20
-648.9420198638578
 11
30.88992331920249
 21
-576.9420198638578
 72
     1
 10
30.88992331920249
 20
-576.9420198638578
 11
13.38992331920305
 21
-576.9420198638578
 72
     1
 10
13.38992331920305
 20
-576.9420198638578
 11
13.38992331920305
 21
-559.9420198638577
 72
     1
 10
13.38992331920305
 20
-559.9420198638577
 11
47.38992331920274
 21
-559.9420198638577
 72
     1
 10
47.38992331920274
 20
-559.9420198638577
 11
47.38992331920274
 21
-583.9420198638579
 72
     1
 10
47.38992331920274
 20
-583.9420198638579
 11
597.3899233192024
 21
-583.9420198638579
 72
     1
 10
597.3899233192024
 20
-583.9420198638579
 11
597.3899233192024
 21
622.0579801361421
 72
     1
 10
597.3899233192024
 20
622.057980136142
 11
-38.61007668079708
 21
622.0579801361425
 72
     1
 10
-38.6100766807971
 20
622.0579801361425
 11
-38.6100766807971
 21
535.0579801361424
 72
     1
 10
-38.6100766807971
 20
535.0579801361424
 11
-79.61007668079742
 21
535.0579801361424
 72
     1
 10
-79.61007668079742
 20
535.0579801361424
 11
-79.61007668079742
 21
552.0579801361425
 72
     1
 10
-79.61007668079742
 20
552.0579801361425
 11
-52.61007668079696
 21
552.0579801361425
 72
     1
 10
-52.61007668079696
 20
552.0579801361425
 11
-52.61007668079696
 21
622.0579801361425
 72
     1
 10
-52.61007668079696
 20
622.0579801361425
 11
-79.61007668079742
 21
622.057980136142
 72
     1
 10
-79.61007668079742
 20
622.057980136142
 11
-79.61007668079742
 21
649.0579801361422
 72
     1
 10
-79.61007668079742
 20
649.0579801361422
 11
624.3899233192017
 21
649.0579801361422
 97
        1
330
371
 75
     0
 76
     1
 98
        1
 10
0.0
 20
0.0
  0
POLYLINE
  5
38A
102
{ACAD_REACTORS
330
394
102
}
330
6F
100
AcDbEntity
  8
None
  6
Continuous
 62
     7
370
    15
100
AcDb2dPolyline
 66
     1
 10
0.0
 20
0.0
 30
0.0
 70
     1
  0
VERTEX
  5
38B
330
38A
100
AcDbEntity
  8
None
  6
Continuous
 62
     7
370
    15
100
AcDbVertex
100
AcDb2dVertex
 10
-169.6100766807974
 20
622.0579801361425
 30
0.0
  0
VERTEX
  5
38C
330
38A
100
AcDbEntity
  8
None
  6
Continuous
 62
     7
370
    15
100
AcDbVertex
100
AcDb2dVertex
 10
-119.6100766807974
 20
622.057980136142
 30
0.0
  0
VERTEX
  5
38D
330
38A
100
AcDbEntity
  8
None
  6
Continuous
 62
     7
370
    15
100
AcDbVertex
100
AcDb2dVertex
 10
-119.6100766807974
 20
649.0579801361422
 30
0.0
  0
VERTEX
  5
38E
330
38A
100
AcDbEntity
  8
None
  6
Continuous
 62
     7
370
    15
100
AcDbVertex
100
AcDb2dVertex
 10
-169.6100766807974
 20
649.0579801361422
 30
0.0
  0
VERTEX
  5
38F
330
38A
100
AcDbEntity
  8
None
  6
Continuous
 62
     7
370
    15
100
AcDbVertex
100
AcDb2dVertex
 10
-169.6100766807974
 20
640.0579801361424
 30
0.0
  0
VERTEX
  5
390
330
38A
100
AcDbEntity
  8
None
  6
Continuous
 62
     7
370
    15
100
AcDbVertex
100
AcDb2dVertex
 10
-165.6100766807972
 20
640.0579801361424
 30
0.0
  0
VERTEX
  5
391
330
38A
100
AcDbEntity
  8
None
  6
Continuous
 62
     7
370
    15
100
AcDbVertex
100
AcDb2dVertex
 10
-165.6100766807972
 20
635.0579801361424
 30
0.0
  0
VERTEX
  5
392
330
38A
100
AcDbEntity
  8
None
  6
Continuous
 62
     7
370
    15
100
AcDbVertex
100
AcDb2dVertex
 10
-169.6100766807974
 20
635.0579801361424
 30
0.0
  0
SEQEND
  5
393
330
38A
100
AcDbEntity
  8
None
  6
Continuous
 62
     7
370
    15
  0
HATCH
  5
394
330
6F
100
AcDbEntity
  8
None
  6
Continuous
 62
     7
370
     0
100
AcDbHatch
 10
0.0
 20
0.0
 30
0.0
210
0.0
220
0.0
230
1.0
  2
SOLID
 70
     1
 71
     1
 91
        1
 92
        1
 93
        8
 72
     1
 10
-169.6100766807974
 20
622.0579801361425
 11
-119.6100766807974
 21
622.057980136142
 72
     1
 10
-119.6100766807974
 20
622.057980136142
 11
-119.6100766807974
 21
649.0579801361422
 72
     1
 10
-119.6100766807974
 20
649.0579801361422
 11
-169.6100766807974
 21
649.0579801361422
 72
     1
 10
-169.6100766807974
 20
649.0579801361422
 11
-169.6100766807974
 21
640.0579801361424
 72
     1
 10
-169.6100766807974
 20
640.0579801361424
 11
-165.6100766807972
 21
640.0579801361424
 72
     1
 10
-165.6100766807972
 20
640.0579801361424
 11
-165.6100766807972
 21
635.0579801361424
 72
     1
 10
-165.6100766807972
 20
635.0579801361424
 11
-169.6100766807974
 21
635.0579801361424
 72
     1
 10
-169.6100766807974
 20
635.0579801361424
 11
-169.6100766807974
 21
622.0579801361425
 97
        1
330
38A
 75
     0
 76
     1
 98
        1
 10
0.0
 20
0.0
  0
ARC
  5
395
330
6F
100
AcDbEntity
  8
None
  6
Continuous
 62
     7
370
     9
100
AcDbCircle
 10
-831.6394404654637
 20
191.0857125994376
 30
0.0
 40
36.02774442951731
100
AcDbArc
 50
183.226456152381
 51
270.0466979308532
  0
LINE
  5
396
330
6F
100
AcDbEntity
  8
None
  6
Dash Style-2
 62
     7
370
     9
100
AcDbLine
 10
597.3899233192024
 20
166.0579801361424
 30
0.0
 11
-713.6100766807976
 21
166.0579801361424
 31
0.0
  0
WIPEOUT
  5
397
330
6F
100
AcDbEntity
  8
None
  6
Continuous
 62
     7
370
    50
 92
      392
310
88010000040000000C0000000E000000B20000000C00000016000000000000C20C00000014000000010000005C010000070000000E000000C4FE3B203D1A7B40929128F9DA7969400000000000000000C4FE3B203D1A7B408F9128F9DA6169400000000000000000C7FE3B203DB07A40A29128F9DA61694000000000000000
310
00C2FE3B203D527A408F9128F9DA6169400000000000000000C2FE3B203D527A40929128F9DA7969400000000000000000C7FE3B203DB07A40929128F9DA7969400000000000000000C7FE3B203DB07A40929128F9DA496C400000000000000000C2FE3B203D527A40929128F9DA496C400000000000000000C2FE3B203D52
310
7A40979128F9DA616C400000000000000000C9FE3B203DBC7A40979128F9DA616C400000000000000000C4FE3B203D1A7B40979128F9DA616C400000000000000000C4FE3B203D1A7B40929128F9DA496C400000000000000000C9FE3B203DBC7A40929128F9DA496C400000000000000000C9FE3B203DBC7A40929128F9DA
310
7969400000000000000000
100
AcDbWipeout
 90
        0
 10
421.1399233192026
 20
203.0579801361423
 30
0.0
 11
24.00000000000023
 21
0.0
 31
0.0
 12
0.0
 22
24.00000000000023
 32
0.0
 13
1.0
 23
1.0
340
0
 70
     4
280
     1
281
    50
282
    50
283
     0
360
0
 71
     2
 91
       15
 14
0.0208333333333286
 24
0.4687499999999964
 14
0.0208333333333286
 24
0.5
 14
-0.2552083333333286
 24
0.4999999999999769
 14
-0.5000000000000036
 24
0.5
 14
-0.5000000000000036
 24
0.4687499999999964
 14
-0.2552083333333286
 24
0.4687499999999964
 14
-0.2552083333333286
 24
-0.4687499999999947
 14
-0.5000000000000036
 24
-0.4687499999999947
 14
-0.5000000000000036
 24
-0.5
 14
-0.223958333333325
 24
-0.5
 14
0.0208333333333286
 24
-0.5
 14
0.0208333333333286
 24
-0.4687499999999947
 14
-0.223958333333325
 24
-0.4687499999999947
 14
-0.223958333333325
 24
0.4687499999999964
 14
0.0208333333333286
 24
0.4687499999999964
  0
POLYLINE
  5
398
330
6F
100
AcDbEntity
  8
None
  6
Continuous
 62
     7
370
    50
100
AcDb2dPolyline
 66
     1
 10
0.0
 20
0.0
 30
0.0
 70
     1
  0
VERTEX
  5
399
330
398
100
AcDbEntity
  8
None
  6
Continuous
 62
     7
370
    50
100
AcDbVertex
100
AcDb2dVertex
 10
433.6399233192026
 20
203.8079801361424
 30
0.0
  0
VERTEX
  5
39A
330
398
100
AcDbEntity
  8
None
  6
Continuous
 62
     7
370
    50
100
AcDbVertex
100
AcDb2dVertex
 10
433.6399233192026
 20
203.0579801361423
 30
0.0
  0
VERTEX
  5
39B
330
398
100
AcDbEntity
  8
None
  6
Continuous
 62
     7
370
    50
100
AcDbVertex
100
AcDb2dVertex
 10
427.0149233192028
 20
203.0579801361428
 30
0.0
  0
VERTEX
  5
39C
330
398
100
AcDbEntity
  8
None
  6
Continuous
 62
     7
370
    50
100
AcDbVertex
100
AcDb2dVertex
 10
421.1399233192026
 20
203.0579801361423
 30
0.0
  0
VERTEX
  5
39D
330
398
100
AcDbEntity
  8
None
  6
Continuous
 62
     7
370
    50
100
AcDbVertex
100
AcDb2dVertex
 10
421.1399233192026
 20
203.8079801361424
 30
0.0
  0
VERTEX
  5
39E
330
398
100
AcDbEntity
  8
None
  6
Continuous
 62
     7
370
    50
100
AcDbVertex
100
AcDb2dVertex
 10
427.0149233192028
 20
203.8079801361424
 30
0.0
  0
VERTEX
  5
39F
330
398
100
AcDbEntity
  8
None
  6
Continuous
 62
     7
370
    50
100
AcDbVertex
100
AcDb2dVertex
 10
427.0149233192028
 20
226.3079801361424
 30
0.0
  0
VERTEX
  5
3A0
330
398
100
AcDbEntity
  8
None
  6
Continuous
 62
     7
370
    50
100
AcDbVertex
100
AcDb2dVertex
 10
421.1399233192026
 20
226.3079801361424
 30
0.0
  0
VERTEX
  5
3A1
330
398
100
AcDbEntity
  8
None
  6
Continuous
 62
     7
370
    50
100
AcDbVertex
100
AcDb2dVertex
 10
421.1399233192026
 20
227.0579801361425
 30
0.0
  0
VERTEX
  5
3A2
330
398
100
AcDbEntity
  8
None
  6
Continuous
 62
     7
370
    50
100
AcDbVertex
100
AcDb2dVertex
 10
427.7649233192029
 20
227.0579801361425
 30
0.0
  0
VERTEX
  5
3A3
330
398
100
AcDbEntity
  8
None
  6
Continuous
 62
     7
370
    50
100
AcDbVertex
100
AcDb2dVertex
 10
433.6399233192026
 20
227.0579801361425
 30
0.0
  0
VERTEX
  5
3A4
330
398
100
AcDbEntity
  8
None
  6
Continuous
 62
     7
370
    50
100
AcDbVertex
100
AcDb2dVertex
 10
433.6399233192026
 20
226.3079801361424
 30
0.0
  0
VERTEX
  5
3A5
330
398
100
AcDbEntity
  8
None
  6
Continuous
 62
     7
370
    50
100
AcDbVertex
100
AcDb2dVertex
 10
427.7649233192029
 20
226.3079801361424
 30
0.0
  0
VERTEX
  5
3A6
330
398
100
AcDbEntity
  8
None
  6
Continuous
 62
     7
370
    50
100
AcDbVertex
100
AcDb2dVertex
 10
427.7649233192029
 20
203.8079801361424
 30
0.0
  0
SEQEND
  5
3A7
330
398
100
AcDbEntity
  8
None
  6
Continuous
 62
     7
370
    50
  0
INSERT
  5
3A8
330
6F
100
AcDbEntity
  8
None
 62
     7
100
AcDbBlockReference
  2
Group-9-1
 10
0.0
 20
0.0
 30
0.0
  0
WIPEOUT
  5
3A9
330
6F
100
AcDbEntity
  8
None
  6
Continuous
 62
     7
370
    50
 92
      392
310
88010000040000000C0000000E000000B20000000C00000016000000000000C20C00000014000000010000005C010000070000000E00000082FD77407A346E40929128F9DA796940000000000000000082FD77407A346E408F9128F9DA61694000000000000000008BFD77407A606D40A29128F9DA61694000000000000000
310
0084FD77407AA46C408F9128F9DA616940000000000000000084FD77407AA46C40929128F9DA79694000000000000000008BFD77407A606D40929128F9DA79694000000000000000008BFD77407A606D40929128F9DA496C40000000000000000084FD77407AA46C40929128F9DA496C40000000000000000084FD77407AA4
310
6C40979128F9DA616C40000000000000000090FD77407A786D40979128F9DA616C40000000000000000082FD77407A346E40979128F9DA616C40000000000000000082FD77407A346E40929128F9DA496C40000000000000000090FD77407A786D40929128F9DA496C40000000000000000090FD77407A786D40929128F9DA
310
7969400000000000000000
100
AcDbWipeout
 90
        0
 10
229.1399233192025
 20
203.0579801361423
 30
0.0
 11
24.00000000000023
 21
0.0
 31
0.0
 12
0.0
 22
24.00000000000023
 32
0.0
 13
1.0
 23
1.0
340
0
 70
     4
280
     1
281
    50
282
    50
283
     0
360
0
 71
     2
 91
       15
 14
0.020833333333325
 24
0.4687499999999964
 14
0.020833333333325
 24
0.5
 14
-0.2552083333333286
 24
0.4999999999999769
 14
-0.5000000000000018
 24
0.5
 14
-0.5000000000000018
 24
0.4687499999999964
 14
-0.2552083333333286
 24
0.4687499999999964
 14
-0.2552083333333286
 24
-0.4687499999999947
 14
-0.5000000000000018
 24
-0.4687499999999947
 14
-0.5000000000000018
 24
-0.5
 14
-0.2239583333333233
 24
-0.5
 14
0.020833333333325
 24
-0.5
 14
0.020833333333325
 24
-0.4687499999999947
 14
-0.2239583333333233
 24
-0.4687499999999947
 14
-0.2239583333333233
 24
0.4687499999999964
 14
0.020833333333325
 24
0.4687499999999964
  0
POLYLINE
  5
3AA
330
6F
100
AcDbEntity
  8
None
  6
Continuous
 62
     7
370
    50
100
AcDb2dPolyline
 66
     1
 10
0.0
 20
0.0
 30
0.0
 70
     1
  0
VERTEX
  5
3AB
330
3AA
100
AcDbEntity
  8
None
  6
Continuous
 62
     7
370
    50
100
AcDbVertex
100
AcDb2dVertex
 10
241.6399233192024
 20
203.8079801361424
 30
0.0
  0
VERTEX
  5
3AC
330
3AA
100
AcDbEntity
  8
None
  6
Continuous
 62
     7
370
    50
100
AcDbVertex
100
AcDb2dVertex
 10
241.6399233192024
 20
203.0579801361423
 30
0.0
  0
VERTEX
  5
3AD
330
3AA
100
AcDbEntity
  8
None
  6
Continuous
 62
     7
370
    50
100
AcDbVertex
100
AcDb2dVertex
 10
235.0149233192027
 20
203.0579801361428
 30
0.0
  0
VERTEX
  5
3AE
330
3AA
100
AcDbEntity
  8
None
  6
Continuous
 62
     7
370
    50
100
AcDbVertex
100
AcDb2dVertex
 10
229.1399233192025
 20
203.0579801361423
 30
0.0
  0
VERTEX
  5
3AF
330
3AA
100
AcDbEntity
  8
None
  6
Continuous
 62
     7
370
    50
100
AcDbVertex
100
AcDb2dVertex
 10
229.1399233192025
 20
203.8079801361424
 30
0.0
  0
VERTEX
  5
3B0
330
3AA
100
AcDbEntity
  8
None
  6
Continuous
 62
     7
370
    50
100
AcDbVertex
100
AcDb2dVertex
 10
235.0149233192027
 20
203.8079801361424
 30
0.0
  0
VERTEX
  5
3B1
330
3AA
100
AcDbEntity
  8
None
  6
Continuous
 62
     7
370
    50
100
AcDbVertex
100
AcDb2dVertex
 10
235.0149233192027
 20
226.3079801361424
 30
0.0
  0
VERTEX
  5
3B2
330
3AA
100
AcDbEntity
  8
None
  6
Continuous
 62
     7
370
    50
100
AcDbVertex
100
AcDb2dVertex
 10
229.1399233192025
 20
226.3079801361424
 30
0.0
  0
VERTEX
  5
3B3
330
3AA
100
AcDbEntity
  8
None
  6
Continuous
 62
     7
370
    50
100
AcDbVertex
100
AcDb2dVertex
 10
229.1399233192025
 20
227.0579801361425
 30
0.0
  0
VERTEX
  5
3B4
330
3AA
100
AcDbEntity
  8
None
  6
Continuous
 62
     7
370
    50
100
AcDbVertex
100
AcDb2dVertex
 10
235.7649233192028
 20
227.0579801361425
 30
0.0
  0
VERTEX
  5
3B5
330
3AA
100
AcDbEntity
  8
None
  6
Continuous
 62
     7
370
    50
100
AcDbVertex
100
AcDb2dVertex
 10
241.6399233192024
 20
227.0579801361425
 30
0.0
  0
VERTEX
  5
3B6
330
3AA
100
AcDbEntity
  8
None
  6
Continuous
 62
     7
370
    50
100
AcDbVertex
100
AcDb2dVertex
 10
241.6399233192024
 20
226.3079801361424
 30
0.0
  0
VERTEX
  5
3B7
330
3AA
100
AcDbEntity
  8
None
  6
Continuous
 62
     7
370
    50
100
AcDbVertex
100
AcDb2dVertex
 10
235.7649233192028
 20
226.3079801361424
 30
0.0
  0
VERTEX
  5
3B8
330
3AA
100
AcDbEntity
  8
None
  6
Continuous
 62
     7
370
    50
100
AcDbVertex
100
AcDb2dVertex
 10
235.7649233192028
 20
203.8079801361424
 30
0.0
  0
SEQEND
  5
3B9
330
3AA
100
AcDbEntity
  8
None
  6
Continuous
 62
     7
370
    50
  0
WIPEOUT
  5
3BA
330
6F
100
AcDbEntity
  8
None
  6
Continuous
 62
     7
370
    50
 92
      392
310
88010000040000000C0000000E000000B20000000C00000016000000000000C20C00000014000000010000005C010000070000000E00000016F6DF01E9D14840929128F9DA796940000000000000000016F6DF01E9D148408F9128F9DA616940000000000000000036F6DF01E9814540A29128F9DA61694000000000000000
310
0015F6DF01E99142408F9128F9DA616940000000000000000015F6DF01E9914240929128F9DA796940000000000000000036F6DF01E9814540929128F9DA796940000000000000000036F6DF01E9814540929128F9DA496C40000000000000000015F6DF01E9914240929128F9DA496C40000000000000000015F6DF01E991
310
4240979128F9DA616C40000000000000000046F6DF01E9E14540979128F9DA616C40000000000000000016F6DF01E9D14840979128F9DA616C40000000000000000016F6DF01E9D14840929128F9DA496C40000000000000000046F6DF01E9E14540929128F9DA496C40000000000000000046F6DF01E9E14540929128F9DA
310
7969400000000000000000
100
AcDbWipeout
 90
        0
 10
37.1399233192025
 20
203.0579801361423
 30
0.0
 11
24.00000000000023
 21
0.0
 31
0.0
 12
0.0
 22
24.00000000000023
 32
0.0
 13
1.0
 23
1.0
340
0
 70
     4
280
     1
281
    50
282
    50
283
     0
360
0
 71
     2
 91
       15
 14
0.0208333333333286
 24
0.4687499999999964
 14
0.0208333333333286
 24
0.5
 14
-0.2552083333333259
 24
0.4999999999999769
 14
-0.5
 24
0.5
 14
-0.5
 24
0.4687499999999964
 14
-0.2552083333333259
 24
0.4687499999999964
 14
-0.2552083333333259
 24
-0.4687499999999947
 14
-0.5
 24
-0.4687499999999947
 14
-0.5
 24
-0.5
 14
-0.2239583333333215
 24
-0.5
 14
0.0208333333333286
 24
-0.5
 14
0.0208333333333286
 24
-0.4687499999999947
 14
-0.2239583333333215
 24
-0.4687499999999947
 14
-0.2239583333333215
 24
0.4687499999999964
 14
0.0208333333333286
 24
0.4687499999999964
  0
POLYLINE
  5
3BB
330
6F
100
AcDbEntity
  8
None
  6
Continuous
 62
     7
370
    50
100
AcDb2dPolyline
 66
     1
 10
0.0
 20
0.0
 30
0.0
 70
     1
  0
VERTEX
  5
3BC
330
3BB
100
AcDbEntity
  8
None
  6
Continuous
 62
     7
370
    50
100
AcDbVertex
100
AcDb2dVertex
 10
49.63992331920251
 20
203.8079801361424
 30
0.0
  0
VERTEX
  5
3BD
330
3BB
100
AcDbEntity
  8
None
  6
Continuous
 62
     7
370
    50
100
AcDbVertex
100
AcDb2dVertex
 10
49.63992331920251
 20
203.0579801361423
 30
0.0
  0
VERTEX
  5
3BE
330
3BB
100
AcDbEntity
  8
None
  6
Continuous
 62
     7
370
    50
100
AcDbVertex
100
AcDb2dVertex
 10
43.01492331920274
 20
203.0579801361428
 30
0.0
  0
VERTEX
  5
3BF
330
3BB
100
AcDbEntity
  8
None
  6
Continuous
 62
     7
370
    50
100
AcDbVertex
100
AcDb2dVertex
 10
37.1399233192025
 20
203.0579801361423
 30
0.0
  0
VERTEX
  5
3C0
330
3BB
100
AcDbEntity
  8
None
  6
Continuous
 62
     7
370
    50
100
AcDbVertex
100
AcDb2dVertex
 10
37.1399233192025
 20
203.8079801361424
 30
0.0
  0
VERTEX
  5
3C1
330
3BB
100
AcDbEntity
  8
None
  6
Continuous
 62
     7
370
    50
100
AcDbVertex
100
AcDb2dVertex
 10
43.01492331920274
 20
203.8079801361424
 30
0.0
  0
VERTEX
  5
3C2
330
3BB
100
AcDbEntity
  8
None
  6
Continuous
 62
     7
370
    50
100
AcDbVertex
100
AcDb2dVertex
 10
43.01492331920274
 20
226.3079801361424
 30
0.0
  0
VERTEX
  5
3C3
330
3BB
100
AcDbEntity
  8
None
  6
Continuous
 62
     7
370
    50
100
AcDbVertex
100
AcDb2dVertex
 10
37.1399233192025
 20
226.3079801361424
 30
0.0
  0
VERTEX
  5
3C4
330
3BB
100
AcDbEntity
  8
None
  6
Continuous
 62
     7
370
    50
100
AcDbVertex
100
AcDb2dVertex
 10
37.1399233192025
 20
227.0579801361425
 30
0.0
  0
VERTEX
  5
3C5
330
3BB
100
AcDbEntity
  8
None
  6
Continuous
 62
     7
370
    50
100
AcDbVertex
100
AcDb2dVertex
 10
43.76492331920285
 20
227.0579801361425
 30
0.0
  0
VERTEX
  5
3C6
330
3BB
100
AcDbEntity
  8
None
  6
Continuous
 62
     7
370
    50
100
AcDbVertex
100
AcDb2dVertex
 10
49.63992331920251
 20
227.0579801361425
 30
0.0
  0
VERTEX
  5
3C7
330
3BB
100
AcDbEntity
  8
None
  6
Continuous
 62
     7
370
    50
100
AcDbVertex
100
AcDb2dVertex
 10
49.63992331920251
 20
226.3079801361424
 30
0.0
  0
VERTEX
  5
3C8
330
3BB
100
AcDbEntity
  8
None
  6
Continuous
 62
     7
370
    50
100
AcDbVertex
100
AcDb2dVertex
 10
43.76492331920285
 20
226.3079801361424
 30
0.0
  0
VERTEX
  5
3C9
330
3BB
100
AcDbEntity
  8
None
  6
Continuous
 62
     7
370
    50
100
AcDbVertex
100
AcDb2dVertex
 10
43.76492331920285
 20
203.8079801361424
 30
0.0
  0
SEQEND
  5
3CA
330
3BB
100
AcDbEntity
  8
None
  6
Continuous
 62
     7
370
    50
  0
WIPEOUT
  5
3CB
330
6F
100
AcDbEntity
  8
None
  6
Continuous
 62
     7
370
    50
 92
      392
310
88010000040000000C0000000E000000B20000000C00000016000000000000C20C00000014000000010000005C010000070000000E000000940288BF85CB61C0929128F9DA7969400000000000000000940288BF85CB61C08F9128F9DA61694000000000000000008C0288BF859F62C0A29128F9DA61694000000000000000
310
00940288BF855B63C08F9128F9DA6169400000000000000000940288BF855B63C0929128F9DA79694000000000000000008C0288BF859F62C0929128F9DA79694000000000000000008C0288BF859F62C0929128F9DA496C400000000000000000940288BF855B63C0929128F9DA496C400000000000000000940288BF855B
310
63C0979128F9DA616C400000000000000000880288BF858762C0979128F9DA616C400000000000000000940288BF85CB61C0979128F9DA616C400000000000000000940288BF85CB61C0929128F9DA496C400000000000000000880288BF858762C0929128F9DA496C400000000000000000880288BF858762C0929128F9DA
310
7969400000000000000000
100
AcDbWipeout
 90
        0
 10
-154.8600766807982
 20
203.0579801361423
 30
0.0
 11
24.00000000000023
 21
0.0
 31
0.0
 12
0.0
 22
24.00000000000023
 32
0.0
 13
1.0
 23
1.0
340
0
 70
     4
280
     1
281
    50
282
    50
283
     0
360
0
 71
     2
 91
       15
 14
0.0208333333333286
 24
0.4687499999999964
 14
0.0208333333333286
 24
0.5
 14
-0.2552083333333259
 24
0.4999999999999769
 14
-0.5
 24
0.5
 14
-0.5
 24
0.4687499999999964
 14
-0.2552083333333259
 24
0.4687499999999964
 14
-0.2552083333333259
 24
-0.4687499999999947
 14
-0.5
 24
-0.4687499999999947
 14
-0.5
 24
-0.5
 14
-0.2239583333333215
 24
-0.5
 14
0.0208333333333286
 24
-0.5
 14
0.0208333333333286
 24
-0.4687499999999947
 14
-0.2239583333333215
 24
-0.4687499999999947
 14
-0.2239583333333215
 24
0.4687499999999964
 14
0.0208333333333286
 24
0.4687499999999964
  0
POLYLINE
  5
3CC
330
6F
100
AcDbEntity
  8
None
  6
Continuous
 62
     7
370
    50
100
AcDb2dPolyline
 66
     1
 10
0.0
 20
0.0
 30
0.0
 70
     1
  0
VERTEX
  5
3CD
330
3CC
100
AcDbEntity
  8
None
  6
Continuous
 62
     7
370
    50
100
AcDbVertex
100
AcDb2dVertex
 10
-142.3600766807982
 20
203.8079801361424
 30
0.0
  0
VERTEX
  5
3CE
330
3CC
100
AcDbEntity
  8
None
  6
Continuous
 62
     7
370
    50
100
AcDbVertex
100
AcDb2dVertex
 10
-142.3600766807982
 20
203.0579801361423
 30
0.0
  0
VERTEX
  5
3CF
330
3CC
100
AcDbEntity
  8
None
  6
Continuous
 62
     7
370
    50
100
AcDbVertex
100
AcDb2dVertex
 10
-148.985076680798
 20
203.0579801361428
 30
0.0
  0
VERTEX
  5
3D0
330
3CC
100
AcDbEntity
  8
None
  6
Continuous
 62
     7
370
    50
100
AcDbVertex
100
AcDb2dVertex
 10
-154.8600766807982
 20
203.0579801361423
 30
0.0
  0
VERTEX
  5
3D1
330
3CC
100
AcDbEntity
  8
None
  6
Continuous
 62
     7
370
    50
100
AcDbVertex
100
AcDb2dVertex
 10
-154.8600766807982
 20
203.8079801361424
 30
0.0
  0
VERTEX
  5
3D2
330
3CC
100
AcDbEntity
  8
None
  6
Continuous
 62
     7
370
    50
100
AcDbVertex
100
AcDb2dVertex
 10
-148.985076680798
 20
203.8079801361424
 30
0.0
  0
VERTEX
  5
3D3
330
3CC
100
AcDbEntity
  8
None
  6
Continuous
 62
     7
370
    50
100
AcDbVertex
100
AcDb2dVertex
 10
-148.985076680798
 20
226.3079801361424
 30
0.0
  0
VERTEX
  5
3D4
330
3CC
100
AcDbEntity
  8
None
  6
Continuous
 62
     7
370
    50
100
AcDbVertex
100
AcDb2dVertex
 10
-154.8600766807982
 20
226.3079801361424
 30
0.0
  0
VERTEX
  5
3D5
330
3CC
100
AcDbEntity
  8
None
  6
Continuous
 62
     7
370
    50
100
AcDbVertex
100
AcDb2dVertex
 10
-154.8600766807982
 20
227.0579801361425
 30
0.0
  0
VERTEX
  5
3D6
330
3CC
100
AcDbEntity
  8
None
  6
Continuous
 62
     7
370
    50
100
AcDbVertex
100
AcDb2dVertex
 10
-148.2350766807979
 20
227.0579801361425
 30
0.0
  0
VERTEX
  5
3D7
330
3CC
100
AcDbEntity
  8
None
  6
Continuous
 62
     7
370
    50
100
AcDbVertex
100
AcDb2dVertex
 10
-142.3600766807982
 20
227.0579801361425
 30
0.0
  0
VERTEX
  5
3D8
330
3CC
100
AcDbEntity
  8
None
  6
Continuous
 62
     7
370
    50
100
AcDbVertex
100
AcDb2dVertex
 10
-142.3600766807982
 20
226.3079801361424
 30
0.0
  0
VERTEX
  5
3D9
330
3CC
100
AcDbEntity
  8
None
  6
Continuous
 62
     7
370
    50
100
AcDbVertex
100
AcDb2dVertex
 10
-148.2350766807979
 20
226.3079801361424
 30
0.0
  0
VERTEX
  5
3DA
330
3CC
100
AcDbEntity
  8
None
  6
Continuous
 62
     7
370
    50
100
AcDbVertex
100
AcDb2dVertex
 10
-148.2350766807979
 20
203.8079801361424
 30
0.0
  0
SEQEND
  5
3DB
330
3CC
100
AcDbEntity
  8
None
  6
Continuous
 62
     7
370
    50
  0
WIPEOUT
  5
3DC
330
6F
100
AcDbEntity
  8
None
  6
Continuous
 62
     7
370
    50
 92
      392
310
88010000040000000C0000000E000000B20000000C00000016000000000000C20C00000014000000010000005C010000070000000E0000004201C4DFC2E574C0929128F9DA79694000000000000000004201C4DFC2E574C08F9128F9DA61694000000000000000003E01C4DFC24F75C0A29128F9DA61694000000000000000
310
004201C4DFC2AD75C08F9128F9DA61694000000000000000004201C4DFC2AD75C0929128F9DA79694000000000000000003E01C4DFC24F75C0929128F9DA79694000000000000000003E01C4DFC24F75C0929128F9DA496C4000000000000000004201C4DFC2AD75C0929128F9DA496C4000000000000000004201C4DFC2AD
310
75C0979128F9DA616C4000000000000000003C01C4DFC24375C0979128F9DA616C4000000000000000004201C4DFC2E574C0979128F9DA616C4000000000000000004201C4DFC2E574C0929128F9DA496C4000000000000000003C01C4DFC24375C0929128F9DA496C4000000000000000003C01C4DFC24375C0929128F9DA
310
7969400000000000000000
100
AcDbWipeout
 90
        0
 10
-346.8600766807978
 20
203.0579801361423
 30
0.0
 11
24.00000000000023
 21
0.0
 31
0.0
 12
0.0
 22
24.00000000000023
 32
0.0
 13
1.0
 23
1.0
340
0
 70
     4
280
     1
281
    50
282
    50
283
     0
360
0
 71
     2
 91
       15
 14
0.0208333333333286
 24
0.4687499999999964
 14
0.0208333333333286
 24
0.5
 14
-0.255208333333325
 24
0.4999999999999769
 14
-0.5
 24
0.5
 14
-0.5
 24
0.4687499999999964
 14
-0.255208333333325
 24
0.4687499999999964
 14
-0.255208333333325
 24
-0.4687499999999947
 14
-0.5
 24
-0.4687499999999947
 14
-0.5
 24
-0.5
 14
-0.2239583333333215
 24
-0.5
 14
0.0208333333333286
 24
-0.5
 14
0.0208333333333286
 24
-0.4687499999999947
 14
-0.2239583333333215
 24
-0.4687499999999947
 14
-0.2239583333333215
 24
0.4687499999999964
 14
0.0208333333333286
 24
0.4687499999999964
  0
POLYLINE
  5
3DD
330
6F
100
AcDbEntity
  8
None
  6
Continuous
 62
     7
370
    50
100
AcDb2dPolyline
 66
     1
 10
0.0
 20
0.0
 30
0.0
 70
     1
  0
VERTEX
  5
3DE
330
3DD
100
AcDbEntity
  8
None
  6
Continuous
 62
     7
370
    50
100
AcDbVertex
100
AcDb2dVertex
 10
-334.3600766807978
 20
203.8079801361424
 30
0.0
  0
VERTEX
  5
3DF
330
3DD
100
AcDbEntity
  8
None
  6
Continuous
 62
     7
370
    50
100
AcDbVertex
100
AcDb2dVertex
 10
-334.3600766807978
 20
203.0579801361423
 30
0.0
  0
VERTEX
  5
3E0
330
3DD
100
AcDbEntity
  8
None
  6
Continuous
 62
     7
370
    50
100
AcDbVertex
100
AcDb2dVertex
 10
-340.9850766807975
 20
203.0579801361428
 30
0.0
  0
VERTEX
  5
3E1
330
3DD
100
AcDbEntity
  8
None
  6
Continuous
 62
     7
370
    50
100
AcDbVertex
100
AcDb2dVertex
 10
-346.8600766807978
 20
203.0579801361423
 30
0.0
  0
VERTEX
  5
3E2
330
3DD
100
AcDbEntity
  8
None
  6
Continuous
 62
     7
370
    50
100
AcDbVertex
100
AcDb2dVertex
 10
-346.8600766807978
 20
203.8079801361424
 30
0.0
  0
VERTEX
  5
3E3
330
3DD
100
AcDbEntity
  8
None
  6
Continuous
 62
     7
370
    50
100
AcDbVertex
100
AcDb2dVertex
 10
-340.9850766807975
 20
203.8079801361424
 30
0.0
  0
VERTEX
  5
3E4
330
3DD
100
AcDbEntity
  8
None
  6
Continuous
 62
     7
370
    50
100
AcDbVertex
100
AcDb2dVertex
 10
-340.9850766807975
 20
226.3079801361424
 30
0.0
  0
VERTEX
  5
3E5
330
3DD
100
AcDbEntity
  8
None
  6
Continuous
 62
     7
370
    50
100
AcDbVertex
100
AcDb2dVertex
 10
-346.8600766807978
 20
226.3079801361424
 30
0.0
  0
VERTEX
  5
3E6
330
3DD
100
AcDbEntity
  8
None
  6
Continuous
 62
     7
370
    50
100
AcDbVertex
100
AcDb2dVertex
 10
-346.8600766807978
 20
227.0579801361425
 30
0.0
  0
VERTEX
  5
3E7
330
3DD
100
AcDbEntity
  8
None
  6
Continuous
 62
     7
370
    50
100
AcDbVertex
100
AcDb2dVertex
 10
-340.2350766807974
 20
227.0579801361425
 30
0.0
  0
VERTEX
  5
3E8
330
3DD
100
AcDbEntity
  8
None
  6
Continuous
 62
     7
370
    50
100
AcDbVertex
100
AcDb2dVertex
 10
-334.3600766807978
 20
227.0579801361425
 30
0.0
  0
VERTEX
  5
3E9
330
3DD
100
AcDbEntity
  8
None
  6
Continuous
 62
     7
370
    50
100
AcDbVertex
100
AcDb2dVertex
 10
-334.3600766807978
 20
226.3079801361424
 30
0.0
  0
VERTEX
  5
3EA
330
3DD
100
AcDbEntity
  8
None
  6
Continuous
 62
     7
370
    50
100
AcDbVertex
100
AcDb2dVertex
 10
-340.2350766807974
 20
226.3079801361424
 30
0.0
  0
VERTEX
  5
3EB
330
3DD
100
AcDbEntity
  8
None
  6
Continuous
 62
     7
370
    50
100
AcDbVertex
100
AcDb2dVertex
 10
-340.2350766807974
 20
203.8079801361424
 30
0.0
  0
SEQEND
  5
3EC
330
3DD
100
AcDbEntity
  8
None
  6
Continuous
 62
     7
370
    50
  0
WIPEOUT
  5
3ED
330
6F
100
AcDbEntity
  8
None
  6
Continuous
 62
     7
370
    50
 92
      392
310
88010000040000000C0000000E000000B20000000C00000016000000000000C20C00000014000000010000005C010000070000000E000000A200E26FE17280C0929128F9DA7969400000000000000000A200E26FE17280C08F9128F9DA6169400000000000000000A000E26FE1A780C0A29128F9DA61694000000000000000
310
00A200E26FE1D680C08F9128F9DA6169400000000000000000A200E26FE1D680C0929128F9DA7969400000000000000000A000E26FE1A780C0929128F9DA7969400000000000000000A000E26FE1A780C0929128F9DA496C400000000000000000A200E26FE1D680C0929128F9DA496C400000000000000000A200E26FE1D6
310
80C0979128F9DA616C4000000000000000009F00E26FE1A180C0979128F9DA616C400000000000000000A200E26FE17280C0979128F9DA616C400000000000000000A200E26FE17280C0929128F9DA496C4000000000000000009F00E26FE1A180C0929128F9DA496C4000000000000000009F00E26FE1A180C0929128F9DA
310
7969400000000000000000
100
AcDbWipeout
 90
        0
 10
-538.8600766807979
 20
203.0579801361423
 30
0.0
 11
24.00000000000023
 21
0.0
 31
0.0
 12
0.0
 22
24.00000000000023
 32
0.0
 13
1.0
 23
1.0
340
0
 70
     4
280
     1
281
    50
282
    50
283
     0
360
0
 71
     2
 91
       15
 14
0.0208333333333286
 24
0.4687499999999964
 14
0.0208333333333286
 24
0.5
 14
-0.255208333333325
 24
0.4999999999999769
 14
-0.5
 24
0.5
 14
-0.5
 24
0.4687499999999964
 14
-0.255208333333325
 24
0.4687499999999964
 14
-0.255208333333325
 24
-0.4687499999999947
 14
-0.5
 24
-0.4687499999999947
 14
-0.5
 24
-0.5
 14
-0.2239583333333215
 24
-0.5
 14
0.0208333333333286
 24
-0.5
 14
0.0208333333333286
 24
-0.4687499999999947
 14
-0.2239583333333215
 24
-0.4687499999999947
 14
-0.2239583333333215
 24
0.4687499999999964
 14
0.0208333333333286
 24
0.4687499999999964
  0
POLYLINE
  5
3EE
330
6F
100
AcDbEntity
  8
None
  6
Continuous
 62
     7
370
    50
100
AcDb2dPolyline
 66
     1
 10
0.0
 20
0.0
 30
0.0
 70
     1
  0
VERTEX
  5
3EF
330
3EE
100
AcDbEntity
  8
None
  6
Continuous
 62
     7
370
    50
100
AcDbVertex
100
AcDb2dVertex
 10
-526.3600766807979
 20
203.8079801361424
 30
0.0
  0
VERTEX
  5
3F0
330
3EE
100
AcDbEntity
  8
None
  6
Continuous
 62
     7
370
    50
100
AcDbVertex
100
AcDb2dVertex
 10
-526.3600766807979
 20
203.0579801361423
 30
0.0
  0
VERTEX
  5
3F1
330
3EE
100
AcDbEntity
  8
None
  6
Continuous
 62
     7
370
    50
100
AcDbVertex
100
AcDb2dVertex
 10
-532.9850766807976
 20
203.0579801361428
 30
0.0
  0
VERTEX
  5
3F2
330
3EE
100
AcDbEntity
  8
None
  6
Continuous
 62
     7
370
    50
100
AcDbVertex
100
AcDb2dVertex
 10
-538.8600766807979
 20
203.0579801361423
 30
0.0
  0
VERTEX
  5
3F3
330
3EE
100
AcDbEntity
  8
None
  6
Continuous
 62
     7
370
    50
100
AcDbVertex
100
AcDb2dVertex
 10
-538.8600766807979
 20
203.8079801361424
 30
0.0
  0
VERTEX
  5
3F4
330
3EE
100
AcDbEntity
  8
None
  6
Continuous
 62
     7
370
    50
100
AcDbVertex
100
AcDb2dVertex
 10
-532.9850766807976
 20
203.8079801361424
 30
0.0
  0
VERTEX
  5
3F5
330
3EE
100
AcDbEntity
  8
None
  6
Continuous
 62
     7
370
    50
100
AcDbVertex
100
AcDb2dVertex
 10
-532.9850766807976
 20
226.3079801361424
 30
0.0
  0
VERTEX
  5
3F6
330
3EE
100
AcDbEntity
  8
None
  6
Continuous
 62
     7
370
    50
100
AcDbVertex
100
AcDb2dVertex
 10
-538.8600766807979
 20
226.3079801361424
 30
0.0
  0
VERTEX
  5
3F7
330
3EE
100
AcDbEntity
  8
None
  6
Continuous
 62
     7
370
    50
100
AcDbVertex
100
AcDb2dVertex
 10
-538.8600766807979
 20
227.0579801361425
 30
0.0
  0
VERTEX
  5
3F8
330
3EE
100
AcDbEntity
  8
None
  6
Continuous
 62
     7
370
    50
100
AcDbVertex
100
AcDb2dVertex
 10
-532.2350766807975
 20
227.0579801361425
 30
0.0
  0
VERTEX
  5
3F9
330
3EE
100
AcDbEntity
  8
None
  6
Continuous
 62
     7
370
    50
100
AcDbVertex
100
AcDb2dVertex
 10
-526.3600766807979
 20
227.0579801361425
 30
0.0
  0
VERTEX
  5
3FA
330
3EE
100
AcDbEntity
  8
None
  6
Continuous
 62
     7
370
    50
100
AcDbVertex
100
AcDb2dVertex
 10
-526.3600766807979
 20
226.3079801361424
 30
0.0
  0
VERTEX
  5
3FB
330
3EE
100
AcDbEntity
  8
None
  6
Continuous
 62
     7
370
    50
100
AcDbVertex
100
AcDb2dVertex
 10
-532.2350766807975
 20
226.3079801361424
 30
0.0
  0
VERTEX
  5
3FC
330
3EE
100
AcDbEntity
  8
None
  6
Continuous
 62
     7
370
    50
100
AcDbVertex
100
AcDb2dVertex
 10
-532.2350766807975
 20
203.8079801361424
 30
0.0
  0
SEQEND
  5
3FD
330
3EE
100
AcDbEntity
  8
None
  6
Continuous
 62
     7
370
    50
  0
INSERT
  5
3FE
330
6F
100
AcDbEntity
  8
None
 62
     7
100
AcDbBlockReference
  2
Group-10-1
 10
0.0
 20
0.0
 30
0.0
  0
INSERT
  5
3FF
330
6F
100
AcDbEntity
  8
None
 62
     7
100
AcDbBlockReference
  2
Group-11-1
 10
0.0
 20
0.0
 30
0.0
  0
LINE
  5
400
330
6F
100
AcDbEntity
  8
None
  6
Dash Style-2
 62
     7
370
     9
100
AcDbLine
 10
421.1399233192026
 20
203.0579801361423
 30
0.0
 11
49.63992331920251
 21
203.0579801361423
 31
0.0
  0
LINE
  5
401
330
6F
100
AcDbEntity
  8
None
  6
Dash Style-2
 62
     7
370
     9
100
AcDbLine
 10
597.3899233192024
 20
227.0579801361425
 30
0.0
 11
-142.6100766807979
 21
227.0579801361425
 31
0.0
  0
LINE
  5
402
330
6F
100
AcDbEntity
  8
None
  6
Dash Style-2
 62
     7
370
     9
100
AcDbLine
 10
-346.8600766807978
 20
227.0579801361425
 30
0.0
 11
-713.6100766807976
 21
227.0579801361425
 31
0.0
  0
LINE
  5
403
330
6F
100
AcDbEntity
  8
None
  6
Dash Style-2
 62
     7
370
     9
100
AcDbLine
 10
-346.8600766807978
 20
203.0579801361423
 30
0.0
 11
-526.3600766807979
 21
203.0579801361423
 31
0.0
  0
INSERT
  5
404
330
6F
100
AcDbEntity
  8
None
 62
     7
100
AcDbBlockReference
  2
Group-12-1
 10
0.0
 20
0.0
 30
0.0
  0
INSERT
  5
405
330
6F
100
AcDbEntity
  8
None
 62
     7
100
AcDbBlockReference
  2
Group-13-1
 10
0.0
 20
0.0
 30
0.0
  0
WIPEOUT
  5
406
330
6F
100
AcDbEntity
  8
None
  6
Continuous
 62
     7
370
     9
 92
      152
310
98000000040000000C0000000E000000B20000000C00000016000000000000C20C00000014000000010000006C00000007000000040000007C0288BF85D364C062244ABE76F8834000000000000000003E01C4DFC2C973C062244ABE76F8834000000000000000003E01C4DFC2C973C064244ABE76E0834000000000000000
310
007C0288BF85D364C064244ABE76E083400000000000000000
100
AcDbWipeout
 90
        0
 10
-316.6100766807975
 20
636.0579801361422
 30
0.0
 11
150.0
 21
0.0
 31
0.0
 12
0.0
 22
150.0
 32
0.0
 13
1.0
 23
1.0
340
0
 70
     4
280
     1
281
    50
282
    50
283
     0
360
0
 71
     2
 91
        5
 14
0.5
 24
0.4800000000000004
 14
-0.5
 24
0.4800000000000004
 14
-0.5
 24
0.4999999999999991
 14
0.5
 24
0.4999999999999991
 14
0.5
 24
0.4800000000000004
  0
POLYLINE
  5
407
330
6F
100
AcDbEntity
  8
None
  6
Continuous
 62
     7
370
     9
100
AcDb2dPolyline
 66
     1
 10
0.0
 20
0.0
 30
0.0
 70
     1
  0
VERTEX
  5
408
330
407
100
AcDbEntity
  8
None
  6
Continuous
 62
     7
370
     9
100
AcDbVertex
100
AcDb2dVertex
 10
-166.6100766807975
 20
639.0579801361421
 30
0.0
  0
VERTEX
  5
409
330
407
100
AcDbEntity
  8
None
  6
Continuous
 62
     7
370
     9
100
AcDbVertex
100
AcDb2dVertex
 10
-316.6100766807975
 20
639.0579801361421
 30
0.0
  0
VERTEX
  5
40A
330
407
100
AcDbEntity
  8
None
  6
Continuous
 62
     7
370
     9
100
AcDbVertex
100
AcDb2dVertex
 10
-316.6100766807975
 20
636.0579801361422
 30
0.0
  0
VERTEX
  5
40B
330
407
100
AcDbEntity
  8
None
  6
Continuous
 62
     7
370
     9
100
AcDbVertex
100
AcDb2dVertex
 10
-166.6100766807975
 20
636.0579801361422
 30
0.0
  0
SEQEND
  5
40C
330
407
100
AcDbEntity
  8
None
  6
Continuous
 62
     7
370
     9
  0
SOLID
  5
40D
330
6F
100
AcDbEntity
  8
None
  6
Continuous
 62
     7
370
    15
100
AcDbTrace
 10
-119.6100766807974
 20
552.0579801361425
 30
0.0
 11
-169.6100766807974
 21
552.0579801361425
 31
0.0
 12
-119.6100766807974
 22
535.0579801361424
 32
0.0
 13
-169.6100766807974
 23
535.0579801361424
 33
0.0
  0
INSERT
  5
40E
330
6F
100
AcDbEntity
  8
None
 62
     7
100
AcDbBlockReference
  2
Group-14-1
 10
0.0
 20
0.0
 30
0.0
  0
WIPEOUT
  5
40F
330
6F
100
AcDbEntity
  8
None
  6
Continuous
 62
     7
370
     9
 92
      152
310
98000000040000000C0000000E000000B20000000C00000016000000000000C20C00000014000000010000006C0000000700000004000000FE93DF8EA4E853C062FD5DEB4080824000000000000000000694DF8EA46854C062FD5DEB4080824000000000000000000694DF8EA46854C062FD5DEB4040814000000000000000
310
00FE93DF8EA4E853C062FD5DEB404081400000000000000000
100
AcDbWipeout
 90
        0
 10
-81.63504382928667
 20
552.0316989272072
 30
0.0
 11
40.0
 21
0.0
 31
0.0
 12
0.0
 22
40.0
 32
0.0
 13
1.0
 23
1.0
340
0
 70
     4
280
     1
281
    50
282
    50
283
     0
360
0
 71
     2
 91
        5
 14
-0.4499999999999973
 24
-0.4999999999999982
 14
-0.5000000000000002
 24
-0.4999999999999982
 14
-0.5000000000000002
 24
0.5000000000000018
 14
-0.4499999999999973
 24
0.5000000000000018
 14
-0.4499999999999973
 24
-0.4999999999999982
  0
POLYLINE
  5
410
330
6F
100
AcDbEntity
  8
None
  6
Continuous
 62
     7
370
     9
100
AcDb2dPolyline
 66
     1
 10
0.0
 20
0.0
 30
0.0
 70
     1
  0
VERTEX
  5
411
330
410
100
AcDbEntity
  8
None
  6
Continuous
 62
     7
370
     9
100
AcDbVertex
100
AcDb2dVertex
 10
-79.63504382928656
 20
592.0316989272072
 30
0.0
  0
VERTEX
  5
412
330
410
100
AcDbEntity
  8
None
  6
Continuous
 62
     7
370
     9
100
AcDbVertex
100
AcDb2dVertex
 10
-81.63504382928667
 20
592.0316989272072
 30
0.0
  0
VERTEX
  5
413
330
410
100
AcDbEntity
  8
None
  6
Continuous
 62
     7
370
     9
100
AcDbVertex
100
AcDb2dVertex
 10
-81.63504382928667
 20
552.0316989272072
 30
0.0
  0
VERTEX
  5
414
330
410
100
AcDbEntity
  8
None
  6
Continuous
 62
     7
370
     9
100
AcDbVertex
100
AcDb2dVertex
 10
-79.63504382928656
 20
552.0316989272072
 30
0.0
  0
SEQEND
  5
415
330
410
100
AcDbEntity
  8
None
  6
Continuous
 62
     7
370
     9
  0
ARC
  5
416
330
6F
100
AcDbEntity
  8
None
  6
Continuous
 62
     7
370
     9
100
AcDbCircle
 10
-79.61007668079742
 20
552.0579801361422
 30
0.0
 40
40.02497577687658
100
AcDbArc
 50
92.89997985795333
 51
180.0376215708189
  0
WIPEOUT
  5
417
330
6F
100
AcDbEntity
  8
None
  6
Continuous
 62
     7
370
     9
 92
      152
310
98000000040000000C0000000E000000B20000000C00000016000000000000C20C00000014000000010000006C0000000700000004000000780288BF853365C066244ABE7640814000000000000000002F80BB9A677765C0F8447D477E2F81400000000000000000FC488F2794D46BC03037B26AC9C6824000000000000000
310
005ACB5B4CB2906BC098167FE1C1D782400000000000000000
100
AcDbWipeout
 90
        0
 10
-222.6430852697885
 20
549.9366597925828
 30
0.0
 11
53.03300858899107
 21
0.0
 31
0.0
 12
0.0
 22
53.03300858899107
 32
0.0
 13
1.0
 23
1.0
340
0
 70
     4
280
     1
281
    50
282
    50
283
     0
360
0
 71
     2
 91
        5
 14
0.5
 24
0.4599999999999991
 14
0.4599999999999977
 24
0.5000000000000018
 14
-0.5
 24
-0.460000000000008
 14
-0.4600000000000088
 24
-0.4999999999999964
 14
0.5
 24
0.4599999999999991
  0
POLYLINE
  5
418
330
6F
100
AcDbEntity
  8
None
  6
Continuous
 62
     7
370
     9
100
AcDb2dPolyline
 66
     1
 10
0.0
 20
0.0
 30
0.0
 70
     1
  0
VERTEX
  5
419
330
418
100
AcDbEntity
  8
None
  6
Continuous
 62
     7
370
     9
100
AcDbVertex
100
AcDb2dVertex
 10
-169.6100766807974
 20
552.0579801361425
 30
0.0
  0
VERTEX
  5
41A
330
418
100
AcDbEntity
  8
None
  6
Continuous
 62
     7
370
     9
100
AcDbVertex
100
AcDb2dVertex
 10
-171.7313970243572
 20
549.9366597925828
 30
0.0
  0
VERTEX
  5
41B
330
418
100
AcDbEntity
  8
None
  6
Continuous
 62
     7
370
     9
100
AcDbVertex
100
AcDb2dVertex
 10
-222.6430852697885
 20
600.8483480380147
 30
0.0
  0
VERTEX
  5
41C
330
418
100
AcDbEntity
  8
None
  6
Continuous
 62
     7
370
     9
100
AcDbVertex
100
AcDb2dVertex
 10
-220.5217649262293
 20
602.9696683815738
 30
0.0
  0
SEQEND
  5
41D
330
418
100
AcDbEntity
  8
None
  6
Continuous
 62
     7
370
     9
  0
ARC
  5
41E
330
6F
100
AcDbEntity
  8
None
  6
Continuous
 62
     7
370
     9
100
AcDbCircle
 10
-169.5789293175393
 20
552.1381030865679
 30
0.0
 40
72.0311919251272
100
AcDbArc
 50
137.4496210002654
 51
180.0637322210768
  0
WIPEOUT
  5
41F
330
6F
100
AcDbEntity
  8
None
  6
Continuous
 62
     7
370
     9
 92
      152
310
98000000040000000C0000000E000000B20000000C00000016000000000000C20C00000014000000010000006C00000007000000040000003601C4DFC29973C066244ABE76408140000000000000000065422AF2D17773C0F8447D477E2F81400000000000000000F45DC0AB3B4970C03137B26AC9C6824000000000000000
310
00CF1C5A992C6B70C099167FE1C1D782400000000000000000
100
AcDbWipeout
 90
        0
 10
-313.6100766807971
 20
549.9366597925828
 30
0.0
 11
53.03300858899104
 21
0.0
 31
0.0
 12
0.0
 22
53.03300858899104
 32
0.0
 13
1.0
 23
1.0
340
0
 70
     4
280
     1
281
    50
282
    50
283
     0
360
0
 71
     2
 91
        5
 14
-0.5
 24
0.4599999999999955
 14
-0.4600000000000088
 24
0.4999999999999982
 14
0.5
 24
-0.4600000000000115
 14
0.4599999999999982
 24
-0.5000000000000018
 14
-0.5
 24
0.4599999999999955
  0
POLYLINE
  5
420
330
6F
100
AcDbEntity
  8
None
  6
Continuous
 62
     7
370
     9
100
AcDb2dPolyline
 66
     1
 10
0.0
 20
0.0
 30
0.0
 70
     1
  0
VERTEX
  5
421
330
420
100
AcDbEntity
  8
None
  6
Continuous
 62
     7
370
     9
100
AcDbVertex
100
AcDb2dVertex
 10
-313.6100766807971
 20
552.0579801361425
 30
0.0
  0
VERTEX
  5
422
330
420
100
AcDbEntity
  8
None
  6
Continuous
 62
     7
370
     9
100
AcDbVertex
100
AcDb2dVertex
 10
-311.4887563372379
 20
549.9366597925828
 30
0.0
  0
VERTEX
  5
423
330
420
100
AcDbEntity
  8
None
  6
Continuous
 62
     7
370
     9
100
AcDbVertex
100
AcDb2dVertex
 10
-260.577068091806
 20
600.8483480380147
 30
0.0
  0
VERTEX
  5
424
330
420
100
AcDbEntity
  8
None
  6
Continuous
 62
     7
370
     9
100
AcDbVertex
100
AcDb2dVertex
 10
-262.6983884353658
 20
602.9696683815738
 30
0.0
  0
SEQEND
  5
425
330
420
100
AcDbEntity
  8
None
  6
Continuous
 62
     7
370
     9
  0
ARC
  5
426
330
6F
100
AcDbEntity
  8
None
  6
Continuous
 62
     7
370
     9
100
AcDbCircle
 10
-313.6412240440552
 20
552.1381030865679
 30
0.0
 40
72.0311919251273
100
AcDbArc
 50
359.9362677789232
 51
42.55037899973462
  0
WIPEOUT
  5
427
330
6F
100
AcDbEntity
  8
None
  6
Continuous
 62
     7
370
     9
 92
      152
310
98000000040000000C0000000E000000B20000000C00000016000000000000C20C00000014000000010000006C0000000700000004000000F004107F0BE753C063244ABE768885400000000000000000F804107F0B6754C063244ABE768885400000000000000000F804107F0B6754C063244ABE7648844000000000000000
310
00F004107F0BE753C063244ABE764884400000000000000000
100
AcDbWipeout
 90
        0
 10
-81.61007668079753
 20
649.0579801361422
 30
0.0
 11
40.0
 21
0.0
 31
0.0
 12
0.0
 22
40.0
 32
0.0
 13
1.0
 23
1.0
340
0
 70
     4
280
     1
281
    50
282
    50
283
     0
360
0
 71
     2
 91
        5
 14
-0.4499999999999973
 24
-0.5
 14
-0.5
 24
-0.5
 14
-0.5
 24
0.5
 14
-0.4499999999999973
 24
0.5
 14
-0.4499999999999973
 24
-0.5
  0
POLYLINE
  5
428
330
6F
100
AcDbEntity
  8
None
  6
Continuous
 62
     7
370
     9
100
AcDb2dPolyline
 66
     1
 10
0.0
 20
0.0
 30
0.0
 70
     1
  0
VERTEX
  5
429
330
428
100
AcDbEntity
  8
None
  6
Continuous
 62
     7
370
     9
100
AcDbVertex
100
AcDb2dVertex
 10
-79.61007668079742
 20
689.0579801361422
 30
0.0
  0
VERTEX
  5
42A
330
428
100
AcDbEntity
  8
None
  6
Continuous
 62
     7
370
     9
100
AcDbVertex
100
AcDb2dVertex
 10
-81.61007668079753
 20
689.0579801361422
 30
0.0
  0
VERTEX
  5
42B
330
428
100
AcDbEntity
  8
None
  6
Continuous
 62
     7
370
     9
100
AcDbVertex
100
AcDb2dVertex
 10
-81.61007668079753
 20
649.0579801361422
 30
0.0
  0
VERTEX
  5
42C
330
428
100
AcDbEntity
  8
None
  6
Continuous
 62
     7
370
     9
100
AcDbVertex
100
AcDb2dVertex
 10
-79.61007668079742
 20
649.0579801361422
 30
0.0
  0
SEQEND
  5
42D
330
428
100
AcDbEntity
  8
None
  6
Continuous
 62
     7
370
     9
  0
ARC
  5
42E
330
6F
100
AcDbEntity
  8
None
  6
Continuous
 62
     7
370
     9
100
AcDbCircle
 10
-79.58510953230885
 20
649.0842613450775
 30
0.0
 40
40.02497577687654
100
AcDbArc
 50
92.89997985795249
 51
180.0376215708189
  0
INSERT
  5
42F
330
6F
100
AcDbEntity
  8
None
 62
     7
100
AcDbBlockReference
  2
Group-15-1
 10
0.0
 20
0.0
 30
0.0
  0
SOLID
  5
430
330
6F
100
AcDbEntity
  8
None
  6
Continuous
 62
     7
370
    15
100
AcDbTrace
 10
-26.61007668079695
 20
-559.9420198638577
 30
0.0
 11
-77.61007668079787
 21
-559.9420198638577
 31
0.0
 12
-26.61007668079695
 22
-576.9420198638578
 32
0.0
 13
-77.61007668079787
 23
-576.9420198638578
 33
0.0
  0
SOLID
  5
431
330
6F
100
AcDbEntity
  8
None
  6
Continuous
 62
     7
370
    15
100
AcDbTrace
 10
-26.61007668079695
 20
-648.9420198638578
 30
0.0
 11
-77.61007668079787
 21
-648.9420198638578
 31
0.0
 12
-26.61007668079695
 22
-665.9420198638574
 32
0.0
 13
-77.61007668079787
 23
-665.9420198638574
 33
0.0
  0
WIPEOUT
  5
432
330
6F
100
AcDbEntity
  8
None
  6
Continuous
 62
     7
370
     9
 92
      152
310
98000000040000000C0000000E000000B20000000C00000016000000000000C20C00000014000000010000006C00000007000000040000004CD97F07A4C726409EDBB541890782C000000000000000008CD97F07A4C72A409EDBB541890782C000000000000000008CD97F07A4C72A409EDBB541894783C000000000000000
310
004CD97F07A4C726409EDBB541894783C00000000000000000
100
AcDbWipeout
 90
        0
 10
11.38992331920294
 20
-616.9420198638578
 30
0.0
 11
40.0
 21
0.0
 31
0.0
 12
0.0
 22
40.0
 32
0.0
 13
1.0
 23
1.0
340
0
 70
     4
280
     1
281
    50
282
    50
283
     0
360
0
 71
     2
 91
        5
 14
-0.4999999999999998
 24
-0.4999999999999982
 14
-0.449999999999997
 24
-0.4999999999999982
 14
-0.449999999999997
 24
0.5000000000000018
 14
-0.4999999999999998
 24
0.5000000000000018
 14
-0.4999999999999998
 24
-0.4999999999999982
  0
POLYLINE
  5
433
330
6F
100
AcDbEntity
  8
None
  6
Continuous
 62
     7
370
     9
100
AcDb2dPolyline
 66
     1
 10
0.0
 20
0.0
 30
0.0
 70
     1
  0
VERTEX
  5
434
330
433
100
AcDbEntity
  8
None
  6
Continuous
 62
     7
370
     9
100
AcDbVertex
100
AcDb2dVertex
 10
11.38992331920294
 20
-576.9420198638578
 30
0.0
  0
VERTEX
  5
435
330
433
100
AcDbEntity
  8
None
  6
Continuous
 62
     7
370
     9
100
AcDbVertex
100
AcDb2dVertex
 10
13.38992331920305
 20
-576.9420198638578
 30
0.0
  0
VERTEX
  5
436
330
433
100
AcDbEntity
  8
None
  6
Continuous
 62
     7
370
     9
100
AcDbVertex
100
AcDb2dVertex
 10
13.38992331920305
 20
-616.9420198638578
 30
0.0
  0
VERTEX
  5
437
330
433
100
AcDbEntity
  8
None
  6
Continuous
 62
     7
370
     9
100
AcDbVertex
100
AcDb2dVertex
 10
11.38992331920294
 20
-616.9420198638578
 30
0.0
  0
SEQEND
  5
438
330
433
100
AcDbEntity
  8
None
  6
Continuous
 62
     7
370
     9
  0
ARC
  5
439
330
6F
100
AcDbEntity
  8
None
  6
Continuous
 62
     7
370
     9
100
AcDbCircle
 10
13.41489046769162
 20
-576.9683010727931
 30
0.0
 40
40.02497577687627
100
AcDbArc
 50
179.9623784291815
 51
267.1000201420475
  0
WIPEOUT
  5
43A
330
6F
100
AcDbEntity
  8
None
  6
Continuous
 62
     7
370
     9
 92
      152
310
98000000040000000C0000000E000000B20000000C00000016000000000000C20C00000014000000010000006C00000007000000040000004CD97F07A4C726409ADBB54189CF84C000000000000000008CD97F07A4C72A409ADBB54189CF84C000000000000000008CD97F07A4C72A409ADBB541890F86C000000000000000
310
004CD97F07A4C726409ADBB541890F86C00000000000000000
100
AcDbWipeout
 90
        0
 10
11.38992331920294
 20
-705.9420198638574
 30
0.0
 11
40.0
 21
0.0
 31
0.0
 12
0.0
 22
40.0
 32
0.0
 13
1.0
 23
1.0
340
0
 70
     4
280
     1
281
    50
282
    50
283
     0
360
0
 71
     2
 91
        5
 14
-0.4999999999999998
 24
-0.4999999999999964
 14
-0.449999999999997
 24
-0.4999999999999964
 14
-0.449999999999997
 24
0.5000000000000036
 14
-0.4999999999999998
 24
0.5000000000000036
 14
-0.4999999999999998
 24
-0.4999999999999964
  0
POLYLINE
  5
43B
330
6F
100
AcDbEntity
  8
None
  6
Continuous
 62
     7
370
     9
100
AcDb2dPolyline
 66
     1
 10
0.0
 20
0.0
 30
0.0
 70
     1
  0
VERTEX
  5
43C
330
43B
100
AcDbEntity
  8
None
  6
Continuous
 62
     7
370
     9
100
AcDbVertex
100
AcDb2dVertex
 10
11.38992331920294
 20
-665.9420198638574
 30
0.0
  0
VERTEX
  5
43D
330
43B
100
AcDbEntity
  8
None
  6
Continuous
 62
     7
370
     9
100
AcDbVertex
100
AcDb2dVertex
 10
13.38992331920305
 20
-665.9420198638574
 30
0.0
  0
VERTEX
  5
43E
330
43B
100
AcDbEntity
  8
None
  6
Continuous
 62
     7
370
     9
100
AcDbVertex
100
AcDb2dVertex
 10
13.38992331920305
 20
-705.9420198638574
 30
0.0
  0
VERTEX
  5
43F
330
43B
100
AcDbEntity
  8
None
  6
Continuous
 62
     7
370
     9
100
AcDbVertex
100
AcDb2dVertex
 10
11.38992331920294
 20
-705.9420198638574
 30
0.0
  0
SEQEND
  5
440
330
43B
100
AcDbEntity
  8
None
  6
Continuous
 62
     7
370
     9
  0
ARC
  5
441
330
6F
100
AcDbEntity
  8
None
  6
Continuous
 62
     7
370
     9
100
AcDbCircle
 10
13.41489046769162
 20
-665.9683010727932
 30
0.0
 40
40.02497577687627
100
AcDbArc
 50
179.9623784291807
 51
267.1000201420475
  0
WIPEOUT
  5
442
330
6F
100
AcDbEntity
  8
None
  6
Continuous
 62
     7
370
     9
 92
      152
310
98000000040000000C0000000E000000B20000000C00000016000000000000C20C00000014000000010000006C00000007000000040000001205107F0B675DC09EDBB541890782C000000000000000000A05107F0BE75CC09EDBB541890782C000000000000000000A05107F0BE75CC09EDBB541894783C000000000000000
310
001205107F0B675DC09EDBB541894783C00000000000000000
100
AcDbWipeout
 90
        0
 10
-117.6100766807979
 20
-616.9420198638578
 30
0.0
 11
40.0
 21
0.0
 31
0.0
 12
0.0
 22
40.0
 32
0.0
 13
1.0
 23
1.0
340
0
 70
     4
280
     1
281
    50
282
    50
283
     0
360
0
 71
     2
 91
        5
 14
-0.5000000000000004
 24
-0.4999999999999982
 14
-0.4499999999999975
 24
-0.4999999999999982
 14
-0.4499999999999975
 24
0.5000000000000018
 14
-0.5000000000000004
 24
0.5000000000000018
 14
-0.5000000000000004
 24
-0.4999999999999982
  0
POLYLINE
  5
443
330
6F
100
AcDbEntity
  8
None
  6
Continuous
 62
     7
370
     9
100
AcDb2dPolyline
 66
     1
 10
0.0
 20
0.0
 30
0.0
 70
     1
  0
VERTEX
  5
444
330
443
100
AcDbEntity
  8
None
  6
Continuous
 62
     7
370
     9
100
AcDbVertex
100
AcDb2dVertex
 10
-117.6100766807979
 20
-576.9420198638578
 30
0.0
  0
VERTEX
  5
445
330
443
100
AcDbEntity
  8
None
  6
Continuous
 62
     7
370
     9
100
AcDbVertex
100
AcDb2dVertex
 10
-115.6100766807978
 20
-576.9420198638578
 30
0.0
  0
VERTEX
  5
446
330
443
100
AcDbEntity
  8
None
  6
Continuous
 62
     7
370
     9
100
AcDbVertex
100
AcDb2dVertex
 10
-115.6100766807978
 20
-616.9420198638578
 30
0.0
  0
VERTEX
  5
447
330
443
100
AcDbEntity
  8
None
  6
Continuous
 62
     7
370
     9
100
AcDbVertex
100
AcDb2dVertex
 10
-117.6100766807979
 20
-616.9420198638578
 30
0.0
  0
SEQEND
  5
448
330
443
100
AcDbEntity
  8
None
  6
Continuous
 62
     7
370
     9
  0
ARC
  5
449
330
6F
100
AcDbEntity
  8
None
  6
Continuous
 62
     7
370
     9
100
AcDbCircle
 10
-117.6350438292864
 20
-576.9683010727931
 30
0.0
 40
40.02497577687684
100
AcDbArc
 50
272.8999798579525
 51
0.0376215708185441
  0
WIPEOUT
  5
44A
330
6F
100
AcDbEntity
  8
None
  6
Continuous
 62
     7
370
     9
 92
      152
310
98000000040000000C0000000E000000B20000000C00000016000000000000C20C00000014000000010000006C00000007000000040000001205107F0B675DC09ADBB54189CF84C000000000000000000A05107F0BE75CC09ADBB54189CF84C000000000000000000A05107F0BE75CC09ADBB541890F86C000000000000000
310
001205107F0B675DC09ADBB541890F86C00000000000000000
100
AcDbWipeout
 90
        0
 10
-117.6100766807979
 20
-705.9420198638574
 30
0.0
 11
40.0
 21
0.0
 31
0.0
 12
0.0
 22
40.0
 32
0.0
 13
1.0
 23
1.0
340
0
 70
     4
280
     1
281
    50
282
    50
283
     0
360
0
 71
     2
 91
        5
 14
-0.5000000000000004
 24
-0.4999999999999964
 14
-0.4499999999999975
 24
-0.4999999999999964
 14
-0.4499999999999975
 24
0.5000000000000036
 14
-0.5000000000000004
 24
0.5000000000000036
 14
-0.5000000000000004
 24
-0.4999999999999964
  0
POLYLINE
  5
44B
330
6F
100
AcDbEntity
  8
None
  6
Continuous
 62
     7
370
     9
100
AcDb2dPolyline
 66
     1
 10
0.0
 20
0.0
 30
0.0
 70
     1
  0
VERTEX
  5
44C
330
44B
100
AcDbEntity
  8
None
  6
Continuous
 62
     7
370
     9
100
AcDbVertex
100
AcDb2dVertex
 10
-117.6100766807979
 20
-665.9420198638574
 30
0.0
  0
VERTEX
  5
44D
330
44B
100
AcDbEntity
  8
None
  6
Continuous
 62
     7
370
     9
100
AcDbVertex
100
AcDb2dVertex
 10
-115.6100766807978
 20
-665.9420198638574
 30
0.0
  0
VERTEX
  5
44E
330
44B
100
AcDbEntity
  8
None
  6
Continuous
 62
     7
370
     9
100
AcDbVertex
100
AcDb2dVertex
 10
-115.6100766807978
 20
-705.9420198638574
 30
0.0
  0
VERTEX
  5
44F
330
44B
100
AcDbEntity
  8
None
  6
Continuous
 62
     7
370
     9
100
AcDbVertex
100
AcDb2dVertex
 10
-117.6100766807979
 20
-705.9420198638574
 30
0.0
  0
SEQEND
  5
450
330
44B
100
AcDbEntity
  8
None
  6
Continuous
 62
     7
370
     9
  0
ARC
  5
451
330
6F
100
AcDbEntity
  8
None
  6
Continuous
 62
     7
370
     9
100
AcDbCircle
 10
-117.6350438292864
 20
-665.9683010727932
 30
0.0
 40
40.02497577687626
100
AcDbArc
 50
272.8999798579525
 51
0.0376215708193399
  0
ARC
  5
452
330
6F
100
AcDbEntity
  8
None
  6
Continuous
 62
     7
370
     9
100
AcDbCircle
 10
-713.5807128961321
 20
-565.9697523271523
 30
0.0
 40
36.02774442951729
100
AcDbArc
 50
3.226456152380607
 51
90.04669793085228
  0
INSERT
  5
453
330
6F
100
AcDbEntity
  8
None
 62
     7
100
AcDbBlockReference
  2
Group-16-1
 10
0.0
 20
0.0
 30
0.0
  0
WIPEOUT
  5
454
330
6F
100
AcDbEntity
  8
None
  6
Continuous
 62
     7
370
     9
 92
      152
310
98000000040000000C0000000E000000B20000000C00000016000000000000C20C00000014000000010000006C0000000700000004000000A000E26FE14C86C064244ABE761082400000000000000000A200E26FE14C84C064244ABE761082400000000000000000A200E26FE14C84C063244ABE7628824000000000000000
310
00A000E26FE14C86C063244ABE762882400000000000000000
100
AcDbWipeout
 90
        0
 10
-713.6100766807976
 20
578.0579801361423
 30
0.0
 11
63.99999999999966
 21
0.0
 31
0.0
 12
0.0
 22
63.99999999999966
 32
0.0
 13
1.0
 23
1.0
340
0
 70
     4
280
     1
281
    50
282
    50
283
     0
360
0
 71
     2
 91
        5
 14
-0.4999999999999982
 24
0.4999999999999982
 14
0.5000000000000018
 24
0.4999999999999982
 14
0.5000000000000018
 24
0.453125
 14
-0.4999999999999982
 24
0.453125
 14
-0.4999999999999982
 24
0.4999999999999982
  0
POLYLINE
  5
455
330
6F
100
AcDbEntity
  8
None
  6
Continuous
 62
     7
370
     9
100
AcDb2dPolyline
 66
     1
 10
0.0
 20
0.0
 30
0.0
 70
     1
  0
VERTEX
  5
456
330
455
100
AcDbEntity
  8
None
  6
Continuous
 62
     7
370
     9
100
AcDbVertex
100
AcDb2dVertex
 10
-713.6100766807976
 20
578.0579801361423
 30
0.0
  0
VERTEX
  5
457
330
455
100
AcDbEntity
  8
None
  6
Continuous
 62
     7
370
     9
100
AcDbVertex
100
AcDb2dVertex
 10
-649.610076680798
 20
578.0579801361423
 30
0.0
  0
VERTEX
  5
458
330
455
100
AcDbEntity
  8
None
  6
Continuous
 62
     7
370
     9
100
AcDbVertex
100
AcDb2dVertex
 10
-649.610076680798
 20
581.0579801361422
 30
0.0
  0
VERTEX
  5
459
330
455
100
AcDbEntity
  8
None
  6
Continuous
 62
     7
370
     9
100
AcDbVertex
100
AcDb2dVertex
 10
-713.6100766807976
 20
581.0579801361422
 30
0.0
  0
SEQEND
  5
45A
330
455
100
AcDbEntity
  8
None
  6
Continuous
 62
     7
370
     9
  0
WIPEOUT
  5
45B
330
6F
100
AcDbEntity
  8
None
  6
Continuous
 62
     7
370
     9
 92
      200
310
C8000000040000000C0000000E000000B20000000C00000016000000000000C20C00000014000000010000009C0000000700000006000000A300E26FE10481C062244ABE762882400000000000000000A000E26FE12C83C062244ABE762882400000000000000000A000E26FE12C83C064244ABE7610824000000000000000
310
00A400E26FE1EC80C064244ABE761082400000000000000000A400E26FE1EC80C066244ABE767083400000000000000000A300E26FE10481C066244ABE767083400000000000000000
100
AcDbWipeout
 90
        0
 10
-613.6100766807976
 20
578.0579801361423
 30
0.0
 11
71.99999999999955
 21
0.0
 31
0.0
 12
0.0
 22
71.99999999999955
 32
0.0
 13
1.0
 23
1.0
340
0
 70
     4
280
     1
281
    50
282
    50
283
     0
360
0
 71
     2
 91
        7
 14
0.4583333333333348
 24
0.4583333333333357
 14
-0.5
 24
0.4583333333333357
 14
-0.5
 24
0.5
 14
0.5
 24
0.5
 14
0.5
 24
-0.1111111111111178
 14
0.4583333333333348
 24
-0.1111111111111178
 14
0.4583333333333348
 24
0.4583333333333357
  0
POLYLINE
  5
45C
330
6F
100
AcDbEntity
  8
None
  6
Continuous
 62
     7
370
     9
100
AcDb2dPolyline
 66
     1
 10
0.0
 20
0.0
 30
0.0
 70
     1
  0
VERTEX
  5
45D
330
45C
100
AcDbEntity
  8
None
  6
Continuous
 62
     7
370
     9
100
AcDbVertex
100
AcDb2dVertex
 10
-544.610076680798
 20
581.0579801361422
 30
0.0
  0
VERTEX
  5
45E
330
45C
100
AcDbEntity
  8
None
  6
Continuous
 62
     7
370
     9
100
AcDbVertex
100
AcDb2dVertex
 10
-613.6100766807976
 20
581.0579801361422
 30
0.0
  0
VERTEX
  5
45F
330
45C
100
AcDbEntity
  8
None
  6
Continuous
 62
     7
370
     9
100
AcDbVertex
100
AcDb2dVertex
 10
-613.6100766807976
 20
578.0579801361423
 30
0.0
  0
VERTEX
  5
460
330
45C
100
AcDbEntity
  8
None
  6
Continuous
 62
     7
370
     9
100
AcDbVertex
100
AcDb2dVertex
 10
-541.6100766807981
 20
578.0579801361423
 30
0.0
  0
VERTEX
  5
461
330
45C
100
AcDbEntity
  8
None
  6
Continuous
 62
     7
370
     9
100
AcDbVertex
100
AcDb2dVertex
 10
-541.6100766807981
 20
622.0579801361425
 30
0.0
  0
VERTEX
  5
462
330
45C
100
AcDbEntity
  8
None
  6
Continuous
 62
     7
370
     9
100
AcDbVertex
100
AcDb2dVertex
 10
-544.610076680798
 20
622.0579801361425
 30
0.0
  0
SEQEND
  5
463
330
45C
100
AcDbEntity
  8
None
  6
Continuous
 62
     7
370
     9
  0
WIPEOUT
  5
464
330
6F
100
AcDbEntity
  8
None
  6
Continuous
 62
     7
370
     9
 92
      152
310
98000000040000000C0000000E000000B20000000C00000016000000000000C20C00000014000000010000006C00000007000000040000000FE0AEE6D93D83C0F5447D477E17824000000000000000002B5949787F0984C011BE17D923E382400000000000000000BE797C0187F883C07F9DE44F1CF4824000000000000000
310
00A100E26FE12C83C063244ABE762882400000000000000000
100
AcDbWipeout
 90
        0
 10
-641.1872411470733
 20
578.9366597925824
 30
0.0
 11
27.57716446627569
 21
0.0
 31
0.0
 12
0.0
 22
27.57716446627569
 32
0.0
 13
1.0
 23
1.0
340
0
 70
     4
280
     1
281
    50
282
    50
283
     0
360
0
 71
     2
 91
        5
 14
0.4230769230769162
 24
0.5
 14
-0.5000000000000036
 24
-0.4230769230769198
 14
-0.4230769230769269
 24
-0.5
 14
0.4999999999999964
 24
0.4230769230769198
 14
0.4230769230769162
 24
0.5
  0
POLYLINE
  5
465
330
6F
100
AcDbEntity
  8
None
  6
Continuous
 62
     7
370
     9
100
AcDb2dPolyline
 66
     1
 10
0.0
 20
0.0
 30
0.0
 70
     1
  0
VERTEX
  5
466
330
465
100
AcDbEntity
  8
None
  6
Continuous
 62
     7
370
     9
100
AcDbVertex
100
AcDb2dVertex
 10
-615.7313970243574
 20
578.9366597925824
 30
0.0
  0
VERTEX
  5
467
330
465
100
AcDbEntity
  8
None
  6
Continuous
 62
     7
370
     9
100
AcDbVertex
100
AcDb2dVertex
 10
-641.1872411470733
 20
604.3925039152983
 30
0.0
  0
VERTEX
  5
468
330
465
100
AcDbEntity
  8
None
  6
Continuous
 62
     7
370
     9
100
AcDbVertex
100
AcDb2dVertex
 10
-639.0659208035137
 20
606.5138242588581
 30
0.0
  0
VERTEX
  5
469
330
465
100
AcDbEntity
  8
None
  6
Continuous
 62
     7
370
     9
100
AcDbVertex
100
AcDb2dVertex
 10
-613.6100766807976
 20
581.0579801361422
 30
0.0
  0
SEQEND
  5
46A
330
465
100
AcDbEntity
  8
None
  6
Continuous
 62
     7
370
     9
  0
ARC
  5
46B
330
6F
100
AcDbEntity
  8
None
  6
Continuous
 62
     7
370
     9
100
AcDbCircle
 10
-614.1481620938085
 20
581.4450548852295
 30
0.0
 40
35.46402702790979
100
AcDbArc
 50
139.6794937298271
 51
180.6253714451688
  0
ENDBLK
  5
71
330
6F
100
AcDbEntity
  8
0
100
AcDbBlockEnd
  0
BLOCK
  5
73
330
72
100
AcDbEntity
  8
0
100
AcDbBlockBegin
  2
*D18
 70
     1
 10
0.0
 20
0.0
 30
0.0
  3
*D18
  1

  0
LINE
  5
46C
330
72
100
AcDbEntity
  8
Dimension
  6
Continuous
 62
     0
370
    -2
100
AcDbLine
 10
597.3899233192024
 20
602.5625
 30
0.0
 11
597.3899233192024
 21
803.1249999999999
 31
0.0
  0
LINE
  5
46D
330
72
100
AcDbEntity
  8
Dimension
  6
Continuous
 62
     0
370
    -2
100
AcDbLine
 10
-713.6100766807976
 20
602.5625
 30
0.0
 11
-713.6100766807976
 21
803.1249999999999
 31
0.0
  0
LINE
  5
46E
330
72
100
AcDbEntity
  8
Dimension
  6
Continuous
 62
     0
370
    -2
100
AcDbLine
 10
574.2649233192024
 20
779.9999999999999
 30
0.0
 11
9.027033012491643
 21
779.9999999999999
 31
0.0
  0
LINE
  5
46F
102
{ACAD_REACTORS
330
474
102
}
330
72
100
AcDbEntity
  8
Dimension
  6
Continuous
 62
     0
370
    -2
100
AcDbLine
 10
-690.4850766807976
 20
779.9999999999999
 30
0.0
 11
-125.2471863740871
 21
779.9999999999999
 31
0.0
  0
INSERT
  5
474
330
72
100
AcDbEntity
  8
Dimension
 62
     0
370
    -2
100
AcDbBlockReference
  2
VW_FILLEDARROW
 10
597.3899233192024
 20
779.9999999999999
 30
0.0
 41
23.125
 42
23.125
 43
23.125
  0
INSERT
  5
475
102
{ACAD_REACTORS
330
47A
102
}
330
72
100
AcDbEntity
  8
Dimension
 62
     0
370
    -2
100
AcDbBlockReference
  2
VW_FILLEDARROW
 10
-713.6100766807976
 20
779.9999999999999
 30
0.0
 41
23.125
 42
23.125
 43
23.125
 50
180.0
  0
MTEXT
  5
47A
330
72
100
AcDbEntity
  8
Dimension
 62
     0
370
     9
100
AcDbMText
 10
-58.11007668079765
 20
779.9999999999999
 30
0.0
 40
22.11764227146026
 41
0.0
 71
     5
 72
     1
  1
\A1;109'-3"
  7
Helvetica
 73
     1
 44
1.0
  0
POINT
  5
47B
330
72
100
AcDbEntity
  8
Defpoints
 62
     0
100
AcDbPoint
 10
597.3899233192024
 20
591.0
 30
0.0
  0
POINT
  5
47C
330
72
100
AcDbEntity
  8
Defpoints
 62
     0
100
AcDbPoint
 10
-713.6100766807976
 20
591.0
 30
0.0
  0
POINT
  5
47D
330
72
100
AcDbEntity
  8
Defpoints
 62
     0
100
AcDbPoint
 10
-713.6100766807976
 20
779.9999999999999
 30
0.0
  0
ENDBLK
  5
74
330
72
100
AcDbEntity
  8
0
100
AcDbBlockEnd
  0
BLOCK
  5
76
330
75
100
AcDbEntity
  8
0
100
AcDbBlockBegin
  2
*D19
 70
     1
 10
0.0
 20
0.0
 30
0.0
  3
*D19
  1

  0
LINE
  5
480
330
75
100
AcDbEntity
  8
Dimension
  6
Continuous
 62
     0
370
    -2
100
AcDbLine
 10
-822.6105120593128
 20
-583.9420198638579
 30
0.0
 11
-1157.471394794829
 21
-583.942019863858
 31
0.0
  0
LINE
  5
481
330
75
100
AcDbEntity
  8
Dimension
  6
Continuous
 62
     0
370
    -2
100
AcDbLine
 10
-726.6105120593128
 20
622.0579801361421
 30
0.0
 11
-1157.471394794829
 21
622.057980136142
 31
0.0
  0
LINE
  5
482
330
75
100
AcDbEntity
  8
Dimension
  6
Continuous
 62
     0
370
    -2
100
AcDbLine
 10
-1134.346394794829
 20
-560.817019863858
 30
0.0
 11
-1134.346394794829
 21
5.108534000411851
 31
0.0
  0
LINE
  5
483
102
{ACAD_REACTORS
330
488
102
}
330
75
100
AcDbEntity
  8
Dimension
  6
Continuous
 62
     0
370
    -2
100
AcDbLine
 10
-1134.346394794829
 20
598.932980136142
 30
0.0
 11
-1134.346394794829
 21
33.00742627187196
 31
0.0
  0
INSERT
  5
488
330
75
100
AcDbEntity
  8
Dimension
 62
     0
370
    -2
100
AcDbBlockReference
  2
VW_FILLEDARROW
 10
-1134.346394794829
 20
-583.942019863858
 30
0.0
 41
23.125
 42
23.125
 43
23.125
 50
270.0
  0
INSERT
  5
489
102
{ACAD_REACTORS
330
48E
102
}
330
75
100
AcDbEntity
  8
Dimension
 62
     0
370
    -2
100
AcDbBlockReference
  2
VW_FILLEDARROW
 10
-1134.346394794829
 20
622.057980136142
 30
0.0
 41
23.125
 42
23.125
 43
23.125
 50
90.0
  0
MTEXT
  5
48E
330
75
100
AcDbEntity
  8
Dimension
 62
     0
370
     9
100
AcDbMText
 10
-1134.346394794829
 20
19.05798013614196
 30
0.0
 40
22.11764227146026
 41
0.0
 71
     5
 72
     1
  1
\A1;100'-6"
  7
Helvetica
 73
     1
 44
1.0
  0
POINT
  5
48F
330
75
100
AcDbEntity
  8
Defpoints
 62
     0
100
AcDbPoint
 10
-811.0480120593128
 20
-583.9420198638579
 30
0.0
  0
POINT
  5
490
330
75
100
AcDbEntity
  8
Defpoints
 62
     0
100
AcDbPoint
 10
-715.0480120593128
 20
622.0579801361421
 30
0.0
  0
POINT
  5
491
330
75
100
AcDbEntity
  8
Defpoints
 62
     0
100
AcDbPoint
 10
-1134.346394794829
 20
622.057980136142
 30
0.0
  0
ENDBLK
  5
77
330
75
100
AcDbEntity
  8
0
100
AcDbBlockEnd
  0
BLOCK
  5
79
330
78
100
AcDbEntity
  8
0
100
AcDbBlockBegin
  2
*D20
 70
     1
 10
0.0
 20
0.0
 30
0.0
  3
*D20
  1

  0
LINE
  5
494
330
78
100
AcDbEntity
  8
Dimension
  6
Continuous
 62
     0
370
    -2
100
AcDbLine
 10
-697.2355120593128
 20
215.0579801361409
 30
0.0
 11
-1052.471394794829
 21
215.0579801361408
 31
0.0
  0
LINE
  5
495
330
78
100
AcDbEntity
  8
Dimension
  6
Continuous
 62
     0
370
    -2
100
AcDbLine
 10
-834.1730120593128
 20
-583.9420198638579
 30
0.0
 11
-1052.471394794829
 21
-583.942019863858
 31
0.0
  0
LINE
  5
496
330
78
100
AcDbEntity
  8
Dimension
  6
Continuous
 62
     0
370
    -2
100
AcDbLine
 10
-1029.346394794829
 20
191.9329801361408
 30
0.0
 11
-1029.346394794829
 21
-170.4925737281285
 31
0.0
  0
LINE
  5
497
102
{ACAD_REACTORS
330
49C
102
}
330
78
100
AcDbEntity
  8
Dimension
  6
Continuous
 62
     0
370
    -2
100
AcDbLine
 10
-1029.346394794829
 20
-560.817019863858
 30
0.0
 11
-1029.346394794829
 21
-198.3914659995887
 31
0.0
  0
INSERT
  5
49C
330
78
100
AcDbEntity
  8
Dimension
 62
     0
370
    -2
100
AcDbBlockReference
  2
VW_FILLEDARROW
 10
-1029.346394794829
 20
215.0579801361408
 30
0.0
 41
23.125
 42
23.125
 43
23.125
 50
90.0
  0
INSERT
  5
49D
102
{ACAD_REACTORS
330
4A2
102
}
330
78
100
AcDbEntity
  8
Dimension
 62
     0
370
    -2
100
AcDbBlockReference
  2
VW_FILLEDARROW
 10
-1029.346394794829
 20
-583.942019863858
 30
0.0
 41
23.125
 42
23.125
 43
23.125
 50
270.0
  0
MTEXT
  5
4A2
330
78
100
AcDbEntity
  8
Dimension
 62
     0
370
     9
100
AcDbMText
 10
-1029.346394794829
 20
-184.4420198638586
 30
0.0
 40
22.11764227146026
 41
0.0
 71
     5
 72
     1
  1
\A1;66'-7"
  7
Helvetica
 73
     1
 44
1.0
  0
POINT
  5
4A3
330
78
100
AcDbEntity
  8
Defpoints
 62
     0
100
AcDbPoint
 10
-685.6730120593128
 20
215.0579801361409
 30
0.0
  0
POINT
  5
4A4
330
78
100
AcDbEntity
  8
Defpoints
 62
     0
100
AcDbPoint
 10
-822.6105120593128
 20
-583.9420198638579
 30
0.0
  0
POINT
  5
4A5
330
78
100
AcDbEntity
  8
Defpoints
 62
     0
100
AcDbPoint
 10
-1029.346394794829
 20
-583.942019863858
 30
0.0
  0
ENDBLK
  5
7A
330
78
100
AcDbEntity
  8
0
100
AcDbBlockEnd
  0
BLOCK
  5
7C
330
7B
100
AcDbEntity
  8
0
100
AcDbBlockBegin
  2
*D21
 70
     1
 10
0.0
 20
0.0
 30
0.0
  3
*D21
  1

  0
LINE
  5
4A8
330
7B
100
AcDbEntity
  8
Dimension
  6
Continuous
 62
     0
370
    -2
100
AcDbLine
 10
-761.9088947948294
 20
622.0579801361421
 30
0.0
 11
-1052.471394794829
 21
622.0579801361421
 31
0.0
  0
LINE
  5
4A9
330
7B
100
AcDbEntity
  8
Dimension
  6
Continuous
 62
     0
370
    -2
100
AcDbLine
 10
-543.7975766807975
 20
215.0579801361424
 30
0.0
 11
-1052.471394794829
 21
215.0579801361424
 31
0.0
  0
LINE
  5
4AA
330
7B
100
AcDbEntity
  8
Dimension
  6
Continuous
 62
     0
370
    -2
100
AcDbLine
 10
-1029.346394794829
 20
598.9329801361421
 30
0.0
 11
-1029.346394794829
 21
432.5074262718723
 31
0.0
  0
LINE
  5
4AB
102
{ACAD_REACTORS
330
4B0
102
}
330
7B
100
AcDbEntity
  8
Dimension
  6
Continuous
 62
     0
370
    -2
100
AcDbLine
 10
-1029.346394794829
 20
238.1829801361424
 30
0.0
 11
-1029.346394794829
 21
404.6085340004121
 31
0.0
  0
INSERT
  5
4B0
330
7B
100
AcDbEntity
  8
Dimension
 62
     0
370
    -2
100
AcDbBlockReference
  2
VW_FILLEDARROW
 10
-1029.346394794829
 20
622.0579801361421
 30
0.0
 41
23.125
 42
23.125
 43
23.125
 50
90.0
  0
INSERT
  5
4B1
102
{ACAD_REACTORS
330
4B6
102
}
330
7B
100
AcDbEntity
  8
Dimension
 62
     0
370
    -2
100
AcDbBlockReference
  2
VW_FILLEDARROW
 10
-1029.346394794829
 20
215.0579801361424
 30
0.0
 41
23.125
 42
23.125
 43
23.125
 50
270.0
  0
MTEXT
  5
4B6
330
7B
100
AcDbEntity
  8
Dimension
 62
     0
370
     9
100
AcDbMText
 10
-1029.346394794829
 20
418.5579801361422
 30
0.0
 40
22.11764227146026
 41
0.0
 71
     5
 72
     1
  1
\A1;33'-11"
  7
Helvetica
 73
     1
 44
1.0
  0
POINT
  5
4B7
330
7B
100
AcDbEntity
  8
Defpoints
 62
     0
100
AcDbPoint
 10
-750.3463947948294
 20
622.0579801361421
 30
0.0
  0
POINT
  5
4B8
330
7B
100
AcDbEntity
  8
Defpoints
 62
     0
100
AcDbPoint
 10
-532.2350766807975
 20
215.0579801361424
 30
0.0
  0
POINT
  5
4B9
330
7B
100
AcDbEntity
  8
Defpoints
 62
     0
100
AcDbPoint
 10
-1029.346394794829
 20
215.0579801361424
 30
0.0
  0
ENDBLK
  5
7D
330
7B
100
AcDbEntity
  8
0
100
AcDbBlockEnd
  0
BLOCK
  5
7F
330
7E
100
AcDbEntity
  8
0
100
AcDbBlockBegin
  2
Group-18-1
 70
     0
 10
0.0
 20
0.0
 30
0.0
  3
Group-18-1
  1

  0
LINE
  5
4BC
330
7E
100
AcDbEntity
  8
None
  6
Dash Style-3
 62
     7
370
    15
100
AcDbLine
 10
-930.6100766807976
 20
622.0579801361426
 30
0.0
 11
-930.6100766807976
 21
581.0579801361423
 31
0.0
  0
LINE
  5
4BD
330
7E
100
AcDbEntity
  8
None
  6
Dash Style-3
 62
     7
370
    15
100
AcDbLine
 10
-1389.610076680798
 20
622.0579801361426
 30
0.0
 11
-930.6100766807976
 21
622.0579801361426
 31
0.0
  0
LINE
  5
4BE
330
7E
100
AcDbEntity
  8
None
  6
Dash Style-3
 62
     7
370
    15
100
AcDbLine
 10
-1389.610076680798
 20
533.0579801361424
 30
0.0
 11
-1389.610076680798
 21
622.0579801361426
 31
0.0
  0
LINE
  5
4BF
330
7E
100
AcDbEntity
  8
None
  6
Dash Style-3
 62
     7
370
    15
100
AcDbLine
 10
-1413.346394794829
 20
533.0579801361424
 30
0.0
 11
-1389.610076680798
 21
533.0579801361424
 31
0.0
  0
LINE
  5
4C0
330
7E
100
AcDbEntity
  8
None
  6
Dash Style-3
 62
     7
370
    15
100
AcDbLine
 10
-1403.610076680798
 20
550.0579801361425
 30
0.0
 11
-1413.346394794829
 21
550.0579801361425
 31
0.0
  0
LINE
  5
4C1
330
7E
100
AcDbEntity
  8
None
  6
Dash Style-3
 62
     7
370
    15
100
AcDbLine
 10
-1403.610076680798
 20
622.0579801361426
 30
0.0
 11
-1403.610076680798
 21
550.0579801361425
 31
0.0
  0
LINE
  5
4C2
330
7E
100
AcDbEntity
  8
None
  6
Dash Style-3
 62
     7
370
    15
100
AcDbLine
 10
-1413.346394794829
 20
622.0579801361426
 30
0.0
 11
-1403.610076680798
 21
622.0579801361426
 31
0.0
  0
LINE
  5
4C3
330
7E
100
AcDbEntity
  8
None
  6
Dash Style-3
 62
     7
370
    15
100
AcDbLine
 10
-831.6100766807974
 20
649.0579801361422
 30
0.0
 11
-1413.346394794829
 21
649.0579801361422
 31
0.0
  0
LINE
  5
4C4
330
7E
100
AcDbEntity
  8
None
  6
Dash Style-3
 62
     7
370
    15
100
AcDbLine
 10
-831.6100766807974
 20
581.0579801361423
 30
0.0
 11
-831.6100766807974
 21
649.0579801361422
 31
0.0
  0
LINE
  5
4C5
330
7E
100
AcDbEntity
  8
None
  6
Dash Style-3
 62
     7
370
    15
100
AcDbLine
 10
-930.6100766807976
 20
581.0579801361423
 30
0.0
 11
-831.6100766807974
 21
581.0579801361423
 31
0.0
  0
LINE
  5
4C6
330
7E
100
AcDbEntity
  8
None
  6
Dash Style-3
 62
     7
370
    15
100
AcDbLine
 10
-831.6100766807974
 20
-610.9420198638577
 30
0.0
 11
-831.6100766807974
 21
-583.9420198638575
 31
0.0
  0
LINE
  5
4C7
330
7E
100
AcDbEntity
  8
None
  6
Dash Style-3
 62
     7
370
    15
100
AcDbLine
 10
-1413.346394794829
 20
-610.9420198638577
 30
0.0
 11
-831.6100766807974
 21
-610.9420198638577
 31
0.0
  0
LINE
  5
4C8
330
7E
100
AcDbEntity
  8
None
  6
Dash Style-3
 62
     7
370
    15
100
AcDbLine
 10
-831.6100766807974
 20
-583.9420198638575
 30
0.0
 11
-1413.346394794829
 21
-583.9420198638575
 31
0.0
  0
ENDBLK
  5
80
330
7E
100
AcDbEntity
  8
0
100
AcDbBlockEnd
  0
BLOCK
  5
99
330
98
100
AcDbEntity
  8
0
100
AcDbBlockBegin
  2
VW_SLASH
 70
     0
 10
0.0
 20
0.0
 30
0.0
  3
VW_SLASH
  1

  0
INSERT
  5
9B
330
98
100
AcDbEntity
  8
None
  6
ByBlock
 62
     0
370
    -2
100
AcDbBlockReference
  2

 10
0.0
 20
0.0
 30
0.0
  0
LINE
  5
9C
330
98
100
AcDbEntity
  8
None
  6
ByBlock
 62
     0
370
    -2
100
AcDbLine
 10
0.0
 20
0.0
 30
0.0
 11
-1.0
 21
0.0
 31
0.0
  0
POLYLINE
  5
9D
330
98
100
AcDbEntity
  8
None
  6
Continuous
 62
     0
370
    20
100
AcDb2dPolyline
 66
     1
 10
0.0
 20
0.0
 30
0.0
  0
VERTEX
  5
9E
330
9D
100
AcDbEntity
  8
None
  6
Continuous
 62
     0
370
    20
100
AcDbVertex
100
AcDb2dVertex
 10
0.3513091552037657
 20
0.3513091552037657
 30
0.0
  0
VERTEX
  5
9F
330
9D
100
AcDbEntity
  8
None
  6
Continuous
 62
     0
370
    20
100
AcDbVertex
100
AcDb2dVertex
 10
-0.3513091552037657
 20
-0.3513091552037657
 30
0.0
  0
SEQEND
  5
A0
330
9D
100
AcDbEntity
  8
None
  6
Continuous
 62
     0
370
    20
  0
ENDBLK
  5
9A
330
98
100
AcDbEntity
  8
0
100
AcDbBlockEnd
  0
BLOCK
  5
A2
330
A1
100
AcDbEntity
  8
0
100
AcDbBlockBegin
  2
VW_FILLEDARROW
 70
     0
 10
0.0
 20
0.0
 30
0.0
  3
VW_FILLEDARROW
  1

  0
INSERT
  5
A4
330
A1
100
AcDbEntity
  8
None
  6
ByBlock
 62
     0
370
    -2
100
AcDbBlockReference
  2

 10
0.0
 20
0.0
 30
0.0
  0
POLYLINE
  5
A5
102
{ACAD_REACTORS
330
AA
102
}
330
A1
100
AcDbEntity
  8
None
  6
Continuous
 62
     0
370
     5
100
AcDb2dPolyline
 66
     1
 10
0.0
 20
0.0
 30
0.0
 70
     1
  0
VERTEX
  5
A6
330
A5
100
AcDbEntity
  8
None
  6
Continuous
 62
     0
370
     5
100
AcDbVertex
100
AcDb2dVertex
 10
-0.9936523437500001
 20
0.2662483430651049
 30
0.0
  0
VERTEX
  5
A7
330
A5
100
AcDbEntity
  8
None
  6
Continuous
 62
     0
370
     5
100
AcDbVertex
100
AcDb2dVertex
 10
0.0
 20
0.0
 30
0.0
  0
VERTEX
  5
A8
330
A5
100
AcDbEntity
  8
None
  6
Continuous
 62
     0
370
     5
100
AcDbVertex
100
AcDb2dVertex
 10
-0.9936523437500001
 20
-0.2662483430651051
 30
0.0
  0
SEQEND
  5
A9
330
A5
100
AcDbEntity
  8
None
  6
Continuous
 62
     0
370
     5
  0
HATCH
  5
AA
330
A1
100
AcDbEntity
  8
None
  6
Continuous
 62
     0
370
     0
100
AcDbHatch
 10
0.0
 20
0.0
 30
0.0
210
0.0
220
0.0
230
1.0
  2
SOLID
 70
     1
 71
     1
 91
        1
 92
        1
 93
        3
 72
     1
 10
-0.9936523437500001
 20
0.2662483430651049
 11
0.0
 21
0.0
 72
     1
 10
0.0
 20
0.0
 11
-0.9936523437500001
 21
-0.2662483430651051
 72
     1
 10
-0.9936523437500001
 20
-0.2662483430651051
 11
-0.9936523437500001
 21
0.2662483430651049
 97
        1
330
A5
 75
     0
 76
     1
 98
        1
 10
0.0
 20
0.0
  0
ENDBLK
  5
A3
330
A1
100
AcDbEntity
  8
0
100
AcDbBlockEnd
  0
ENDSEC
  0
SECTION
  2
ENTITIES
  0
POLYLINE
  5
4C9
330
1F
100
AcDbEntity
  8
None
  6
Continuous
 62
     7
370
    60
100
AcDb2dPolyline
 66
     1
 10
0.0
 20
0.0
 30
0.0
 70
     1
  0
VERTEX
  5
4CA
330
4C9
100
AcDbEntity
  8
None
  6
Continuous
 62
     7
370
    60
100
AcDbVertex
100
AcDb2dVertex
 10
-1483.641732283465
 20
926.8208661417324
 30
0.0
  0
VERTEX
  5
4CB
330
4C9
100
AcDbEntity
  8
None
  6
Continuous
 62
     7
370
    60
100
AcDbVertex
100
AcDb2dVertex
 10
1476.358267716535
 20
926.8208661417324
 30
0.0
  0
VERTEX
  5
4CC
330
4C9
100
AcDbEntity
  8
None
  6
Continuous
 62
     7
370
    60
100
AcDbVertex
100
AcDb2dVertex
 10
1476.358267716535
 20
-923.1791338582677
 30
0.0
  0
VERTEX
  5
4CD
330
4C9
100
AcDbEntity
  8
None
  6
Continuous
 62
     7
370
    60
100
AcDbVertex
100
AcDb2dVertex
 10
-1483.641732283465
 20
-923.1791338582677
 30
0.0
  0
SEQEND
  5
4CE
330
4C9
100
AcDbEntity
  8
None
  6
Continuous
 62
     7
370
    60
  0
POLYLINE
  5
4CF
330
1F
100
AcDbEntity
  8
None
  6
Continuous
 62
     7
370
    60
100
AcDb2dPolyline
 66
     1
 10
0.0
 20
0.0
 30
0.0
 70
     1
  0
VERTEX
  5
4D0
330
4CF
100
AcDbEntity
  8
None
  6
Continuous
 62
     7
370
    60
100
AcDbVertex
100
AcDb2dVertex
 10
-1483.641732283465
 20
926.8208661417324
 30
0.0
  0
VERTEX
  5
4D1
330
4CF
100
AcDbEntity
  8
None
  6
Continuous
 62
     7
370
    60
100
AcDbVertex
100
AcDb2dVertex
 10
828.8582677165354
 20
926.8208661417324
 30
0.0
  0
VERTEX
  5
4D2
330
4CF
100
AcDbEntity
  8
None
  6
Continuous
 62
     7
370
    60
100
AcDbVertex
100
AcDb2dVertex
 10
828.8582677165354
 20
-923.1791338582677
 30
0.0
  0
VERTEX
  5
4D3
330
4CF
100
AcDbEntity
  8
None
  6
Continuous
 62
     7
370
    60
100
AcDbVertex
100
AcDb2dVertex
 10
-1483.641732283465
 20
-923.1791338582677
 30
0.0
  0
SEQEND
  5
4D4
330
4CF
100
AcDbEntity
  8
None
  6
Continuous
 62
     7
370
    60
  0
WIPEOUT
  5
4D5
330
1F
100
AcDbEntity
  8
None
  6
Continuous
 62
     7
370
     5
 92
      152
310
98000000040000000C0000000E000000B20000000C00000016000000000000C20C00000014000000010000006C0000000700000004000000D48321CDD2BF8C40882D9D19C94972400000000000000000CFFA1EBA7EAC9540882D9D19C94972400000000000000000CFFA1EBA7EAC954086AD3A4EBB4B834000000000000000
310
00D48321CDD2BF8C4086AD3A4EBB4B83400000000000000000
100
AcDbWipeout
 90
        0
 10
919.9779303186755
 20
292.611596693016
 30
0.0
 11
467.1458265516495
 21
0.0
 31
0.0
 12
0.0
 22
467.1458265516495
 32
0.0
 13
1.0
 23
1.0
340
0
 70
     4
280
     1
281
    50
282
    50
283
     0
360
0
 71
     2
 91
        5
 14
-0.4999999999999998
 24
0.4999999999999999
 14
0.5000000000000004
 24
0.4999999999999999
 14
0.5000000000000004
 24
-0.1954035392098146
 14
-0.4999999999999998
 24
-0.1954035392098146
 14
-0.4999999999999998
 24
0.4999999999999999
  0
MTEXT
  5
4D6
330
1F
100
AcDbEntity
  8
None
 62
     7
100
AcDbMText
 10
1153.5508435945
 20
606.5212831820595
 30
0.0
 40
34.94510315571019
 41
0.0
 71
     2
 72
     1
  1
2400 BOUNDARY ROAD\PBURNABY, B.C. V5M 3Z3\PCANADA\P\P{\H0.8947x;\lT: 604•482•2000\P}{\H0.8947x;\lF: 604•482•2007\P}
  7
Arial Narrow
 73
     1
 44
0.9301738196474555
  0
WIPEOUT
  5
4D7
330
1F
100
AcDbEntity
  8
None
  6
Continuous
 62
     7
370
     5
 92
      152
310
98000000040000000C0000000E000000B20000000C00000016000000000000C20C00000014000000010000006C0000000700000004000000E6800C6F1D718B4090A6E3FD79DC5F4000000000000000001EEB30E2570F954090A6E3FD79DC5F4000000000000000001EEB30E2570F95406E50C426BA286B4000000000000000
310
00E6800C6F1D718B406E50C426BA286B400000000000000000
100
AcDbWipeout
 90
        0
 10
878.1393719651068
 20
127.4449457858229
 30
0.0
 11
469.6964518229166
 21
0.0
 31
0.0
 12
0.0
 22
469.6964518229166
 32
0.0
 13
1.0
 23
1.0
340
0
 70
     4
280
     1
281
    50
282
    50
283
     0
360
0
 71
     2
 91
        5
 14
-0.5000000000000002
 24
0.5
 14
0.5
 24
0.5
 14
0.5
 24
0.3087535525781568
 14
-0.5000000000000002
 24
0.3087535525781568
 14
-0.5000000000000002
 24
0.5
  0
MTEXT
  5
4D8
330
1F
100
AcDbEntity
  8
None
 62
     7
100
AcDbMText
 10
1112.987597876565
 20
199.7604441682926
 30
0.0
 40
55.91216504913628
 41
0.0
 71
     2
 72
     1
  1
SOUND STAGE
  7
Arial Narrow (bold)
 73
     1
 44
1.446475657041058
  0
POLYLINE
  5
4D9
330
1F
100
AcDbEntity
  8
None
  6
Continuous
 62
     7
370
    60
100
AcDb2dPolyline
 66
     1
 10
0.0
 20
0.0
 30
0.0
 70
     1
  0
VERTEX
  5
4DA
330
4D9
100
AcDbEntity
  8
None
  6
Continuous
 62
     7
370
    60
100
AcDbVertex
100
AcDb2dVertex
 10
828.8582677165354
 20
-485.625
 30
0.0
  0
VERTEX
  5
4DB
330
4D9
100
AcDbEntity
  8
None
  6
Continuous
 62
     7
370
    60
100
AcDbVertex
100
AcDb2dVertex
 10
1476.358267716535
 20
-485.625
 30
0.0
  0
VERTEX
  5
4DC
330
4D9
100
AcDbEntity
  8
None
  6
Continuous
 62
     7
370
    60
100
AcDbVertex
100
AcDb2dVertex
 10
1476.358267716535
 20
-923.1791338582677
 30
0.0
  0
VERTEX
  5
4DD
330
4D9
100
AcDbEntity
  8
None
  6
Continuous
 62
     7
370
    60
100
AcDbVertex
100
AcDb2dVertex
 10
828.8582677165354
 20
-923.1791338582677
 30
0.0
  0
SEQEND
  5
4DE
330
4D9
100
AcDbEntity
  8
None
  6
Continuous
 62
     7
370
    60
  0
MTEXT
  5
4DF
330
1F
100
AcDbEntity
  8
None
 62
     7
100
AcDbMText
 10
886.8403796171533
 20
70.47357536946524
 30
0.0
 40
41.93412378685221
 41
0.0
 71
     1
 72
     1
  1
FEATURES\P{\H0.7083x;\l•10,979 sq. ft.\P•SOUNDPROOF\P•ELEPHANT DOORS\P•1800 amps 120/208V \P•GRID = 7,500 pounds per truss\P•REVERB. TIME = 1 sec. @ 500hz}
  7
Arial Narrow
 73
     1
 44
0.9818501429612032
  0
INSERT
  5
4E0
330
1F
100
AcDbEntity
  8
elements-ojects
 62
     7
100
AcDbBlockReference
  2
Group-1
 10
0.0
 20
0.0
 30
0.0
 41
185.0
 42
185.0
 43
185.0
  0
WIPEOUT
  5
4E1
330
1F
100
AcDbEntity
  8
None
  6
Continuous
 62
     7
370
     5
 92
      152
310
98000000040000000C0000000E000000B20000000C00000016000000000000C20C00000014000000010000006C0000000700000004000000BAEEE49A994695407B711DADBC4A53400000000000000000F47C68DB348796407B711DADBC4A53400000000000000000F47C68DB348796402C2914F87B74714000000000000000
310
00BAEEE49A994695402C2914F87B7471400000000000000000
100
AcDbWipeout
 90
        0
 10
1361.65000493724
 20
77.16776588321036
 30
0.0
 11
202.1125
 21
0.0
 31
0.0
 12
0.0
 22
202.1125
 32
0.0
 13
1.0
 23
1.0
340
0
 70
     4
280
     1
281
    50
282
    50
283
     0
360
0
 71
     2
 91
        5
 14
-0.5000000000000009
 24
0.4999999999999998
 14
-0.1034306968225343
 24
0.4999999999999998
 14
-0.1034306968225343
 24
-0.5000000000000001
 14
-0.5000000000000009
 24
-0.5000000000000001
 14
-0.5000000000000009
 24
0.4999999999999998
  0
MTEXT
  5
4E2
330
1F
100
AcDbEntity
  8
None
 62
     7
100
AcDbMText
 10
1401.725811581467
 20
239.877637243767
 30
0.0
 40
125.8023713605567
 41
0.0
 71
     2
 72
     1
  1
3
  7
Arial Narrow (bold)
 73
     1
 44
0.6428780697960256
  0
LINE
  5
4E3
330
1F
100
AcDbEntity
  8
None
  6
Continuous
 62
     7
370
    40
100
AcDbLine
 10
1343.160207052887
 20
120.8134415004084
 30
0.0
 11
885.7708320528873
 21
120.8134415004084
 31
0.0
  0
MTEXT
  5
4E4
330
1F
100
AcDbEntity
  8
None
 62
     7
100
AcDbMText
 10
872.4758395413326
 20
-519.3009724570113
 30
0.0
 40
36.78431911127387
 41
0.0
 71
     1
 72
     1
  1
SITE LEGEND\P
  7
Arial Narrow
 73
     1
 44
1.178220171553443
  0
INSERT
  5
4E5
330
1F
100
AcDbEntity
  8
None
 62
     7
100
AcDbBlockReference
  2
Group-4-1
 10
0.0
 20
0.0
 30
0.0
 41
185.0
 42
185.0
 43
185.0
  0
INSERT
  5
4E6
330
1F
100
AcDbEntity
  8
None
 62
     7
100
AcDbBlockReference
  2
Group-8-1
 10
0.0
 20
0.0
 30
0.0
  0
INSERT
  5
4E7
330
1F
100
AcDbEntity
  8
None
 62
     7
100
AcDbBlockReference
  2
Group-17-1
 10
0.0
 20
0.0
 30
0.0
  0
DIMENSION
  5
4E8
330
1F
100
AcDbEntity
  8
Dimension
  6
Continuous
 62
     1
370
     9
100
AcDbDimension
  2
*D18
 10
-713.6100766807976
 20
779.9999999999999
 30
0.0
 11
-58.11007668079765
 21
779.9999999999999
 31
0.0
 70
    32
 71
     5
 42
1311.0
  3
ASME
100
AcDbAlignedDimension
 13
597.3899233192024
 23
591.0
 33
0.0
 14
-713.6100766807976
 24
591.0
 34
0.0
100
AcDbRotatedDimension
1001
ACAD
1000
DSTYLE
1002
{
1070
   147
1040
2.890625
1070
   340
1005
84
1002
}
  0
DIMENSION
  5
4E9
330
1F
100
AcDbEntity
  8
Dimension
  6
Continuous
 62
     1
370
     9
100
AcDbDimension
  2
*D19
 10
-1134.346394794829
 20
622.057980136142
 30
0.0
 11
-1134.346394794829
 21
19.05798013614196
 31
0.0
 70
    32
 71
     5
 42
1206.0
  3
ASME
100
AcDbAlignedDimension
 13
-811.0480120593128
 23
-583.9420198638579
 33
0.0
 14
-715.0480120593128
 24
622.0579801361421
 34
0.0
 50
-90.0
100
AcDbRotatedDimension
1001
ACAD
1000
DSTYLE
1002
{
1070
   147
1040
2.890625
1070
   340
1005
84
1002
}
  0
DIMENSION
  5
4EA
330
1F
100
AcDbEntity
  8
Dimension
  6
Continuous
 62
     1
370
     9
100
AcDbDimension
  2
*D20
 10
-1029.346394794829
 20
-583.942019863858
 30
0.0
 11
-1029.346394794829
 21
-184.4420198638586
 31
0.0
 70
    32
 71
     5
 42
798.9999999999987
  3
ASME
100
AcDbAlignedDimension
 13
-685.6730120593128
 23
215.0579801361409
 33
0.0
 14
-822.6105120593128
 24
-583.9420198638579
 34
0.0
 50
-90.0
100
AcDbRotatedDimension
1001
ACAD
1000
DSTYLE
1002
{
1070
   147
1040
2.890625
1070
   340
1005
84
1002
}
  0
DIMENSION
  5
4EB
330
1F
100
AcDbEntity
  8
Dimension
  6
Continuous
 62
     1
370
     9
100
AcDbDimension
  2
*D21
 10
-1029.346394794829
 20
215.0579801361424
 30
0.0
 11
-1029.346394794829
 21
418.5579801361422
 31
0.0
 70
    32
 71
     5
 42
406.9999999999997
  3
ASME
100
AcDbAlignedDimension
 13
-750.3463947948294
 23
622.0579801361421
 33
0.0
 14
-532.2350766807975
 24
215.0579801361424
 34
0.0
 50
-90.0
100
AcDbRotatedDimension
1001
ACAD
1000
DSTYLE
1002
{
1070
   147
1040
2.890625
1070
   340
1005
84
1002
}
  0
WIPEOUT
  5
4EC
330
1F
100
AcDbEntity
  8
None
  6
Continuous
 62
     1
370
     9
 92
      152
310
98000000040000000C0000000E000000B20000000C00000016000000000000C20C00000014000000010000006C0000000700000004000000980239F0827487C000000060664879C00000000000000000980239F0827487C000000000574B4CC00000000000000000B5C9AA0C4A9488C000000000574B4CC000000000000000
310
00B5C9AA0C4A9488C000000060664879C00000000000000000
100
AcDbWipeout
 90
        0
 10
-786.5361569731527
 20
-404.5249938964844
 30
0.0
 11
347.9364013671875
 21
0.0
 31
0.0
 12
0.0
 22
347.9364013671875
 32
0.0
 13
1.0
 23
1.0
340
0
 70
     4
280
     1
281
    50
282
    50
283
     0
360
0
 71
     2
 91
        5
 14
-0.3966126508152858
 24
0.4999999999999999
 14
-0.3966126508152858
 24
-0.5
 14
-0.5
 24
-0.5
 14
-0.5
 24
0.4999999999999999
 14
-0.3966126508152858
 24
0.4999999999999999
  0
MTEXT
  5
4ED
330
1F
100
AcDbEntity
  8
None
 62
     1
100
AcDbMText
 10
-784.6414618454119
 20
-404.5249938964844
 30
0.0
 40
25.8039159833703
 41
0.0
 71
     1
 72
     1
  1
Acoustical Separation
  7
Helvetica
 11
0.0
 21
1.0
 31
0.0
 73
     1
 44
0.8397955333929319
  0
WIPEOUT
  5
4EE
330
1F
100
AcDbEntity
  8
None
  6
Continuous
 62
     1
370
     9
 92
      152
310
98000000040000000C0000000E000000B20000000C00000016000000000000C20C00000014000000010000006C0000000700000004000000CB055A295A8070C046444444444A724000000000000000006EF44BAD0731644046444444444A724000000000000000006EF44BAD073164409C9999999937744000000000000000
310
00CB055A295A8070C09C999999993774400000000000000000
100
AcDbWipeout
 90
        0
 10
-264.0220120922573
 20
292.6416666666667
 30
0.0
 11
425.55419921875
 21
0.0
 31
0.0
 12
0.0
 22
425.55419921875
 32
0.0
 13
1.0
 23
1.0
340
0
 70
     4
280
     1
281
    50
282
    50
283
     0
360
0
 71
     2
 91
        5
 14
-0.5000000000000001
 24
0.4999999999999999
 14
0.5000000000000001
 24
0.4999999999999999
 14
0.5000000000000001
 24
0.4275454609778531
 14
-0.5000000000000001
 24
0.4275454609778531
 14
-0.5000000000000001
 24
0.4999999999999999
  0
MTEXT
  5
4EF
330
1F
100
AcDbEntity
  8
None
 62
     1
100
AcDbMText
 10
-264.0220120922573
 20
321.8509756047936
 30
0.0
 40
22.11764227146026
 41
0.0
 71
     1
 72
     1
  1
Height to U.S. of Truss = 19'-7"
  7
Helvetica
 73
     1
 44
0.8397955333929318
  0
LINE
  5
4F0
330
1F
100
AcDbEntity
  8
None
  6
Continuous
 62
     1
370
     9
100
AcDbLine
 10
161.59397157367
 20
314.0
 30
0.0
 11
235.389923319203
 21
314.0
 31
0.0
  0
POLYLINE
  5
4F1
102
{ACAD_REACTORS
330
4F6
102
}
330
1F
100
AcDbEntity
  8
None
  6
Continuous
 62
     1
370
     5
100
AcDb2dPolyline
 66
     1
 10
0.0
 20
0.0
 30
0.0
 70
     1
  0
VERTEX
  5
4F2
330
4F1
100
AcDbEntity
  8
None
  6
Continuous
 62
     1
370
     5
100
AcDbVertex
100
AcDb2dVertex
 10
212.264923319203
 20
320.1963250749697
 30
0.0
  0
VERTEX
  5
4F3
330
4F1
100
AcDbEntity
  8
None
  6
Continuous
 62
     1
370
     5
100
AcDbVertex
100
AcDb2dVertex
 10
235.389923319203
 20
314.0
 30
0.0
  0
VERTEX
  5
4F4
330
4F1
100
AcDbEntity
  8
None
  6
Continuous
 62
     1
370
     5
100
AcDbVertex
100
AcDb2dVertex
 10
212.264923319203
 20
307.8036749250303
 30
0.0
  0
SEQEND
  5
4F5
330
4F1
100
AcDbEntity
  8
None
  6
Continuous
 62
     1
370
     5
  0
HATCH
  5
4F6
330
1F
100
AcDbEntity
  8
None
  6
Continuous
 62
     1
370
     0
100
AcDbHatch
 10
0.0
 20
0.0
 30
0.0
210
0.0
220
0.0
230
1.0
  2
SOLID
 70
     1
 71
     1
 91
        1
 92
        1
 93
        3
 72
     1
 10
212.264923319203
 20
320.1963250749697
 11
235.389923319203
 21
314.0
 72
     1
 10
235.389923319203
 20
314.0
 11
212.264923319203
 21
307.8036749250303
 72
     1
 10
212.264923319203
 20
307.8036749250303
 11
212.264923319203
 21
320.1963250749697
 97
        1
330
4F1
 75
     0
 76
     1
 98
        1
 10
0.0
 20
0.0
  0
WIPEOUT
  5
4F7
330
1F
100
AcDbEntity
  8
None
  6
Continuous
 62
     1
370
     9
 92
      152
310
98000000040000000C0000000E000000B20000000C00000016000000000000C20C00000014000000010000006C0000000700000004000000CB055A295A8070C02C22222222524D4000000000000000006EF44BAD073164402C22222222524D4000000000000000006EF44BAD073164406C666666665E564000000000000000
310
00CB055A295A8070C06C666666665E56400000000000000000
100
AcDbWipeout
 90
        0
 10
-264.0220120922573
 20
58.64166666666671
 30
0.0
 11
425.55419921875
 21
0.0
 31
0.0
 12
0.0
 22
425.55419921875
 32
0.0
 13
1.0
 23
1.0
340
0
 70
     4
280
     1
281
    50
282
    50
283
     0
360
0
 71
     2
 91
        5
 14
-0.5000000000000001
 24
0.4999999999999999
 14
0.5000000000000001
 24
0.4999999999999999
 14
0.5000000000000001
 24
0.4275454609778532
 14
-0.5000000000000001
 24
0.4275454609778532
 14
-0.5000000000000001
 24
0.4999999999999999
  0
MTEXT
  5
4F8
330
1F
100
AcDbEntity
  8
None
 62
     1
100
AcDbMText
 10
-264.0220120922573
 20
87.85097560479362
 30
0.0
 40
22.11764227146026
 41
0.0
 71
     1
 72
     1
  1
Height to U.S. of Truss = 38'-7"
  7
Helvetica
 73
     1
 44
0.8397955333929318
  0
LINE
  5
4F9
330
1F
100
AcDbEntity
  8
None
  6
Continuous
 62
     1
370
     9
100
AcDbLine
 10
162.9544643291744
 20
79.99999999999997
 30
0.0
 11
238.8592826741046
 21
79.99999999999997
 31
0.0
  0
POLYLINE
  5
4FA
102
{ACAD_REACTORS
330
4FF
102
}
330
1F
100
AcDbEntity
  8
None
  6
Continuous
 62
     1
370
     5
100
AcDb2dPolyline
 66
     1
 10
0.0
 20
0.0
 30
0.0
 70
     1
  0
VERTEX
  5
4FB
330
4FA
100
AcDbEntity
  8
None
  6
Continuous
 62
     1
370
     5
100
AcDbVertex
100
AcDb2dVertex
 10
215.7342826741046
 20
86.19632507496968
 30
0.0
  0
VERTEX
  5
4FC
330
4FA
100
AcDbEntity
  8
None
  6
Continuous
 62
     1
370
     5
100
AcDbVertex
100
AcDb2dVertex
 10
238.8592826741046
 20
79.99999999999997
 30
0.0
  0
VERTEX
  5
4FD
330
4FA
100
AcDbEntity
  8
None
  6
Continuous
 62
     1
370
     5
100
AcDbVertex
100
AcDb2dVertex
 10
215.7342826741046
 20
73.80367492503025
 30
0.0
  0
SEQEND
  5
4FE
330
4FA
100
AcDbEntity
  8
None
  6
Continuous
 62
     1
370
     5
  0
HATCH
  5
4FF
330
1F
100
AcDbEntity
  8
None
  6
Continuous
 62
     1
370
     0
100
AcDbHatch
 10
0.0
 20
0.0
 30
0.0
210
0.0
220
0.0
230
1.0
  2
SOLID
 70
     1
 71
     1
 91
        1
 92
        1
 93
        3
 72
     1
 10
215.7342826741046
 20
86.19632507496968
 11
238.8592826741046
 21
79.99999999999997
 72
     1
 10
238.8592826741046
 20
79.99999999999997
 11
215.7342826741046
 21
73.80367492503025
 72
     1
 10
215.7342826741046
 20
73.80367492503025
 11
215.7342826741046
 21
86.19632507496968
 97
        1
330
4FA
 75
     0
 76
     1
 98
        1
 10
0.0
 20
0.0
  0
LINE
  5
500
330
1F
100
AcDbEntity
  8
None
  6
Continuous
 62
     1
370
     9
100
AcDbLine
 10
-262.8797681436893
 20
314.0
 30
0.0
 11
-342.3463947948294
 21
314.0
 31
0.0
  0
POLYLINE
  5
501
102
{ACAD_REACTORS
330
506
102
}
330
1F
100
AcDbEntity
  8
None
  6
Continuous
 62
     1
370
     5
100
AcDb2dPolyline
 66
     1
 10
0.0
 20
0.0
 30
0.0
 70
     1
  0
VERTEX
  5
502
330
501
100
AcDbEntity
  8
None
  6
Continuous
 62
     1
370
     5
100
AcDbVertex
100
AcDb2dVertex
 10
-319.2213947948294
 20
307.8036749250303
 30
0.0
  0
VERTEX
  5
503
330
501
100
AcDbEntity
  8
None
  6
Continuous
 62
     1
370
     5
100
AcDbVertex
100
AcDb2dVertex
 10
-342.3463947948294
 20
314.0
 30
0.0
  0
VERTEX
  5
504
330
501
100
AcDbEntity
  8
None
  6
Continuous
 62
     1
370
     5
100
AcDbVertex
100
AcDb2dVertex
 10
-319.2213947948294
 20
320.1963250749697
 30
0.0
  0
SEQEND
  5
505
330
501
100
AcDbEntity
  8
None
  6
Continuous
 62
     1
370
     5
  0
HATCH
  5
506
330
1F
100
AcDbEntity
  8
None
  6
Continuous
 62
     1
370
     0
100
AcDbHatch
 10
0.0
 20
0.0
 30
0.0
210
0.0
220
0.0
230
1.0
  2
SOLID
 70
     1
 71
     1
 91
        1
 92
        1
 93
        3
 72
     1
 10
-319.2213947948294
 20
307.8036749250303
 11
-342.3463947948294
 21
314.0
 72
     1
 10
-342.3463947948294
 20
314.0
 11
-319.2213947948294
 21
320.1963250749697
 72
     1
 10
-319.2213947948294
 20
320.1963250749697
 11
-319.2213947948294
 21
307.8036749250303
 97
        1
330
501
 75
     0
 76
     1
 98
        1
 10
0.0
 20
0.0
  0
LINE
  5
507
330
1F
100
AcDbEntity
  8
None
  6
Continuous
 62
     1
370
     9
100
AcDbLine
 10
-262.8797681436893
 20
79.99999999999997
 30
0.0
 11
-338.5743516918175
 21
79.99999999999997
 31
0.0
  0
POLYLINE
  5
508
102
{ACAD_REACTORS
330
50D
102
}
330
1F
100
AcDbEntity
  8
None
  6
Continuous
 62
     1
370
     5
100
AcDb2dPolyline
 66
     1
 10
0.0
 20
0.0
 30
0.0
 70
     1
  0
VERTEX
  5
509
330
508
100
AcDbEntity
  8
None
  6
Continuous
 62
     1
370
     5
100
AcDbVertex
100
AcDb2dVertex
 10
-315.4493516918175
 20
73.80367492503025
 30
0.0
  0
VERTEX
  5
50A
330
508
100
AcDbEntity
  8
None
  6
Continuous
 62
     1
370
     5
100
AcDbVertex
100
AcDb2dVertex
 10
-338.5743516918175
 20
79.99999999999997
 30
0.0
  0
VERTEX
  5
50B
330
508
100
AcDbEntity
  8
None
  6
Continuous
 62
     1
370
     5
100
AcDbVertex
100
AcDb2dVertex
 10
-315.4493516918175
 20
86.19632507496968
 30
0.0
  0
SEQEND
  5
50C
330
508
100
AcDbEntity
  8
None
  6
Continuous
 62
     1
370
     5
  0
HATCH
  5
50D
330
1F
100
AcDbEntity
  8
None
  6
Continuous
 62
     1
370
     0
100
AcDbHatch
 10
0.0
 20
0.0
 30
0.0
210
0.0
220
0.0
230
1.0
  2
SOLID
 70
     1
 71
     1
 91
        1
 92
        1
 93
        3
 72
     1
 10
-315.4493516918175
 20
73.80367492503025
 11
-338.5743516918175
 21
79.99999999999997
 72
     1
 10
-338.5743516918175
 20
79.99999999999997
 11
-315.4493516918175
 21
86.19632507496968
 72
     1
 10
-315.4493516918175
 20
86.19632507496968
 11
-315.4493516918175
 21
73.80367492503025
 97
        1
330
508
 75
     0
 76
     1
 98
        1
 10
0.0
 20
0.0
  0
INSERT
  5
50E
330
1F
100
AcDbEntity
  8
None
 62
     7
100
AcDbBlockReference
  2
Group-18-1
 10
0.0
 20
0.0
 30
0.0
  0
WIPEOUT
  5
50F
330
1F
100
AcDbEntity
  8
None
  6
Continuous
 62
     1
370
     9
 92
      152
310
98000000040000000C0000000E000000B20000000C00000016000000000000C20C00000014000000010000006C0000000700000004000000A151ABCE4E4A73C0A898404144218440000000000000000098F8ABF2471266C0A898404144218440000000000000000098F8ABF2471266C0E126247AD2EE844000000000000000
310
00A151ABCE4E4A73C0E126247AD2EE84400000000000000000
100
AcDbWipeout
 90
        0
 10
-308.6442400638717
 20
644.1583275839412
 30
0.0
 11
132.0729573567708
 21
0.0
 31
0.0
 12
0.0
 22
132.0729573567708
 32
0.0
 13
1.0
 23
1.0
340
0
 70
     4
280
     1
281
    50
282
    50
283
     0
360
0
 71
     2
 91
        5
 14
-0.4999999999999996
 24
0.5
 14
0.5000000000000004
 24
0.5
 14
0.5000000000000004
 24
0.3054526455780371
 14
-0.4999999999999996
 24
0.3054526455780371
 14
-0.4999999999999996
 24
0.5
  0
MTEXT
  5
510
330
1F
100
AcDbEntity
  8
None
 62
     1
100
AcDbMText
 10
-308.6442400638717
 20
668.4994183657136
 30
0.0
 40
18.43136855955022
 41
0.0
 71
     1
 72
     1
  1
12' Loading
  7
Helvetica
 73
     1
 44
0.8397955333929318
  0
VIEWPORT
  5
511
330
1B
100
AcDbEntity
 67
     1
  8
0
100
AcDbViewport
 10
5.25
 20
4.0
 30
0.0
 40
11.638
 41
8.993
 68
     1
 69
     1
 12
5.25
 22
4.0
 13
0.0
 23
0.0
 14
0.5
 24
0.5
 15
0.5
 25
0.5
 16
0.0
 26
0.0
 36
1.0
 17
0.0
 27
0.0
 37
0.0
 42
50.0
 43
0.0
 44
0.0
 45
8.993
 50
0.0
 51
0.0
 72
   100
 90
   557152
  1

281
     0
 71
     1
 74
     0
110
0.0
120
0.0
130
0.0
111
1.0
121
0.0
131
0.0
112
0.0
122
1.0
132
0.0
 79
     0
146
0.0
  0
ENDSEC
  0
SECTION
  2
OBJECTS
  0
DICTIONARY
  5
C
330
0
100
AcDbDictionary
281
     1
  3
ACAD_GROUP
350
D
  3
ACAD_LAYOUT
350
1A
  3
ACAD_MATERIAL
350
3B
  3
ACAD_MLEADERSTYLE
350
514
  3
ACAD_MLINESTYLE
350
17
  3
ACAD_PLOTSETTINGS
350
19
  3
ACAD_PLOTSTYLENAME
350
E
  3
ACAD_SCALELIST
350
1CC
  3
ACAD_VISUALSTYLE
350
2A
  3
ACAD_WIPEOUT_VARS
350
81
  3
AcDbVariableDictionary
350
512
  0
DICTIONARY
  5
D
102
{ACAD_REACTORS
330
C
102
}
330
C
100
AcDbDictionary
281
     1
  0
DICTIONARY
  5
1A
102
{ACAD_REACTORS
330
C
102
}
330
C
100
AcDbDictionary
281
     1
  3
Layout1
350
1E
  3
Model
350
22
  0
DICTIONARY
  5
3B
102
{ACAD_REACTORS
330
C
102
}
330
C
100
AcDbDictionary
281
     1
  3
ByBlock
350
3D
  3
ByLayer
350
3C
  3
Global
350
3E
  0
DICTIONARY
  5
514
102
{ACAD_REACTORS
330
C
102
}
330
C
100
AcDbDictionary
281
     1
  0
DICTIONARY
  5
17
102
{ACAD_REACTORS
330
C
102
}
330
C
100
AcDbDictionary
281
     1
  3
Standard
350
18
  0
DICTIONARY
  5
19
102
{ACAD_REACTORS
330
C
102
}
330
C
100
AcDbDictionary
281
     1
  0
ACDBDICTIONARYWDFLT
  5
E
102
{ACAD_REACTORS
330
C
102
}
330
C
100
AcDbDictionary
281
     1
  3
Normal
350
F
100
AcDbDictionaryWithDefault
340
F
  0
DICTIONARY
  5
1CC
102
{ACAD_REACTORS
330
C
102
}
330
C
100
AcDbDictionary
281
     1
  3
A0
350
1CD
  3
A1
350
1CE
  3
A2
350
1CF
  3
A3
350
1D0
  3
A4
350
1D1
  3
A5
350
1D2
  3
A6
350
1D3
  3
A7
350
1D4
  3
A8
350
1D5
  3
A9
350
1D6
  3
B0
350
1D7
  3
B1
350
1D8
  3
B2
350
1D9
  3
B3
350
1DA
  3
B4
350
1DB
  3
B5
350
1DC
  3
B6
350
1DD
  3
B7
350
1DE
  3
B8
350
1DF
  3
B9
350
1E0
  3
C0
350
1E1
  3
C1
350
1E2
  3
C2
350
1E3
  3
C3
350
1E4
  3
C4
350
1E5
  3
C5
350
1E6
  3
C6
350
1E7
  3
C7
350
1E8
  3
C8
350
1E9
  3
C9
350
1EA
  3
D0
350
1EB
  3
D1
350
1EC
  3
D2
350
1ED
  0
DICTIONARY
  5
2A
102
{ACAD_REACTORS
330
C
102
}
330
C
100
AcDbDictionary
281
     1
  3
2dWireframe
350
2F
  3
3D Hidden
350
31
  3
3dWireframe
350
30
  3
Basic
350
32
  3
Brighten
350
36
  3
ColorChange
350
3A
  3
Conceptual
350
34
  3
Dim
350
35
  3
Facepattern
350
39
  3
Flat
350
2B
  3
FlatWithEdges
350
2C
  3
Gouraud
350
2D
  3
GouraudWithEdges
350
2E
  3
Linepattern
350
38
  3
Realistic
350
33
  3
Thicken
350
37
  0
WIPEOUTVARIABLES
  5
81
102
{ACAD_REACTORS
330
C
102
}
330
C
100
AcDbWipeoutVariables
 70
     0
  0
DICTIONARY
  5
512
102
{ACAD_REACTORS
330
C
102
}
330
C
100
AcDbDictionary
281
     1
  3
CANNOSCALE
350
515
  3
DIMASSOC
350
516
  3
HIDETEXT
350
517
  0
LAYOUT
  5
1E
102
{ACAD_REACTORS
330
1A
102
}
330
1A
100
AcDbPlotSettings
  1

  2
none_device
  4
Letter_(8.50_x_11.00_Inches)
  6

 40
6.35
 41
6.35
 42
6.35001
 43
6.35001
 44
215.9
 45
279.4
 46
0.0
 47
0.0
 48
0.0
 49
0.0
140
0.0
141
0.0
142
1.0
143
1.0
 70
   688
 72
     0
 73
     1
 74
     5
  7

 75
    16
147
1.0
148
0.0
149
0.0
100
AcDbLayout
  1
Layout1
 70
     1
 71
     1
 10
-0.25
 20
-0.25
 11
10.75
 21
8.25
 12
0.0
 22
0.0
 32
0.0
 14
1.000000000000000E+20
 24
1.000000000000000E+20
 34
1.000000000000000E+20
 15
-1.000000000000000E+20
 25
-1.000000000000000E+20
 35
-1.000000000000000E+20
146
0.0
 13
0.0
 23
0.0
 33
0.0
 16
1.0
 26
0.0
 36
0.0
 17
0.0
 27
1.0
 37
0.0
 76
     0
330
1B
331
511
  0
LAYOUT
  5
22
102
{ACAD_REACTORS
330
1A
102
}
330
1A
100
AcDbPlotSettings
  1

  2
none_device
  4

  6

 40
0.0
 41
0.0
 42
0.0
 43
0.0
 44
0.0
 45
0.0
 46
0.0
 47
0.0
 48
0.0
 49
0.0
140
0.0
141
0.0
142
1.0
143
1.0
 70
  1712
 72
     0
 73
     0
 74
     0
  7

 75
     0
147
1.0
148
0.0
149
0.0
100
AcDbLayout
  1
Model
 70
     1
 71
     0
 10
0.0
 20
0.0
 11
12.0
 21
9.0
 12
0.0
 22
0.0
 32
0.0
 14
-1483.641732283465
 24
-923.1791338582677
 34
-15.2625
 15
1476.358267716535
 25
926.8208661417324
 35
15.2625
146
0.0
 13
0.0
 23
0.0
 33
0.0
 16
1.0
 26
0.0
 36
0.0
 17
0.0
 27
1.0
 37
0.0
 76
     0
330
1F
331
29
  0
MATERIAL
  5
3D
102
{ACAD_REACTORS
330
3B
102
}
102
{ACAD_XDICTIONARY
360
53A
102
}
330
3B
100
AcDbMaterial
  1
ByBlock
  0
MATERIAL
  5
3C
102
{ACAD_REACTORS
330
3B
102
}
102
{ACAD_XDICTIONARY
360
538
102
}
330
3B
100
AcDbMaterial
  1
ByLayer
  0
MATERIAL
  5
3E
102
{ACAD_REACTORS
330
3B
102
}
102
{ACAD_XDICTIONARY
360
53C
102
}
330
3B
100
AcDbMaterial
  1
Global
  0
MLINESTYLE
  5
18
102
{ACAD_REACTORS
330
17
102
}
330
17
100
AcDbMlineStyle
  2
Standard
 70
     0
  3

 62
   256
 51
90.0
 52
90.0
 71
     2
 49
0.5
 62
   256
  6
BYLAYER
 49
-0.5
 62
   256
  6
BYLAYER
  0
ACDBPLACEHOLDER
  5
F
102
{ACAD_REACTORS
330
E
102
}
330
E
  0
SCALE
  5
1CD
102
{ACAD_REACTORS
330
1CC
102
}
330
1CC
100
AcDbScale
 70
     0
300
1:1
140
1.0
141
1.0
290
     1
  0
SCALE
  5
1CE
102
{ACAD_REACTORS
330
1CC
102
}
330
1CC
100
AcDbScale
 70
     0
300
1:2
140
1.0
141
2.0
290
     0
  0
SCALE
  5
1CF
102
{ACAD_REACTORS
330
1CC
102
}
330
1CC
100
AcDbScale
 70
     0
300
1:4
140
1.0
141
4.0
290
     0
  0
SCALE
  5
1D0
102
{ACAD_REACTORS
330
1CC
102
}
330
1CC
100
AcDbScale
 70
     0
300
1:5
140
1.0
141
5.0
290
     0
  0
SCALE
  5
1D1
102
{ACAD_REACTORS
330
1CC
102
}
330
1CC
100
AcDbScale
 70
     0
300
1:8
140
1.0
141
8.0
290
     0
  0
SCALE
  5
1D2
102
{ACAD_REACTORS
330
1CC
102
}
330
1CC
100
AcDbScale
 70
     0
300
1:10
140
1.0
141
10.0
290
     0
  0
SCALE
  5
1D3
102
{ACAD_REACTORS
330
1CC
102
}
330
1CC
100
AcDbScale
 70
     0
300
1:16
140
1.0
141
16.0
290
     0
  0
SCALE
  5
1D4
102
{ACAD_REACTORS
330
1CC
102
}
330
1CC
100
AcDbScale
 70
     0
300
1:20
140
1.0
141
20.0
290
     0
  0
SCALE
  5
1D5
102
{ACAD_REACTORS
330
1CC
102
}
330
1CC
100
AcDbScale
 70
     0
300
1:30
140
1.0
141
30.0
290
     0
  0
SCALE
  5
1D6
102
{ACAD_REACTORS
330
1CC
102
}
330
1CC
100
AcDbScale
 70
     0
300
1:40
140
1.0
141
40.0
290
     0
  0
SCALE
  5
1D7
102
{ACAD_REACTORS
330
1CC
102
}
330
1CC
100
AcDbScale
 70
     0
300
1:50
140
1.0
141
50.0
290
     0
  0
SCALE
  5
1D8
102
{ACAD_REACTORS
330
1CC
102
}
330
1CC
100
AcDbScale
 70
     0
300
1:100
140
1.0
141
100.0
290
     0
  0
SCALE
  5
1D9
102
{ACAD_REACTORS
330
1CC
102
}
330
1CC
100
AcDbScale
 70
     0
300
2:1
140
2.0
141
1.0
290
     0
  0
SCALE
  5
1DA
102
{ACAD_REACTORS
330
1CC
102
}
330
1CC
100
AcDbScale
 70
     0
300
4:1
140
4.0
141
1.0
290
     0
  0
SCALE
  5
1DB
102
{ACAD_REACTORS
330
1CC
102
}
330
1CC
100
AcDbScale
 70
     0
300
8:1
140
8.0
141
1.0
290
     0
  0
SCALE
  5
1DC
102
{ACAD_REACTORS
330
1CC
102
}
330
1CC
100
AcDbScale
 70
     0
300
10:1
140
10.0
141
1.0
290
     0
  0
SCALE
  5
1DD
102
{ACAD_REACTORS
330
1CC
102
}
330
1CC
100
AcDbScale
 70
     0
300
100:1
140
100.0
141
1.0
290
     0
  0
SCALE
  5
1DE
102
{ACAD_REACTORS
330
1CC
102
}
330
1CC
100
AcDbScale
 70
     0
300
1/128" = 1'-0"
140
0.0078125
141
12.0
290
     0
  0
SCALE
  5
1DF
102
{ACAD_REACTORS
330
1CC
102
}
330
1CC
100
AcDbScale
 70
     0
300
1/64" = 1'-0"
140
0.015625
141
12.0
290
     0
  0
SCALE
  5
1E0
102
{ACAD_REACTORS
330
1CC
102
}
330
1CC
100
AcDbScale
 70
     0
300
1/32" = 1'-0"
140
0.03125
141
12.0
290
     0
  0
SCALE
  5
1E1
102
{ACAD_REACTORS
330
1CC
102
}
330
1CC
100
AcDbScale
 70
     0
300
1/16" = 1'-0"
140
0.0625
141
12.0
290
     0
  0
SCALE
  5
1E2
102
{ACAD_REACTORS
330
1CC
102
}
330
1CC
100
AcDbScale
 70
     0
300
3/32" = 1'-0"
140
0.09375
141
12.0
290
     0
  0
SCALE
  5
1E3
102
{ACAD_REACTORS
330
1CC
102
}
330
1CC
100
AcDbScale
 70
     0
300
1/8" = 1'-0"
140
0.125
141
12.0
290
     0
  0
SCALE
  5
1E4
102
{ACAD_REACTORS
330
1CC
102
}
330
1CC
100
AcDbScale
 70
     0
300
3/16" = 1'-0"
140
0.1875
141
12.0
290
     0
  0
SCALE
  5
1E5
102
{ACAD_REACTORS
330
1CC
102
}
330
1CC
100
AcDbScale
 70
     0
300
1/4" = 1'-0"
140
0.25
141
12.0
290
     0
  0
SCALE
  5
1E6
102
{ACAD_REACTORS
330
1CC
102
}
330
1CC
100
AcDbScale
 70
     0
300
3/8" = 1'-0"
140
0.375
141
12.0
290
     0
  0
SCALE
  5
1E7
102
{ACAD_REACTORS
330
1CC
102
}
330
1CC
100
AcDbScale
 70
     0
300
1/2" = 1'-0"
140
0.5
141
12.0
290
     0
  0
SCALE
  5
1E8
102
{ACAD_REACTORS
330
1CC
102
}
330
1CC
100
AcDbScale
 70
     0
300
3/4" = 1'-0"
140
0.75
141
12.0
290
     0
  0
SCALE
  5
1E9
102
{ACAD_REACTORS
330
1CC
102
}
330
1CC
100
AcDbScale
 70
     0
300
1" = 1'-0"
140
1.0
141
12.0
290
     0
  0
SCALE
  5
1EA
102
{ACAD_REACTORS
330
1CC
102
}
330
1CC
100
AcDbScale
 70
     0
300
1-1/2" = 1'-0"
140
1.5
141
12.0
290
     0
  0
SCALE
  5
1EB
102
{ACAD_REACTORS
330
1CC
102
}
330
1CC
100
AcDbScale
 70
     0
300
3" = 1'-0"
140
3.0
141
12.0
290
     0
  0
SCALE
  5
1EC
102
{ACAD_REACTORS
330
1CC
102
}
330
1CC
100
AcDbScale
 70
     0
300
6" = 1'-0"
140
6.0
141
12.0
290
     0
  0
SCALE
  5
1ED
102
{ACAD_REACTORS
330
1CC
102
}
330
1CC
100
AcDbScale
 70
     0
300
1'-0" = 1'-0"
140
12.0
141
12.0
290
     0
  0
VISUALSTYLE
  5
2F
102
{ACAD_REACTORS
330
2A
102
}
102
{ACAD_XDICTIONARY
360
520
102
}
330
2A
100
AcDbVisualStyle
  2
2dWireframe
 70
     4
 71
     0
 72
     2
 73
     0
 90
        0
 40
-0.6
 41
-30.0
 62
     5
 63
     7
 74
     1
 91
        4
 64
     7
 65
   257
 75
     1
175
     1
 42
1.0
 92
        0
 66
   257
 43
1.0
 76
     1
 77
     6
 78
     2
 67
     7
 79
     5
170
     0
171
     0
290
     0
174
     0
 93
        1
 44
0.0
173
     0
291
     0
 45
0.0
1001
ACAD
1000
AcDbSavedByObjectVersion
1070
     0
  0
VISUALSTYLE
  5
31
102
{ACAD_REACTORS
330
2A
102
}
102
{ACAD_XDICTIONARY
360
524
102
}
330
2A
100
AcDbVisualStyle
  2
3D Hidden
 70
     6
 71
     1
 72
     2
 73
     2
 90
        0
 40
-0.6
 41
-30.0
 62
     5
 63
     7
 74
     2
 91
        2
 64
     7
 65
   257
 75
     2
175
     1
 42
40.0
 92
        0
 66
   257
 43
1.0
 76
     1
 77
     6
 78
     2
 67
     7
 79
     3
170
     0
171
     0
290
     0
174
     0
 93
        1
 44
0.0
173
     0
291
     0
 45
0.0
1001
ACAD
1000
AcDbSavedByObjectVersion
1070
     0
  0
VISUALSTYLE
  5
30
102
{ACAD_REACTORS
330
2A
102
}
102
{ACAD_XDICTIONARY
360
522
102
}
330
2A
100
AcDbVisualStyle
  2
3dWireframe
 70
     5
 71
     0
 72
     2
 73
     0
 90
        0
 40
-0.6
 41
-30.0
 62
     5
 63
     7
 74
     1
 91
        4
 64
     7
 65
   257
 75
     1
175
     1
 42
1.0
 92
        0
 66
   257
 43
1.0
 76
     1
 77
     6
 78
     2
 67
     7
 79
     5
170
     0
171
     0
290
     0
174
     0
 93
        1
 44
0.0
173
     0
291
     0
 45
0.0
1001
ACAD
1000
AcDbSavedByObjectVersion
1070
     0
  0
VISUALSTYLE
  5
32
102
{ACAD_REACTORS
330
2A
102
}
102
{ACAD_XDICTIONARY
360
526
102
}
330
2A
100
AcDbVisualStyle
  2
Basic
 70
     7
 71
     1
 72
     0
 73
     1
 90
        0
 40
-0.6
 41
-30.0
 62
     5
 63
     7
 74
     0
 91
        4
 64
     7
 65
   257
 75
     1
175
     1
 42
1.0
 92
        8
 66
     7
 43
1.0
 76
     1
 77
     6
 78
     2
 67
     7
 79
     5
170
     0
171
     0
290
     0
174
     0
 93
        1
 44
0.0
173
     0
291
     1
 45
0.0
1001
ACAD
1000
AcDbSavedByObjectVersion
1070
     0
  0
VISUALSTYLE
  5
36
102
{ACAD_REACTORS
330
2A
102
}
102
{ACAD_XDICTIONARY
360
52E
102
}
330
2A
100
AcDbVisualStyle
  2
Brighten
 70
    12
 71
     2
 72
     2
 73
     0
 90
        0
 40
-0.6
 41
-30.0
 62
     5
 63
     7
 74
     1
 91
        4
 64
     7
 65
   257
 75
     1
175
     1
 42
1.0
 92
        8
 66
     7
 43
1.0
 76
     1
 77
     6
 78
     2
 67
     7
 79
     5
170
     0
171
     0
290
     0
174
     0
 93
        1
 44
50.0
173
     0
291
     1
 45
0.0
1001
ACAD
1000
AcDbSavedByObjectVersion
1070
     0
  0
VISUALSTYLE
  5
3A
102
{ACAD_REACTORS
330
2A
102
}
102
{ACAD_XDICTIONARY
360
536
102
}
330
2A
100
AcDbVisualStyle
  2
ColorChange
 70
    16
 71
     2
 72
     2
 73
     3
 90
        0
 40
-0.6
 41
-30.0
 62
     5
 63
     8
 74
     1
 91
        4
 64
     7
 65
   257
 75
     1
175
     1
 42
1.0
 92
        8
 66
     8
 43
1.0
 76
     1
 77
     6
 78
     2
 67
     7
 79
     5
170
     0
171
     0
290
     0
174
     0
 93
        1
 44
0.0
173
     0
291
     1
 45
0.0
1001
ACAD
1000
AcDbSavedByObjectVersion
1070
     0
  0
VISUALSTYLE
  5
34
102
{ACAD_REACTORS
330
2A
102
}
102
{ACAD_XDICTIONARY
360
52A
102
}
330
2A
100
AcDbVisualStyle
  2
Conceptual
 70
     9
 71
     3
 72
     2
 73
     0
 90
        0
 40
-0.6
 41
-30.0
 62
     5
 63
     7
 74
     2
 91
        2
 64
     7
 65
   257
 75
     1
175
     1
 42
40.0
 92
        8
 66
     7
 43
1.0
 76
     1
 77
     6
 78
     2
 67
     7
 79
     3
170
     0
171
     0
290
     0
174
     0
 93
        1
 44
0.0
173
     0
291
     0
 45
0.0
1001
ACAD
1000
AcDbSavedByObjectVersion
1070
     0
  0
VISUALSTYLE
  5
35
102
{ACAD_REACTORS
330
2A
102
}
102
{ACAD_XDICTIONARY
360
52C
102
}
330
2A
100
AcDbVisualStyle
  2
Dim
 70
    11
 71
     2
 72
     2
 73
     0
 90
        0
 40
-0.6
 41
-30.0
 62
     5
 63
     7
 74
     1
 91
        4
 64
     7
 65
   257
 75
     1
175
     1
 42
1.0
 92
        8
 66
     7
 43
1.0
 76
     1
 77
     6
 78
     2
 67
     7
 79
     5
170
     0
171
     0
290
     0
174
     0
 93
        1
 44
-50.0
173
     0
291
     1
 45
0.0
1001
ACAD
1000
AcDbSavedByObjectVersion
1070
     0
  0
VISUALSTYLE
  5
39
102
{ACAD_REACTORS
330
2A
102
}
102
{ACAD_XDICTIONARY
360
534
102
}
330
2A
100
AcDbVisualStyle
  2
Facepattern
 70
    15
 71
     2
 72
     2
 73
     0
 90
        0
 40
-0.6
 41
-30.0
 62
     5
 63
     7
 74
     1
 91
        4
 64
     7
 65
   257
 75
     1
175
     1
 42
1.0
 92
        8
 66
     7
 43
1.0
 76
     1
 77
     6
 78
     2
 67
     7
 79
     5
170
     0
171
     0
290
     0
174
     0
 93
        1
 44
0.0
173
     0
291
     1
 45
0.0
1001
ACAD
1000
AcDbSavedByObjectVersion
1070
     0
  0
VISUALSTYLE
  5
2B
102
{ACAD_REACTORS
330
2A
102
}
102
{ACAD_XDICTIONARY
360
518
102
}
330
2A
100
AcDbVisualStyle
  2
Flat
 70
     0
 71
     2
 72
     1
 73
     1
 90
        2
 40
-0.6
 41
30.0
 62
     5
 63
     7
 74
     0
 91
        4
 64
     7
 65
   257
 75
     1
175
     1
 42
1.0
 92
        8
 66
     7
 43
1.0
 76
     1
 77
     6
 78
     2
 67
     7
 79
     5
170
     0
171
     0
290
     0
174
     0
 93
       13
 44
0.0
173
     0
291
     1
 45
0.0
1001
ACAD
1000
AcDbSavedByObjectVersion
1070
     0
  0
VISUALSTYLE
  5
2C
102
{ACAD_REACTORS
330
2A
102
}
102
{ACAD_XDICTIONARY
360
51A
102
}
330
2A
100
AcDbVisualStyle
  2
FlatWithEdges
 70
     1
 71
     2
 72
     1
 73
     1
 90
        2
 40
-0.6
 41
30.0
 62
     5
 63
     7
 74
     1
 91
        4
 64
     7
 65
   257
 75
     1
175
     1
 42
1.0
 92
        0
 66
   257
 43
1.0
 76
     1
 77
     6
 78
     2
 67
     7
 79
     5
170
     0
171
     0
290
     0
174
     0
 93
       13
 44
0.0
173
     0
291
     1
 45
0.0
1001
ACAD
1000
AcDbSavedByObjectVersion
1070
     0
  0
VISUALSTYLE
  5
2D
102
{ACAD_REACTORS
330
2A
102
}
102
{ACAD_XDICTIONARY
360
51C
102
}
330
2A
100
AcDbVisualStyle
  2
Gouraud
 70
     2
 71
     2
 72
     2
 73
     1
 90
        2
 40
-0.6
 41
30.0
 62
     5
 63
     7
 74
     0
 91
        4
 64
     7
 65
   257
 75
     1
175
     1
 42
1.0
 92
        0
 66
     7
 43
1.0
 76
     1
 77
     6
 78
     2
 67
     7
 79
     5
170
     0
171
     0
290
     0
174
     0
 93
       13
 44
0.0
173
     0
291
     1
 45
0.0
1001
ACAD
1000
AcDbSavedByObjectVersion
1070
     0
  0
VISUALSTYLE
  5
2E
102
{ACAD_REACTORS
330
2A
102
}
102
{ACAD_XDICTIONARY
360
51E
102
}
330
2A
100
AcDbVisualStyle
  2
GouraudWithEdges
 70
     3
 71
     2
 72
     2
 73
     1
 90
        2
 40
-0.6
 41
30.0
 62
     5
 63
     7
 74
     1
 91
        4
 64
     7
 65
   257
 75
     1
175
     1
 42
1.0
 92
        0
 66
   257
 43
1.0
 76
     1
 77
     6
 78
     2
 67
     7
 79
     5
170
     0
171
     0
290
     0
174
     0
 93
       13
 44
0.0
173
     0
291
     1
 45
0.0
1001
ACAD
1000
AcDbSavedByObjectVersion
1070
     0
  0
VISUALSTYLE
  5
38
102
{ACAD_REACTORS
330
2A
102
}
102
{ACAD_XDICTIONARY
360
532
102
}
330
2A
100
AcDbVisualStyle
  2
Linepattern
 70
    14
 71
     2
 72
     2
 73
     0
 90
        0
 40
-0.6
 41
-30.0
 62
     5
 63
     7
 74
     1
 91
        4
 64
     7
 65
   257
 75
     7
175
     7
 42
1.0
 92
        8
 66
     7
 43
1.0
 76
     1
 77
     6
 78
     2
 67
     7
 79
     5
170
     0
171
     0
290
     0
174
     0
 93
        1
 44
0.0
173
     0
291
     1
 45
0.0
1001
ACAD
1000
AcDbSavedByObjectVersion
1070
     0
  0
VISUALSTYLE
  5
33
102
{ACAD_REACTORS
330
2A
102
}
102
{ACAD_XDICTIONARY
360
528
102
}
330
2A
100
AcDbVisualStyle
  2
Realistic
 70
     8
 71
     2
 72
     2
 73
     0
 90
        0
 40
-0.6
 41
-30.0
 62
     5
 63
     7
 74
     1
 91
        0
 64
     7
 65
   257
 75
     1
175
     1
 42
1.0
 92
        8
 66
     8
 43
1.0
 76
     1
 77
     6
 78
     2
 67
     7
 79
     5
170
     0
171
     0
290
     0
174
     0
 93
       13
 44
0.0
173
     0
291
     0
 45
0.0
1001
ACAD
1000
AcDbSavedByObjectVersion
1070
     0
  0
VISUALSTYLE
  5
37
102
{ACAD_REACTORS
330
2A
102
}
102
{ACAD_XDICTIONARY
360
530
102
}
330
2A
100
AcDbVisualStyle
  2
Thicken
 70
    13
 71
     2
 72
     2
 73
     0
 90
        0
 40
-0.6
 41
-30.0
 62
     5
 63
     7
 74
     1
 91
        4
 64
     7
 65
   257
 75
     1
175
     1
 42
1.0
 92
       12
 66
     7
 43
1.0
 76
     1
 77
     6
 78
     2
 67
     7
 79
     5
170
     0
171
     0
290
     0
174
     0
 93
        1
 44
0.0
173
     0
291
     1
 45
0.0
1001
ACAD
1000
AcDbSavedByObjectVersion
1070
     0
  0
DICTIONARYVAR
  5
515
102
{ACAD_REACTORS
330
512
102
}
330
512
100
DictionaryVariables
280
     0
  1
1:1
  0
DICTIONARYVAR
  5
516
102
{ACAD_REACTORS
330
512
102
}
330
512
100
DictionaryVariables
280
     0
  1
2
  0
DICTIONARYVAR
  5
517
102
{ACAD_REACTORS
330
512
102
}
330
512
100
DictionaryVariables
280
     0
  1
1
  0
DICTIONARY
  5
53A
330
3D
100
AcDbDictionary
280
     1
281
     1
  3
ACAD_XREC_ROUNDTRIP
360
53B
  0
DICTIONARY
  5
538
330
3C
100
AcDbDictionary
280
     1
281
     1
  3
ACAD_XREC_ROUNDTRIP
360
539
  0
DICTIONARY
  5
53C
330
3E
100
AcDbDictionary
280
     1
281
     1
  3
ACAD_XREC_ROUNDTRIP
360
53D
  0
DICTIONARY
  5
520
330
2F
100
AcDbDictionary
280
     1
281
     1
  3
ACAD_XREC_ROUNDTRIP
360
521
  0
DICTIONARY
  5
524
330
31
100
AcDbDictionary
280
     1
281
     1
  3
ACAD_XREC_ROUNDTRIP
360
525
  0
DICTIONARY
  5
522
330
30
100
AcDbDictionary
280
     1
281
     1
  3
ACAD_XREC_ROUNDTRIP
360
523
  0
DICTIONARY
  5
526
330
32
100
AcDbDictionary
280
     1
281
     1
  3
ACAD_XREC_ROUNDTRIP
360
527
  0
DICTIONARY
  5
52E
330
36
100
AcDbDictionary
280
     1
281
     1
  3
ACAD_XREC_ROUNDTRIP
360
52F
  0
DICTIONARY
  5
536
330
3A
100
AcDbDictionary
280
     1
281
     1
  3
ACAD_XREC_ROUNDTRIP
360
537
  0
DICTIONARY
  5
52A
330
34
100
AcDbDictionary
280
     1
281
     1
  3
ACAD_XREC_ROUNDTRIP
360
52B
  0
DICTIONARY
  5
52C
330
35
100
AcDbDictionary
280
     1
281
     1
  3
ACAD_XREC_ROUNDTRIP
360
52D
  0
DICTIONARY
  5
534
330
39
100
AcDbDictionary
280
     1
281
     1
  3
ACAD_XREC_ROUNDTRIP
360
535
  0
DICTIONARY
  5
518
330
2B
100
AcDbDictionary
280
     1
281
     1
  3
ACAD_XREC_ROUNDTRIP
360
519
  0
DICTIONARY
  5
51A
330
2C
100
AcDbDictionary
280
     1
281
     1
  3
ACAD_XREC_ROUNDTRIP
360
51B
  0
DICTIONARY
  5
51C
330
2D
100
AcDbDictionary
280
     1
281
     1
  3
ACAD_XREC_ROUNDTRIP
360
51D
  0
DICTIONARY
  5
51E
330
2E
100
AcDbDictionary
280
     1
281
     1
  3
ACAD_XREC_ROUNDTRIP
360
51F
  0
DICTIONARY
  5
532
330
38
100
AcDbDictionary
280
     1
281
     1
  3
ACAD_XREC_ROUNDTRIP
360
533
  0
DICTIONARY
  5
528
330
33
100
AcDbDictionary
280
     1
281
     1
  3
ACAD_XREC_ROUNDTRIP
360
529
  0
DICTIONARY
  5
530
330
37
100
AcDbDictionary
280
     1
281
     1
  3
ACAD_XREC_ROUNDTRIP
360
531
  0
XRECORD
  5
53B
102
{ACAD_REACTORS
330
53A
102
}
330
53A
100
AcDbXrecord
280
     1
102
MATERIAL
148
0.0
149
0.0
149
0.0
 93
        0
 94
      127
282
     0
 72
     1
 77
     1
171
     1
175
     1
179
     1
273
     0
  0
XRECORD
  5
539
102
{ACAD_REACTORS
330
538
102
}
330
538
100
AcDbXrecord
280
     1
102
MATERIAL
148
0.0
149
0.0
149
0.0
 93
        0
 94
      127
282
     0
 72
     1
 77
     1
171
     1
175
     1
179
     1
273
     0
  0
XRECORD
  5
53D
102
{ACAD_REACTORS
330
53C
102
}
330
53C
100
AcDbXrecord
280
     1
102
MATERIAL
148
0.0
149
0.0
149
0.0
 93
        0
 94
      127
282
     0
 72
     1
 77
     1
171
     1
175
     1
179
     1
273
     0
  0
XRECORD
  5
521
102
{ACAD_REACTORS
330
520
102
}
330
520
100
AcDbXrecord
280
     1
102
RTVSPropertyOp0
 70
     1
102
RTVSPropertyOp1
 70
     1
102
RTVSPropertyOp2
 70
     1
102
RTVSPropertyOp3
 70
     1
102
RTVSPropertyOp4
 70
     1
102
RTVSPropertyOp5
 70
     1
102
RTVSPropertyOp6
 70
     1
102
RTVSPropertyOp7
 70
     1
102
RTVSPropertyOp8
 70
     1
102
RTVSPropertyOp9
 70
     1
102
RTVSPropertyOp10
 70
     1
102
RTVSPropertyOp11
 70
     1
102
RTVSPropertyOp12
 70
     1
102
RTVSPropertyOp13
 70
     1
102
RTVSPropertyOp14
 70
     1
102
RTVSPropertyOp15
 70
     1
102
RTVSPropertyOp16
 70
     1
102
RTVSPropertyOp17
 70
     1
102
RTVSPropertyOp18
 70
     1
102
RTVSPropertyOp19
 70
     1
102
RTVSPropertyOp20
 70
     1
102
RTVSPropertyOp21
 70
     1
102
RTVSPropertyOp22
 70
     1
102
RTVSPropertyOp23
 70
     1
102
RTVSPropertyOp24
 70
     1
102
RTVSPropertyOp25
 70
     1
102
RTVSPropertyOp26
 70
     1
102
RTVSPropertyOp27
 70
     1
  0
XRECORD
  5
525
102
{ACAD_REACTORS
330
524
102
}
330
524
100
AcDbXrecord
280
     1
102
RTVSPropertyOp0
 70
     1
102
RTVSPropertyOp1
 70
     1
102
RTVSPropertyOp2
 70
     1
102
RTVSPropertyOp3
 70
     1
102
RTVSPropertyOp4
 70
     1
102
RTVSPropertyOp5
 70
     1
102
RTVSPropertyOp6
 70
     1
102
RTVSPropertyOp7
 70
     1
102
RTVSPropertyOp8
 70
     1
102
RTVSPropertyOp9
 70
     1
102
RTVSPropertyOp10
 70
     1
102
RTVSPropertyOp11
 70
     1
102
RTVSPropertyOp12
 70
     1
102
RTVSPropertyOp13
 70
     1
102
RTVSPropertyOp14
 70
     1
102
RTVSPropertyOp15
 70
     1
102
RTVSPropertyOp16
 70
     1
102
RTVSPropertyOp17
 70
     1
102
RTVSPropertyOp18
 70
     1
102
RTVSPropertyOp19
 70
     1
102
RTVSPropertyOp20
 70
     1
102
RTVSPropertyOp21
 70
     1
102
RTVSPropertyOp22
 70
     1
102
RTVSPropertyOp23
 70
     1
102
RTVSPropertyOp24
 70
     1
102
RTVSPropertyOp25
 70
     1
102
RTVSPropertyOp26
 70
     1
102
RTVSPropertyOp27
 70
     1
  0
XRECORD
  5
523
102
{ACAD_REACTORS
330
522
102
}
330
522
100
AcDbXrecord
280
     1
102
RTVSPropertyOp0
 70
     1
102
RTVSPropertyOp1
 70
     1
102
RTVSPropertyOp2
 70
     1
102
RTVSPropertyOp3
 70
     1
102
RTVSPropertyOp4
 70
     1
102
RTVSPropertyOp5
 70
     1
102
RTVSPropertyOp6
 70
     1
102
RTVSPropertyOp7
 70
     1
102
RTVSPropertyOp8
 70
     1
102
RTVSPropertyOp9
 70
     1
102
RTVSPropertyOp10
 70
     1
102
RTVSPropertyOp11
 70
     1
102
RTVSPropertyOp12
 70
     1
102
RTVSPropertyOp13
 70
     1
102
RTVSPropertyOp14
 70
     1
102
RTVSPropertyOp15
 70
     1
102
RTVSPropertyOp16
 70
     1
102
RTVSPropertyOp17
 70
     1
102
RTVSPropertyOp18
 70
     1
102
RTVSPropertyOp19
 70
     1
102
RTVSPropertyOp20
 70
     1
102
RTVSPropertyOp21
 70
     1
102
RTVSPropertyOp22
 70
     1
102
RTVSPropertyOp23
 70
     1
102
RTVSPropertyOp24
 70
     1
102
RTVSPropertyOp25
 70
     1
102
RTVSPropertyOp26
 70
     1
102
RTVSPropertyOp27
 70
     1
  0
XRECORD
  5
527
102
{ACAD_REACTORS
330
526
102
}
330
526
100
AcDbXrecord
280
     1
102
RTVSPropertyOp0
 70
     1
102
RTVSPropertyOp1
 70
     1
102
RTVSPropertyOp2
 70
     1
102
RTVSPropertyOp3
 70
     1
102
RTVSPropertyOp4
 70
     1
102
RTVSPropertyOp5
 70
     1
102
RTVSPropertyOp6
 70
     1
102
RTVSPropertyOp7
 70
     1
102
RTVSPropertyOp8
 70
     1
102
RTVSPropertyOp9
 70
     1
102
RTVSPropertyOp10
 70
     1
102
RTVSPropertyOp11
 70
     1
102
RTVSPropertyOp12
 70
     1
102
RTVSPropertyOp13
 70
     1
102
RTVSPropertyOp14
 70
     1
102
RTVSPropertyOp15
 70
     1
102
RTVSPropertyOp16
 70
     1
102
RTVSPropertyOp17
 70
     1
102
RTVSPropertyOp18
 70
     1
102
RTVSPropertyOp19
 70
     1
102
RTVSPropertyOp20
 70
     1
102
RTVSPropertyOp21
 70
     1
102
RTVSPropertyOp22
 70
     1
102
RTVSPropertyOp23
 70
     1
102
RTVSPropertyOp24
 70
     1
102
RTVSPropertyOp25
 70
     1
102
RTVSPropertyOp26
 70
     1
102
RTVSPropertyOp27
 70
     1
  0
XRECORD
  5
52F
102
{ACAD_REACTORS
330
52E
102
}
330
52E
100
AcDbXrecord
280
     1
102
RTVSPropertyOp0
 70
     1
102
RTVSPropertyOp1
 70
     1
102
RTVSPropertyOp2
 70
     1
102
RTVSPropertyOp3
 70
     1
102
RTVSPropertyOp4
 70
     1
102
RTVSPropertyOp5
 70
     1
102
RTVSPropertyOp6
 70
     1
102
RTVSPropertyOp7
 70
     1
102
RTVSPropertyOp8
 70
     1
102
RTVSPropertyOp9
 70
     1
102
RTVSPropertyOp10
 70
     1
102
RTVSPropertyOp11
 70
     1
102
RTVSPropertyOp12
 70
     1
102
RTVSPropertyOp13
 70
     1
102
RTVSPropertyOp14
 70
     1
102
RTVSPropertyOp15
 70
     1
102
RTVSPropertyOp16
 70
     1
102
RTVSPropertyOp17
 70
     1
102
RTVSPropertyOp18
 70
     1
102
RTVSPropertyOp19
 70
     1
102
RTVSPropertyOp20
 70
     1
102
RTVSPropertyOp21
 70
     1
102
RTVSPropertyOp22
 70
     1
102
RTVSPropertyOp23
 70
     1
102
RTVSPropertyOp24
 70
     1
102
RTVSPropertyOp25
 70
     1
102
RTVSPropertyOp26
 70
     1
102
RTVSPropertyOp27
 70
     1
  0
XRECORD
  5
537
102
{ACAD_REACTORS
330
536
102
}
330
536
100
AcDbXrecord
280
     1
102
RTVSPropertyOp0
 70
     1
102
RTVSPropertyOp1
 70
     1
102
RTVSPropertyOp2
 70
     1
102
RTVSPropertyOp3
 70
     1
102
RTVSPropertyOp4
 70
     1
102
RTVSPropertyOp5
 70
     1
102
RTVSPropertyOp6
 70
     1
102
RTVSPropertyOp7
 70
     1
102
RTVSPropertyOp8
 70
     1
102
RTVSPropertyOp9
 70
     1
102
RTVSPropertyOp10
 70
     1
102
RTVSPropertyOp11
 70
     1
102
RTVSPropertyOp12
 70
     1
102
RTVSPropertyOp13
 70
     1
102
RTVSPropertyOp14
 70
     1
102
RTVSPropertyOp15
 70
     1
102
RTVSPropertyOp16
 70
     1
102
RTVSPropertyOp17
 70
     1
102
RTVSPropertyOp18
 70
     1
102
RTVSPropertyOp19
 70
     1
102
RTVSPropertyOp20
 70
     1
102
RTVSPropertyOp21
 70
     1
102
RTVSPropertyOp22
 70
     1
102
RTVSPropertyOp23
 70
     1
102
RTVSPropertyOp24
 70
     1
102
RTVSPropertyOp25
 70
     1
102
RTVSPropertyOp26
 70
     1
102
RTVSPropertyOp27
 70
     1
  0
XRECORD
  5
52B
102
{ACAD_REACTORS
330
52A
102
}
330
52A
100
AcDbXrecord
280
     1
102
RTVSPropertyOp0
 70
     1
102
RTVSPropertyOp1
 70
     1
102
RTVSPropertyOp2
 70
     1
102
RTVSPropertyOp3
 70
     1
102
RTVSPropertyOp4
 70
     1
102
RTVSPropertyOp5
 70
     1
102
RTVSPropertyOp6
 70
     1
102
RTVSPropertyOp7
 70
     1
102
RTVSPropertyOp8
 70
     1
102
RTVSPropertyOp9
 70
     1
102
RTVSPropertyOp10
 70
     1
102
RTVSPropertyOp11
 70
     1
102
RTVSPropertyOp12
 70
     1
102
RTVSPropertyOp13
 70
     1
102
RTVSPropertyOp14
 70
     1
102
RTVSPropertyOp15
 70
     1
102
RTVSPropertyOp16
 70
     1
102
RTVSPropertyOp17
 70
     1
102
RTVSPropertyOp18
 70
     1
102
RTVSPropertyOp19
 70
     1
102
RTVSPropertyOp20
 70
     1
102
RTVSPropertyOp21
 70
     1
102
RTVSPropertyOp22
 70
     1
102
RTVSPropertyOp23
 70
     1
102
RTVSPropertyOp24
 70
     1
102
RTVSPropertyOp25
 70
     1
102
RTVSPropertyOp26
 70
     1
102
RTVSPropertyOp27
 70
     1
  0
XRECORD
  5
52D
102
{ACAD_REACTORS
330
52C
102
}
330
52C
100
AcDbXrecord
280
     1
102
RTVSPropertyOp0
 70
     1
102
RTVSPropertyOp1
 70
     1
102
RTVSPropertyOp2
 70
     1
102
RTVSPropertyOp3
 70
     1
102
RTVSPropertyOp4
 70
     1
102
RTVSPropertyOp5
 70
     1
102
RTVSPropertyOp6
 70
     1
102
RTVSPropertyOp7
 70
     1
102
RTVSPropertyOp8
 70
     1
102
RTVSPropertyOp9
 70
     1
102
RTVSPropertyOp10
 70
     1
102
RTVSPropertyOp11
 70
     1
102
RTVSPropertyOp12
 70
     1
102
RTVSPropertyOp13
 70
     1
102
RTVSPropertyOp14
 70
     1
102
RTVSPropertyOp15
 70
     1
102
RTVSPropertyOp16
 70
     1
102
RTVSPropertyOp17
 70
     1
102
RTVSPropertyOp18
 70
     1
102
RTVSPropertyOp19
 70
     1
102
RTVSPropertyOp20
 70
     1
102
RTVSPropertyOp21
 70
     1
102
RTVSPropertyOp22
 70
     1
102
RTVSPropertyOp23
 70
     1
102
RTVSPropertyOp24
 70
     1
102
RTVSPropertyOp25
 70
     1
102
RTVSPropertyOp26
 70
     1
102
RTVSPropertyOp27
 70
     1
  0
XRECORD
  5
535
102
{ACAD_REACTORS
330
534
102
}
330
534
100
AcDbXrecord
280
     1
102
RTVSPropertyOp0
 70
     1
102
RTVSPropertyOp1
 70
     1
102
RTVSPropertyOp2
 70
     1
102
RTVSPropertyOp3
 70
     1
102
RTVSPropertyOp4
 70
     1
102
RTVSPropertyOp5
 70
     1
102
RTVSPropertyOp6
 70
     1
102
RTVSPropertyOp7
 70
     1
102
RTVSPropertyOp8
 70
     1
102
RTVSPropertyOp9
 70
     1
102
RTVSPropertyOp10
 70
     1
102
RTVSPropertyOp11
 70
     1
102
RTVSPropertyOp12
 70
     1
102
RTVSPropertyOp13
 70
     1
102
RTVSPropertyOp14
 70
     1
102
RTVSPropertyOp15
 70
     1
102
RTVSPropertyOp16
 70
     1
102
RTVSPropertyOp17
 70
     1
102
RTVSPropertyOp18
 70
     1
102
RTVSPropertyOp19
 70
     1
102
RTVSPropertyOp20
 70
     1
102
RTVSPropertyOp21
 70
     1
102
RTVSPropertyOp22
 70
     1
102
RTVSPropertyOp23
 70
     1
102
RTVSPropertyOp24
 70
     1
102
RTVSPropertyOp25
 70
     1
102
RTVSPropertyOp26
 70
     1
102
RTVSPropertyOp27
 70
     1
  0
XRECORD
  5
519
102
{ACAD_REACTORS
330
518
102
}
330
518
100
AcDbXrecord
280
     1
102
RTVSPropertyOp0
 70
     1
102
RTVSPropertyOp1
 70
     1
102
RTVSPropertyOp2
 70
     1
102
RTVSPropertyOp3
 70
     1
102
RTVSPropertyOp4
 70
     1
102
RTVSPropertyOp5
 70
     1
102
RTVSPropertyOp6
 70
     1
102
RTVSPropertyOp7
 70
     1
102
RTVSPropertyOp8
 70
     1
102
RTVSPropertyOp9
 70
     1
102
RTVSPropertyOp10
 70
     1
102
RTVSPropertyOp11
 70
     1
102
RTVSPropertyOp12
 70
     1
102
RTVSPropertyOp13
 70
     1
102
RTVSPropertyOp14
 70
     1
102
RTVSPropertyOp15
 70
     1
102
RTVSPropertyOp16
 70
     1
102
RTVSPropertyOp17
 70
     1
102
RTVSPropertyOp18
 70
     1
102
RTVSPropertyOp19
 70
     1
102
RTVSPropertyOp20
 70
     1
102
RTVSPropertyOp21
 70
     1
102
RTVSPropertyOp22
 70
     1
102
RTVSPropertyOp23
 70
     1
102
RTVSPropertyOp24
 70
     1
102
RTVSPropertyOp25
 70
     1
102
RTVSPropertyOp26
 70
     1
102
RTVSPropertyOp27
 70
     1
  0
XRECORD
  5
51B
102
{ACAD_REACTORS
330
51A
102
}
330
51A
100
AcDbXrecord
280
     1
102
RTVSPropertyOp0
 70
     1
102
RTVSPropertyOp1
 70
     1
102
RTVSPropertyOp2
 70
     1
102
RTVSPropertyOp3
 70
     1
102
RTVSPropertyOp4
 70
     1
102
RTVSPropertyOp5
 70
     1
102
RTVSPropertyOp6
 70
     1
102
RTVSPropertyOp7
 70
     1
102
RTVSPropertyOp8
 70
     1
102
RTVSPropertyOp9
 70
     1
102
RTVSPropertyOp10
 70
     1
102
RTVSPropertyOp11
 70
     1
102
RTVSPropertyOp12
 70
     1
102
RTVSPropertyOp13
 70
     1
102
RTVSPropertyOp14
 70
     1
102
RTVSPropertyOp15
 70
     1
102
RTVSPropertyOp16
 70
     1
102
RTVSPropertyOp17
 70
     1
102
RTVSPropertyOp18
 70
     1
102
RTVSPropertyOp19
 70
     1
102
RTVSPropertyOp20
 70
     1
102
RTVSPropertyOp21
 70
     1
102
RTVSPropertyOp22
 70
     1
102
RTVSPropertyOp23
 70
     1
102
RTVSPropertyOp24
 70
     1
102
RTVSPropertyOp25
 70
     1
102
RTVSPropertyOp26
 70
     1
102
RTVSPropertyOp27
 70
     1
  0
XRECORD
  5
51D
102
{ACAD_REACTORS
330
51C
102
}
330
51C
100
AcDbXrecord
280
     1
102
RTVSPropertyOp0
 70
     1
102
RTVSPropertyOp1
 70
     1
102
RTVSPropertyOp2
 70
     1
102
RTVSPropertyOp3
 70
     1
102
RTVSPropertyOp4
 70
     1
102
RTVSPropertyOp5
 70
     1
102
RTVSPropertyOp6
 70
     1
102
RTVSPropertyOp7
 70
     1
102
RTVSPropertyOp8
 70
     1
102
RTVSPropertyOp9
 70
     1
102
RTVSPropertyOp10
 70
     1
102
RTVSPropertyOp11
 70
     1
102
RTVSPropertyOp12
 70
     1
102
RTVSPropertyOp13
 70
     1
102
RTVSPropertyOp14
 70
     1
102
RTVSPropertyOp15
 70
     1
102
RTVSPropertyOp16
 70
     1
102
RTVSPropertyOp17
 70
     1
102
RTVSPropertyOp18
 70
     1
102
RTVSPropertyOp19
 70
     1
102
RTVSPropertyOp20
 70
     1
102
RTVSPropertyOp21
 70
     1
102
RTVSPropertyOp22
 70
     1
102
RTVSPropertyOp23
 70
     1
102
RTVSPropertyOp24
 70
     1
102
RTVSPropertyOp25
 70
     1
102
RTVSPropertyOp26
 70
     1
102
RTVSPropertyOp27
 70
     1
  0
XRECORD
  5
51F
102
{ACAD_REACTORS
330
51E
102
}
330
51E
100
AcDbXrecord
280
     1
102
RTVSPropertyOp0
 70
     1
102
RTVSPropertyOp1
 70
     1
102
RTVSPropertyOp2
 70
     1
102
RTVSPropertyOp3
 70
     1
102
RTVSPropertyOp4
 70
     1
102
RTVSPropertyOp5
 70
     1
102
RTVSPropertyOp6
 70
     1
102
RTVSPropertyOp7
 70
     1
102
RTVSPropertyOp8
 70
     1
102
RTVSPropertyOp9
 70
     1
102
RTVSPropertyOp10
 70
     1
102
RTVSPropertyOp11
 70
     1
102
RTVSPropertyOp12
 70
     1
102
RTVSPropertyOp13
 70
     1
102
RTVSPropertyOp14
 70
     1
102
RTVSPropertyOp15
 70
     1
102
RTVSPropertyOp16
 70
     1
102
RTVSPropertyOp17
 70
     1
102
RTVSPropertyOp18
 70
     1
102
RTVSPropertyOp19
 70
     1
102
RTVSPropertyOp20
 70
     1
102
RTVSPropertyOp21
 70
     1
102
RTVSPropertyOp22
 70
     1
102
RTVSPropertyOp23
 70
     1
102
RTVSPropertyOp24
 70
     1
102
RTVSPropertyOp25
 70
     1
102
RTVSPropertyOp26
 70
     1
102
RTVSPropertyOp27
 70
     1
  0
XRECORD
  5
533
102
{ACAD_REACTORS
330
532
102
}
330
532
100
AcDbXrecord
280
     1
102
RTVSPropertyOp0
 70
     1
102
RTVSPropertyOp1
 70
     1
102
RTVSPropertyOp2
 70
     1
102
RTVSPropertyOp3
 70
     1
102
RTVSPropertyOp4
 70
     1
102
RTVSPropertyOp5
 70
     1
102
RTVSPropertyOp6
 70
     1
102
RTVSPropertyOp7
 70
     1
102
RTVSPropertyOp8
 70
     1
102
RTVSPropertyOp9
 70
     1
102
RTVSPropertyOp10
 70
     1
102
RTVSPropertyOp11
 70
     1
102
RTVSPropertyOp12
 70
     1
102
RTVSPropertyOp13
 70
     1
102
RTVSPropertyOp14
 70
     1
102
RTVSPropertyOp15
 70
     1
102
RTVSPropertyOp16
 70
     1
102
RTVSPropertyOp17
 70
     1
102
RTVSPropertyOp18
 70
     1
102
RTVSPropertyOp19
 70
     1
102
RTVSPropertyOp20
 70
     1
102
RTVSPropertyOp21
 70
     1
102
RTVSPropertyOp22
 70
     1
102
RTVSPropertyOp23
 70
     1
102
RTVSPropertyOp24
 70
     1
102
RTVSPropertyOp25
 70
     1
102
RTVSPropertyOp26
 70
     1
102
RTVSPropertyOp27
 70
     1
  0
XRECORD
  5
529
102
{ACAD_REACTORS
330
528
102
}
330
528
100
AcDbXrecord
280
     1
102
RTVSPropertyOp0
 70
     1
102
RTVSPropertyOp1
 70
     1
102
RTVSPropertyOp2
 70
     1
102
RTVSPropertyOp3
 70
     1
102
RTVSPropertyOp4
 70
     1
102
RTVSPropertyOp5
 70
     1
102
RTVSPropertyOp6
 70
     1
102
RTVSPropertyOp7
 70
     1
102
RTVSPropertyOp8
 70
     1
102
RTVSPropertyOp9
 70
     1
102
RTVSPropertyOp10
 70
     1
102
RTVSPropertyOp11
 70
     1
102
RTVSPropertyOp12
 70
     1
102
RTVSPropertyOp13
 70
     1
102
RTVSPropertyOp14
 70
     1
102
RTVSPropertyOp15
 70
     1
102
RTVSPropertyOp16
 70
     1
102
RTVSPropertyOp17
 70
     1
102
RTVSPropertyOp18
 70
     1
102
RTVSPropertyOp19
 70
     1
102
RTVSPropertyOp20
 70
     1
102
RTVSPropertyOp21
 70
     1
102
RTVSPropertyOp22
 70
     1
102
RTVSPropertyOp23
 70
     1
102
RTVSPropertyOp24
 70
     1
102
RTVSPropertyOp25
 70
     1
102
RTVSPropertyOp26
 70
     1
102
RTVSPropertyOp27
 70
     1
  0
XRECORD
  5
531
102
{ACAD_REACTORS
330
530
102
}
330
530
100
AcDbXrecord
280
     1
102
RTVSPropertyOp0
 70
     1
102
RTVSPropertyOp1
 70
     1
102
RTVSPropertyOp2
 70
     1
102
RTVSPropertyOp3
 70
     1
102
RTVSPropertyOp4
 70
     1
102
RTVSPropertyOp5
 70
     1
102
RTVSPropertyOp6
 70
     1
102
RTVSPropertyOp7
 70
     1
102
RTVSPropertyOp8
 70
     1
102
RTVSPropertyOp9
 70
     1
102
RTVSPropertyOp10
 70
     1
102
RTVSPropertyOp11
 70
     1
102
RTVSPropertyOp12
 70
     1
102
RTVSPropertyOp13
 70
     1
102
RTVSPropertyOp14
 70
     1
102
RTVSPropertyOp15
 70
     1
102
RTVSPropertyOp16
 70
     1
102
RTVSPropertyOp17
 70
     1
102
RTVSPropertyOp18
 70
     1
102
RTVSPropertyOp19
 70
     1
102
RTVSPropertyOp20
 70
     1
102
RTVSPropertyOp21
 70
     1
102
RTVSPropertyOp22
 70
     1
102
RTVSPropertyOp23
 70
     1
102
RTVSPropertyOp24
 70
     1
102
RTVSPropertyOp25
 70
     1
102
RTVSPropertyOp26
 70
     1
102
RTVSPropertyOp27
 70
     1
  0
ENDSEC
  0
EOF
