  0
SECTION
  2
HEADER
  9
$ACADVER
  1
AC1015
  9
$ACADMAINTVER
 70
     6
  9
$DWGCODEPAGE
  3
ANSI_1252
  9
$INSBASE
 10
0.0
 20
0.0
 30
0.0
  9
$EXTMIN
 10
-1483.641732283465
 20
-923.1791338582677
 30
-15.2625
  9
$EXTMAX
 10
1476.358267716535
 20
926.8208661417324
 30
15.2625
  9
$LIMMIN
 10
0.0
 20
0.0
  9
$LIMMAX
 10
12.0
 20
9.0
  9
$ORTHOMODE
 70
     0
  9
$REGENMODE
 70
     1
  9
$FILLMODE
 70
     1
  9
$QTEXTMODE
 70
     0
  9
$MIRRTEXT
 70
     1
  9
$LTSCALE
 40
37.0
  9
$ATTMODE
 70
     1
  9
$TEXTSIZE
 40
0.2
  9
$TRACEWID
 40
1.0
  9
$TEXTSTYLE
  7
STANDARD
  9
$CLAYER
  8
None
  9
$CELTYPE
  6
ByLayer
  9
$CECOLOR
 62
   256
  9
$CELTSCALE
 40
1.0
  9
$DISPSILH
 70
     0
  9
$DIMSCALE
 40
1.0
  9
$DIMASZ
 40
23.125
  9
$DIMEXO
 40
11.5625
  9
$DIMDLI
 40
0.4
  9
$DIMRND
 40
0.0
  9
$DIMDLE
 40
11.5625
  9
$DIMEXE
 40
23.125
  9
$DIMTP
 40
0.0
  9
$DIMTM
 40
0.0
  9
$DIMTXT
 40
22.11764227146026
  9
$DIMCEN
 40
0.0
  9
$DIMTSZ
 40
0.0
  9
$DIMTOL
 70
     0
  9
$DIMLIM
 70
     0
  9
$DIMTIH
 70
     0
  9
$DIMTOH
 70
     0
  9
$DIMSE1
 70
     0
  9
$DIMSE2
 70
     0
  9
$DIMTAD
 70
     1
  9
$DIMZIN
 70
     8
  9
$DIMBLK
  1
VW_SLASH
  9
$DIMASO
 70
     1
  9
$DIMSHO
 70
     1
  9
$DIMPOST
  1
<>
  9
$DIMAPOST
  1
[]
  9
$DIMALT
 70
     0
  9
$DIMALTD
 70
     3
  9
$DIMALTF
 40
1.0
  9
$DIMLFAC
 40
1.0
  9
$DIMTOFL
 70
     1
  9
$DIMTVP
 40
0.0
  9
$DIMTIX
 70
     1
  9
$DIMSOXD
 70
     0
  9
$DIMSAH
 70
     0
  9
$DIMBLK1
  1
VW_SLASH
  9
$DIMBLK2
  1
VW_SLASH
  9
$DIMSTYLE
  2
Arch
  9
$DIMCLRD
 70
     0
  9
$DIMCLRE
 70
     0
  9
$DIMCLRT
 70
     0
  9
$DIMTFAC
 40
1.0
  9
$DIMGAP
 40
0.0625
  9
$DIMJUST
 70
     0
  9
$DIMSD1
 70
     0
  9
$DIMSD2
 70
     0
  9
$DIMTOLJ
 70
     1
  9
$DIMTZIN
 70
     8
  9
$DIMALTZ
 70
     8
  9
$DIMALTTZ
 70
     8
  9
$DIMUPT
 70
     0
  9
$DIMDEC
 70
     3
  9
$DIMTDEC
 70
     3
  9
$DIMALTU
 70
     4
  9
$DIMALTTD
 70
     2
  9
$DIMTXSTY
  7
Helvetica
  9
$DIMAUNIT
 70
     0
  9
$DIMADEC
 70
     2
  9
$DIMALTRND
 40
0.0
  9
$DIMAZIN
 70
     0
  9
$DIMDSEP
 70
    46
  9
$DIMATFIT
 70
     0
  9
$DIMFRAC
 70
     2
  9
$DIMLDRBLK
  1
VW_FILLEDARROW
  9
$DIMLUNIT
 70
     4
  9
$DIMLWD
 70
    -2
  9
$DIMLWE
 70
    -2
  9
$DIMTMOVE
 70
     0
  9
$LUNITS
 70
     4
  9
$LUPREC
 70
     4
  9
$SKETCHINC
 40
0.1
  9
$FILLETRAD
 40
0.5
  9
$AUNITS
 70
     0
  9
$AUPREC
 70
     0
  9
$MENU
  1
.
  9
$ELEVATION
 40
0.0
  9
$PELEVATION
 40
0.0
  9
$THICKNESS
 40
0.0
  9
$LIMCHECK
 70
     0
  9
$CHAMFERA
 40
0.5
  9
$CHAMFERB
 40
0.5
  9
$CHAMFERC
 40
1.0
  9
$CHAMFERD
 40
0.0
  9
$SKPOLY
 70
     0
  9
$TDCREATE
 40
2455711.787418982
  9
$TDUCREATE
 40
2455712.120752315
  9
$TDUPDATE
 40
2455711.787418982
  9
$TDUUPDATE
 40
2455712.120752315
  9
$TDINDWG
 40
0.0000000116
  9
$TDUSRTIMER
 40
0.0000000116
  9
$USRTIMER
 70
     1
  9
$ANGBASE
 50
0.0
  9
$ANGDIR
 70
     0
  9
$PDMODE
 70
     1
  9
$PDSIZE
 40
-2.0
  9
$PLINEWID
 40
0.0
  9
$SPLFRAME
 70
     0
  9
$SPLINETYPE
 70
     6
  9
$SPLINESEGS
 70
     8
  9
$HANDSEED
  5
436
  9
$SURFTAB1
 70
     6
  9
$SURFTAB2
 70
     6
  9
$SURFTYPE
 70
     6
  9
$SURFU
 70
     6
  9
$SURFV
 70
     6
  9
$UCSBASE
  2

  9
$UCSNAME
  2

  9
$UCSORG
 10
0.0
 20
0.0
 30
0.0
  9
$UCSXDIR
 10
1.0
 20
0.0
 30
0.0
  9
$UCSYDIR
 10
0.0
 20
1.0
 30
0.0
  9
$UCSORTHOREF
  2

  9
$UCSORTHOVIEW
 70
     0
  9
$UCSORGTOP
 10
0.0
 20
0.0
 30
0.0
  9
$UCSORGBOTTOM
 10
0.0
 20
0.0
 30
0.0
  9
$UCSORGLEFT
 10
0.0
 20
0.0
 30
0.0
  9
$UCSORGRIGHT
 10
0.0
 20
0.0
 30
0.0
  9
$UCSORGFRONT
 10
0.0
 20
0.0
 30
0.0
  9
$UCSORGBACK
 10
0.0
 20
0.0
 30
0.0
  9
$PUCSBASE
  2

  9
$PUCSNAME
  2

  9
$PUCSORG
 10
0.0
 20
0.0
 30
0.0
  9
$PUCSXDIR
 10
1.0
 20
0.0
 30
0.0
  9
$PUCSYDIR
 10
0.0
 20
1.0
 30
0.0
  9
$PUCSORTHOREF
  2

  9
$PUCSORTHOVIEW
 70
     0
  9
$PUCSORGTOP
 10
0.0
 20
0.0
 30
0.0
  9
$PUCSORGBOTTOM
 10
0.0
 20
0.0
 30
0.0
  9
$PUCSORGLEFT
 10
0.0
 20
0.0
 30
0.0
  9
$PUCSORGRIGHT
 10
0.0
 20
0.0
 30
0.0
  9
$PUCSORGFRONT
 10
0.0
 20
0.0
 30
0.0
  9
$PUCSORGBACK
 10
0.0
 20
0.0
 30
0.0
  9
$USERI1
 70
     0
  9
$USERI2
 70
     0
  9
$USERI3
 70
     0
  9
$USERI4
 70
     0
  9
$USERI5
 70
     0
  9
$USERR1
 40
0.0
  9
$USERR2
 40
0.0
  9
$USERR3
 40
0.0
  9
$USERR4
 40
0.0
  9
$USERR5
 40
0.0
  9
$WORLDVIEW
 70
     1
  9
$SHADEDGE
 70
     3
  9
$SHADEDIF
 70
    70
  9
$TILEMODE
 70
     1
  9
$MAXACTVP
 70
    64
  9
$PINSBASE
 10
0.0
 20
0.0
 30
0.0
  9
$PLIMCHECK
 70
     0
  9
$PEXTMIN
 10
1.000000000000000E+20
 20
1.000000000000000E+20
 30
1.000000000000000E+20
  9
$PEXTMAX
 10
-1.000000000000000E+20
 20
-1.000000000000000E+20
 30
-1.000000000000000E+20
  9
$PLIMMIN
 10
-0.25
 20
-0.25
  9
$PLIMMAX
 10
10.75
 20
8.25
  9
$UNITMODE
 70
     0
  9
$VISRETAIN
 70
     1
  9
$PLINEGEN
 70
     0
  9
$PSLTSCALE
 70
     1
  9
$TREEDEPTH
 70
  3020
  9
$CMLSTYLE
  2
Standard
  9
$CMLJUST
 70
     0
  9
$CMLSCALE
 40
1.0
  9
$PROXYGRAPHICS
 70
     1
  9
$MEASUREMENT
 70
     0
  9
$CELWEIGHT
370
    -1
  9
$ENDCAPS
280
     0
  9
$JOINSTYLE
280
     0
  9
$LWDISPLAY
290
     1
  9
$INSUNITS
 70
     1
  9
$HYPERLINKBASE
  1

  9
$STYLESHEET
  1

  9
$XEDIT
290
     1
  9
$CEPSNTYPE
380
     0
  9
$PSTYLEMODE
290
     1
  9
$FINGERPRINTGUID
  2
{657864C3-47B3-8B40-369C-A566A19916FA}
  9
$VERSIONGUID
  2
{FAEB1C32-E019-11D5-929B-00C0DF256EC4}
  9
$EXTNAMES
290
     1
  9
$PSVPSCALE
 40
0.0
  9
$OLESTARTUP
290
     0
  0
ENDSEC
  0
SECTION
  2
CLASSES
  0
CLASS
  1
ACDBDICTIONARYWDFLT
  2
AcDbDictionaryWithDefault
  3
ObjectDBX Classes
 90
        0
280
     0
281
     0
  0
CLASS
  1
VISUALSTYLE
  2
AcDbVisualStyle
  3
ObjectDBX Classes
 90
     4095
280
     0
281
     0
  0
CLASS
  1
MATERIAL
  2
AcDbMaterial
  3
ObjectDBX Classes
 90
     1153
280
     0
281
     0
  0
CLASS
  1
WIPEOUTVARIABLES
  2
AcDbWipeoutVariables
  3
WipeOut|AutoCAD Express Tool|expresstools@autodesk.com
 90
        0
280
     0
281
     0
  0
CLASS
  1
WIPEOUT
  2
AcDbWipeout
  3
WipeOut|AutoCAD Express Tool|expresstools@autodesk.com
 90
      127
280
     0
281
     1
  0
CLASS
  1
SCALE
  2
AcDbScale
  3
ObjectDBX Classes
 90
     1153
280
     0
281
     0
  0
CLASS
  1
DICTIONARYVAR
  2
AcDbDictionaryVar
  3
ObjectDBX Classes
 90
        0
280
     0
281
     0
  0
CLASS
  1
ACDBPLACEHOLDER
  2
AcDbPlaceHolder
  3
ObjectDBX Classes
 90
        0
280
     0
281
     0
  0
CLASS
  1
LAYOUT
  2
AcDbLayout
  3
ObjectDBX Classes
 90
        0
280
     0
281
     0
  0
ENDSEC
  0
SECTION
  2
TABLES
  0
TABLE
  2
VPORT
  5
8
330
0
100
AcDbSymbolTable
 70
     1
  0
VPORT
  5
29
330
8
100
AcDbSymbolTableRecord
100
AcDbViewportTableRecord
  2
*Active
 70
     0
 10
0.0
 20
0.0
 11
1.0
 21
1.0
 12
-3.641732283464762
 22
1.820866141732267
 13
0.0
 23
0.0
 14
0.5
 24
0.5
 15
0.5
 25
0.5
 16
0.0
 26
0.0
 36
1.0
 17
0.0
 27
0.0
 37
0.0
 40
1850.0
 41
0.0095982468949475
 42
2000.0
 43
0.0
 44
0.0
 50
0.0
 51
0.0
 71
     0
 72
   100
 73
     1
 74
     3
 75
     0
 76
     0
 77
     0
 78
     0
281
     0
 65
     1
110
0.0
120
0.0
130
0.0
111
1.0
121
0.0
131
0.0
112
0.0
122
1.0
132
0.0
 79
     0
146
0.0
  0
ENDTAB
  0
TABLE
  2
LTYPE
  5
5
330
0
100
AcDbSymbolTable
 70
    11
  0
LTYPE
  5
14
330
5
100
AcDbSymbolTableRecord
100
AcDbLinetypeTableRecord
  2
ByBlock
 70
     0
  3

 72
    65
 73
     0
 40
0.0
  0
LTYPE
  5
15
330
5
100
AcDbSymbolTableRecord
100
AcDbLinetypeTableRecord
  2
ByLayer
 70
     0
  3

 72
    65
 73
     0
 40
0.0
  0
LTYPE
  5
16
330
5
100
AcDbSymbolTableRecord
100
AcDbLinetypeTableRecord
  2
Continuous
 70
     0
  3
Solid line
 72
    65
 73
     0
 40
0.0
  0
LTYPE
  5
88
330
5
100
AcDbSymbolTableRecord
100
AcDbLinetypeTableRecord
  2
Dash Style-1
 70
     0
  3

 72
    65
 73
     2
 40
0.20828
 49
0.20828
 74
     0
 49
-0.20836
 74
     0
  0
LTYPE
  5
89
330
5
100
AcDbSymbolTableRecord
100
AcDbLinetypeTableRecord
  2
Dash Style-2
 70
     0
  3

 72
    65
 73
     2
 40
0.48607
 49
0.48607
 74
     0
 49
-0.2083550000000001
 74
     0
  0
LTYPE
  5
8A
330
5
100
AcDbSymbolTableRecord
100
AcDbLinetypeTableRecord
  2
Dash Style-3
 70
     0
  3

 72
    65
 73
     2
 40
1.04164
 49
1.04164
 74
     0
 49
-0.2083599999999999
 74
     0
  0
LTYPE
  5
8B
330
5
100
AcDbSymbolTableRecord
100
AcDbLinetypeTableRecord
  2
Dash Style-4
 70
     0
  3

 72
    65
 73
     2
 40
1.319425
 49
1.319425
 74
     0
 49
-0.208285
 74
     0
  0
LTYPE
  5
8C
330
5
100
AcDbSymbolTableRecord
100
AcDbLinetypeTableRecord
  2
Dash Style-5
 70
     0
  3

 72
    65
 73
     2
 40
0.069425
 49
0.069425
 74
     0
 49
-0.138855
 74
     0
  0
LTYPE
  5
8D
330
5
100
AcDbSymbolTableRecord
100
AcDbLinetypeTableRecord
  2
Dash Style-6
 70
     0
  3

 72
    65
 73
     4
 40
0.625
 49
0.625
 74
     0
 49
-0.20828
 74
     0
 49
0.06943
 74
     0
 49
-0.13893
 74
     0
  0
LTYPE
  5
8E
330
5
100
AcDbSymbolTableRecord
100
AcDbLinetypeTableRecord
  2
Dash Style-7
 70
     0
  3

 72
    65
 73
     6
 40
0.625
 49
0.625
 74
     0
 49
-0.20828
 74
     0
 49
0.6250000000000001
 74
     0
 49
-0.2083599999999999
 74
     0
 49
0.06943
 74
     0
 49
-0.1389299999999999
 74
     0
  0
LTYPE
  5
8F
330
5
100
AcDbSymbolTableRecord
100
AcDbLinetypeTableRecord
  2
Dash Style-8
 70
     0
  3

 72
    65
 73
     6
 40
0.625
 49
0.625
 74
     0
 49
-0.20828
 74
     0
 49
0.06943
 74
     0
 49
-0.13893
 74
     0
 49
0.0694299999999999
 74
     0
 49
-0.13893
 74
     0
  0
LTYPE
  5
90
330
5
100
AcDbSymbolTableRecord
100
AcDbLinetypeTableRecord
  2
Dash Style-9
 70
     0
  3

 72
    65
 73
     4
 40
3.75
 49
3.75
 74
     0
 49
-0.2777849999999998
 74
     0
 49
0.6944300000000003
 74
     0
 49
-0.2777849999999998
 74
     0
  0
LTYPE
  5
91
330
5
100
AcDbSymbolTableRecord
100
AcDbLinetypeTableRecord
  2
Dash Style-10
 70
     0
  3

 72
    65
 73
     6
 40
3.75
 49
3.75
 74
     0
 49
-0.2777849999999998
 74
     0
 49
0.6944300000000003
 74
     0
 49
-0.2777849999999998
 74
     0
 49
0.625
 74
     0
 49
-0.3125
 74
     0
  0
ENDTAB
  0
TABLE
  2
LAYER
  5
2
330
0
100
AcDbSymbolTable
 70
    10
  0
LAYER
  5
10
330
2
100
AcDbSymbolTableRecord
100
AcDbLayerTableRecord
  2
0
 70
     0
 62
   251
  6
Continuous
370
    15
390
F
  0
LAYER
  5
92
330
2
100
AcDbSymbolTableRecord
100
AcDbLayerTableRecord
  2
None
 70
     0
 62
     7
  6
Continuous
370
     5
390
F
  0
LAYER
  5
93
330
2
100
AcDbSymbolTableRecord
100
AcDbLayerTableRecord
  2
Dimension
 70
     0
 62
     7
  6
Continuous
370
     5
390
F
  0
LAYER
  5
94
330
2
100
AcDbSymbolTableRecord
100
AcDbLayerTableRecord
  2
elements-ojects
 70
     0
 62
     7
  6
Continuous
370
    15
390
F
  0
LAYER
  5
95
330
2
100
AcDbSymbolTableRecord
100
AcDbLayerTableRecord
  2
Layer0
 70
     0
 62
     1
  6
Continuous
370
    15
390
F
  0
LAYER
  5
96
330
2
100
AcDbSymbolTableRecord
100
AcDbLayerTableRecord
  2
FIXT
 70
     0
 62
     7
  6
Continuous
370
    15
390
F
  0
LAYER
  5
97
330
2
100
AcDbSymbolTableRecord
100
AcDbLayerTableRecord
  2
studio
 70
     0
 62
     7
  6
Continuous
370
    15
390
F
  0
LAYER
  5
98
330
2
100
AcDbSymbolTableRecord
100
AcDbLayerTableRecord
  2
WINDOW
 70
     0
 62
     2
  6
Continuous
370
    15
390
F
  0
LAYER
  5
99
330
2
100
AcDbSymbolTableRecord
100
AcDbLayerTableRecord
  2
A-ARCH
 70
     0
 62
   251
  6
Continuous
370
    15
390
F
  0
LAYER
  5
9A
330
2
100
AcDbSymbolTableRecord
100
AcDbLayerTableRecord
  2
Defpoints
 70
     0
 62
     7
  6
Continuous
290
     0
370
    -3
390
F
  0
ENDTAB
  0
TABLE
  2
STYLE
  5
3
330
0
100
AcDbSymbolTable
 70
     4
  0
STYLE
  5
11
330
3
100
AcDbSymbolTableRecord
100
AcDbTextStyleTableRecord
  2
STANDARD
 70
     0
 40
0.0
 41
1.0
 50
0.0
 71
     0
 42
0.2
  3
txt
  4

  0
STYLE
  5
85
330
3
100
AcDbSymbolTableRecord
100
AcDbTextStyleTableRecord
  2
Arial Narrow
 70
     0
 40
0.0
 41
1.0
 50
0.0
 71
     0
 42
0.0
  3
Arial Narrow
  4

1001
ACAD
1000
Arial Narrow
1071
        0
  0
STYLE
  5
86
330
3
100
AcDbSymbolTableRecord
100
AcDbTextStyleTableRecord
  2
Arial Narrow (bold)
 70
     0
 40
0.0
 41
1.0
 50
0.0
 71
     0
 42
0.0
  3
Arial Narrow
  4

1001
ACAD
1000
Arial Narrow
1071
 33554432
  0
STYLE
  5
87
330
3
100
AcDbSymbolTableRecord
100
AcDbTextStyleTableRecord
  2
Helvetica
 70
     0
 40
0.0
 41
1.0
 50
0.0
 71
     0
 42
0.0
  3
Helvetica
  4

1001
ACAD
1000
Helvetica
1071
        0
  0
ENDTAB
  0
TABLE
  2
VIEW
  5
6
330
0
100
AcDbSymbolTable
 70
     0
  0
ENDTAB
  0
TABLE
  2
UCS
  5
7
330
0
100
AcDbSymbolTable
 70
     0
  0
ENDTAB
  0
TABLE
  2
APPID
  5
9
330
0
100
AcDbSymbolTable
 70
     1
  0
APPID
  5
12
330
9
100
AcDbSymbolTableRecord
100
AcDbRegAppTableRecord
  2
ACAD
 70
     0
  0
ENDTAB
  0
TABLE
  2
DIMSTYLE
  5
A
330
0
100
AcDbSymbolTable
 70
     3
100
AcDbDimStyleTable
  0
DIMSTYLE
105
27
330
A
100
AcDbSymbolTableRecord
100
AcDbDimStyleTableRecord
  2
Standard
 70
     0
340
11
  0
DIMSTYLE
105
9B
330
A
100
AcDbSymbolTableRecord
100
AcDbDimStyleTableRecord
  2
Arch
 70
     0
  3
<>
  4
[]
 41
23.125
 42
11.5625
 43
0.4
 44
23.125
 46
11.5625
 73
     0
 74
     0
 77
     1
 78
     8
140
22.11764227146026
141
0.0
143
1.0
147
0.0625
171
     3
172
     1
174
     1
179
     2
271
     3
272
     3
273
     4
276
     2
277
     4
284
     8
285
     8
286
     8
289
     0
340
87
341
A5
342
9C
343
9C
344
9C
  0
DIMSTYLE
105
AF
102
{ACAD_REACTORS
330
3F3
330
3F4
102
}
330
A
100
AcDbSymbolTableRecord
100
AcDbDimStyleTableRecord
  2
ASME
 70
     0
  3
<>
  4
[]
 41
23.125
 42
11.5625
 43
0.4
 44
23.125
 78
     8
140
22.11764227146026
141
0.0
143
1.0
147
0.0
171
     3
174
     1
179
     2
271
     3
272
     3
273
     4
276
     2
277
     4
284
     8
285
     8
286
     8
289
     0
340
87
341
A5
342
A5
343
A5
344
A5
  0
ENDTAB
  0
TABLE
  2
BLOCK_RECORD
  5
1
330
0
100
AcDbSymbolTable
 70
    26
  0
BLOCK_RECORD
  5
1F
330
1
100
AcDbSymbolTableRecord
100
AcDbBlockTableRecord
  2
*Model_Space
340
22
  0
BLOCK_RECORD
  5
1B
330
1
100
AcDbSymbolTableRecord
100
AcDbBlockTableRecord
  2
*Paper_Space
340
1E
  0
BLOCK_RECORD
  5
3F
330
1
100
AcDbSymbolTableRecord
100
AcDbBlockTableRecord
  2
Group-1
340
0
102
{BLKREFS
331
3ED
102
}
  0
BLOCK_RECORD
  5
42
330
1
100
AcDbSymbolTableRecord
100
AcDbBlockTableRecord
  2
Group-2-1
340
0
102
{BLKREFS
331
1CF
102
}
  0
BLOCK_RECORD
  5
45
330
1
100
AcDbSymbolTableRecord
100
AcDbBlockTableRecord
  2
Group-3-1
340
0
102
{BLKREFS
331
253
102
}
  0
BLOCK_RECORD
  5
48
330
1
100
AcDbSymbolTableRecord
100
AcDbBlockTableRecord
  2
Group-4-1
340
0
102
{BLKREFS
331
3F2
102
}
  0
BLOCK_RECORD
  5
4B
330
1
100
AcDbSymbolTableRecord
100
AcDbBlockTableRecord
  2
*D5
340
0
  0
BLOCK_RECORD
  5
4E
330
1
100
AcDbSymbolTableRecord
100
AcDbBlockTableRecord
  2
*D6
340
0
  0
BLOCK_RECORD
  5
51
330
1
100
AcDbSymbolTableRecord
100
AcDbBlockTableRecord
  2
Group-5-1
340
0
102
{BLKREFS
331
322
102
}
  0
BLOCK_RECORD
  5
54
330
1
100
AcDbSymbolTableRecord
100
AcDbBlockTableRecord
  2
Group-6-1
340
0
102
{BLKREFS
331
323
102
}
  0
BLOCK_RECORD
  5
57
330
1
100
AcDbSymbolTableRecord
100
AcDbBlockTableRecord
  2
Group-7-1
340
0
102
{BLKREFS
331
32B
102
}
  0
BLOCK_RECORD
  5
5A
330
1
100
AcDbSymbolTableRecord
100
AcDbBlockTableRecord
  2
Group-8-1
340
0
102
{BLKREFS
331
32C
102
}
  0
BLOCK_RECORD
  5
5D
330
1
100
AcDbSymbolTableRecord
100
AcDbBlockTableRecord
  2
Group-9-1
340
0
102
{BLKREFS
331
32D
102
}
  0
BLOCK_RECORD
  5
60
330
1
100
AcDbSymbolTableRecord
100
AcDbBlockTableRecord
  2
Group-10-1
340
0
102
{BLKREFS
331
32E
102
}
  0
BLOCK_RECORD
  5
63
330
1
100
AcDbSymbolTableRecord
100
AcDbBlockTableRecord
  2
Group-11-1
340
0
102
{BLKREFS
331
370
102
}
  0
BLOCK_RECORD
  5
66
330
1
100
AcDbSymbolTableRecord
100
AcDbBlockTableRecord
  2
Group-12-1
340
0
102
{BLKREFS
331
371
102
}
  0
BLOCK_RECORD
  5
69
330
1
100
AcDbSymbolTableRecord
100
AcDbBlockTableRecord
  2
Group-13-1
340
0
102
{BLKREFS
331
372
102
}
  0
BLOCK_RECORD
  5
6C
330
1
100
AcDbSymbolTableRecord
100
AcDbBlockTableRecord
  2
Group-14-1
340
0
102
{BLKREFS
331
37A
102
}
  0
BLOCK_RECORD
  5
6F
330
1
100
AcDbSymbolTableRecord
100
AcDbBlockTableRecord
  2
Group-15-1
340
0
102
{BLKREFS
331
37B
102
}
  0
BLOCK_RECORD
  5
72
330
1
100
AcDbSymbolTableRecord
100
AcDbBlockTableRecord
  2
Group-16-1
340
0
102
{BLKREFS
331
37C
102
}
  0
BLOCK_RECORD
  5
75
330
1
100
AcDbSymbolTableRecord
100
AcDbBlockTableRecord
  2
Group-17-1
340
0
102
{BLKREFS
331
405
102
}
  0
BLOCK_RECORD
  5
78
330
1
100
AcDbSymbolTableRecord
100
AcDbBlockTableRecord
  2
Group-18-1
340
0
102
{BLKREFS
331
3C5
102
}
  0
BLOCK_RECORD
  5
7B
330
1
100
AcDbSymbolTableRecord
100
AcDbBlockTableRecord
  2
Group-19-1
340
0
102
{BLKREFS
331
3D2
102
}
  0
BLOCK_RECORD
  5
7E
330
1
100
AcDbSymbolTableRecord
100
AcDbBlockTableRecord
  2
Group-20-1
340
0
102
{BLKREFS
331
3D5
102
}
  0
BLOCK_RECORD
  5
81
330
1
100
AcDbSymbolTableRecord
100
AcDbBlockTableRecord
  2
Group-21-1
340
0
102
{BLKREFS
331
406
102
}
  0
BLOCK_RECORD
  5
9C
330
1
100
AcDbSymbolTableRecord
100
AcDbBlockTableRecord
  2
VW_SLASH
340
0
  0
BLOCK_RECORD
  5
A5
330
1
100
AcDbSymbolTableRecord
100
AcDbBlockTableRecord
  2
VW_FILLEDARROW
340
0
102
{BLKREFS
331
279
331
278
331
28D
331
28C
102
}
  0
ENDTAB
  0
ENDSEC
  0
SECTION
  2
BLOCKS
  0
BLOCK
  5
20
330
1F
100
AcDbEntity
  8
0
100
AcDbBlockBegin
  2
*Model_Space
 70
     0
 10
0.0
 20
0.0
 30
0.0
  3
*Model_Space
  1

  0
ENDBLK
  5
21
330
1F
100
AcDbEntity
  8
0
100
AcDbBlockEnd
  0
BLOCK
  5
1C
330
1B
100
AcDbEntity
 67
     1
  8
0
100
AcDbBlockBegin
  2
*Paper_Space
 70
     0
 10
0.0
 20
0.0
 30
0.0
  3
*Paper_Space
  1

  0
ENDBLK
  5
1D
330
1B
100
AcDbEntity
 67
     1
  8
0
100
AcDbBlockEnd
  0
BLOCK
  5
40
330
3F
100
AcDbEntity
  8
0
100
AcDbBlockBegin
  2
Group-1
 70
     0
 10
0.0
 20
0.0
 30
0.0
  3
Group-1
  1

  0
ELLIPSE
  5
B0
330
3F
100
AcDbEntity
  8
None
  6
Continuous
 62
     7
370
    20
100
AcDbEllipse
 10
-7.452929080540777
 20
4.461161964625585
 30
0.0
 11
0.3453220542379974
 21
0.0
 31
0.0
210
0.0
220
0.0
230
1.0
 40
1.0
 41
0.0
 42
6.283185307179586
  0
POLYLINE
  5
B1
102
{ACAD_REACTORS
330
BC
102
}
330
3F
100
AcDbEntity
  8
None
  6
Continuous
 62
     7
370
    20
100
AcDb2dPolyline
 66
     1
 10
0.0
 20
0.0
 30
0.0
 70
     1
  0
VERTEX
  5
B2
330
B1
100
AcDbEntity
  8
None
  6
Continuous
 62
     7
370
    20
100
AcDbVertex
100
AcDb2dVertex
 10
-7.483269766870236
 20
4.180979528895537
 30
0.0
  0
VERTEX
  5
B3
330
B1
100
AcDbEntity
  8
None
  6
Continuous
 62
     7
370
    20
100
AcDbVertex
100
AcDb2dVertex
 10
-7.413147841763736
 20
4.180979528895537
 30
0.0
  0
VERTEX
  5
B4
330
B1
100
AcDbEntity
  8
None
  6
Continuous
 62
     7
370
    20
100
AcDbVertex
100
AcDb2dVertex
 10
-7.413147841763736
 20
4.617134820022656
 30
0.0
  0
VERTEX
  5
B5
330
B1
100
AcDbEntity
  8
None
  6
Continuous
 62
     7
370
    20
100
AcDbVertex
100
AcDb2dVertex
 10
-7.170642528469851
 20
4.374629368599948
 30
0.0
  0
VERTEX
  5
B6
330
B1
100
AcDbEntity
  8
None
  6
Continuous
 62
     7
370
    20
100
AcDbVertex
100
AcDb2dVertex
 10
-7.170642528469851
 20
4.464115158833429
 30
0.0
  0
VERTEX
  5
B7
330
B1
100
AcDbEntity
  8
None
  6
Continuous
 62
     7
370
    20
100
AcDbVertex
100
AcDb2dVertex
 10
-7.448208804316989
 20
4.74168143468057
 30
0.0
  0
VERTEX
  5
B8
330
B1
100
AcDbEntity
  8
None
  6
Continuous
 62
     7
370
    20
100
AcDbVertex
100
AcDb2dVertex
 10
-7.73161820557948
 20
4.458272033418078
 30
0.0
  0
VERTEX
  5
B9
330
B1
100
AcDbEntity
  8
None
  6
Continuous
 62
     7
370
    20
100
AcDbVertex
100
AcDb2dVertex
 10
-7.73161820557948
 20
4.368785276282842
 30
0.0
  0
VERTEX
  5
BA
330
B1
100
AcDbEntity
  8
None
  6
Continuous
 62
     7
370
    20
100
AcDbVertex
100
AcDb2dVertex
 10
-7.483269766870236
 20
4.617134820022656
 30
0.0
  0
SEQEND
  5
BB
330
B1
100
AcDbEntity
  8
None
  6
Continuous
 62
     7
370
    20
  0
HATCH
  5
BC
330
3F
100
AcDbEntity
  8
None
  6
Continuous
 62
     7
370
     0
100
AcDbHatch
 10
0.0
 20
0.0
 30
0.0
210
0.0
220
0.0
230
1.0
  2
SOLID
 70
     1
 71
     1
 91
        1
 92
        1
 93
        9
 72
     1
 10
-7.483269766870236
 20
4.180979528895537
 11
-7.413147841763736
 21
4.180979528895537
 72
     1
 10
-7.413147841763736
 20
4.180979528895537
 11
-7.413147841763736
 21
4.617134820022656
 72
     1
 10
-7.413147841763736
 20
4.617134820022656
 11
-7.170642528469851
 21
4.374629368599948
 72
     1
 10
-7.170642528469851
 20
4.374629368599948
 11
-7.170642528469851
 21
4.464115158833429
 72
     1
 10
-7.170642528469851
 20
4.464115158833429
 11
-7.448208804316989
 21
4.74168143468057
 72
     1
 10
-7.448208804316989
 20
4.74168143468057
 11
-7.73161820557948
 21
4.458272033418078
 72
     1
 10
-7.73161820557948
 20
4.458272033418078
 11
-7.73161820557948
 21
4.368785276282842
 72
     1
 10
-7.73161820557948
 20
4.368785276282842
 11
-7.483269766870236
 21
4.617134820022656
 72
     1
 10
-7.483269766870236
 20
4.617134820022656
 11
-7.483269766870236
 21
4.180979528895537
 97
        1
330
B1
 75
     0
 76
     1
 98
        1
 10
0.0
 20
0.0
  0
ENDBLK
  5
41
330
3F
100
AcDbEntity
  8
0
100
AcDbBlockEnd
  0
BLOCK
  5
43
330
42
100
AcDbEntity
  8
0
100
AcDbBlockBegin
  2
Group-2-1
 70
     0
 10
0.0
 20
0.0
 30
0.0
  3
Group-2-1
  1

  0
LINE
  5
BD
330
42
100
AcDbEntity
  8
A-ARCH
  6
Continuous
 62
   250
370
     9
100
AcDbLine
 10
7.863555103975447
 20
-3.424102189536526
 30
0.0
 11
7.863555103975447
 21
-4.701284458089557
 31
0.0
  0
POLYLINE
  5
BE
330
42
100
AcDbEntity
  8
WINDOW
  6
Continuous
 62
   250
370
     9
100
AcDb2dPolyline
 66
     1
 10
0.0
 20
0.0
 30
0.0
 70
     1
  0
VERTEX
  5
BF
330
BE
100
AcDbEntity
  8
WINDOW
  6
Continuous
 62
   250
370
     9
100
AcDbVertex
100
AcDb2dVertex
 10
5.440053378592385
 20
-3.678295151429747
 30
0.0
  0
VERTEX
  5
C0
330
BE
100
AcDbEntity
  8
WINDOW
  6
Continuous
 62
   250
370
     9
100
AcDbVertex
100
AcDb2dVertex
 10
5.547409834694519
 20
-3.661923859915148
 30
0.0
  0
VERTEX
  5
C1
330
BE
100
AcDbEntity
  8
WINDOW
  6
Continuous
 62
   250
370
     9
100
AcDbVertex
100
AcDb2dVertex
 10
5.649637126465617
 20
-3.625881138295007
 30
0.0
  0
VERTEX
  5
C2
330
BE
100
AcDbEntity
  8
WINDOW
  6
Continuous
 62
   250
370
     9
100
AcDbVertex
100
AcDb2dVertex
 10
5.754114163761181
 20
-3.573900338677198
 30
0.0
  0
VERTEX
  5
C3
330
BE
100
AcDbEntity
  8
WINDOW
  6
Continuous
 62
   250
370
     9
100
AcDbVertex
100
AcDb2dVertex
 10
5.923262810258285
 20
-3.643564729196933
 30
0.0
  0
VERTEX
  5
C4
330
BE
100
AcDbEntity
  8
WINDOW
  6
Continuous
 62
   250
370
     9
100
AcDbVertex
100
AcDb2dVertex
 10
5.923262810258285
 20
-3.726262697998546
 30
0.0
  0
VERTEX
  5
C5
330
BE
100
AcDbEntity
  8
WINDOW
  6
Continuous
 62
   250
370
     9
100
AcDbVertex
100
AcDb2dVertex
 10
5.3514519375272
 20
-3.726262697998546
 30
0.0
  0
VERTEX
  5
C6
330
BE
100
AcDbEntity
  8
WINDOW
  6
Continuous
 62
   250
370
     9
100
AcDbVertex
100
AcDb2dVertex
 10
5.3514519375272
 20
-3.702450924143875
 30
0.0
  0
VERTEX
  5
C7
330
BE
100
AcDbEntity
  8
WINDOW
  6
Continuous
 62
   250
370
     9
100
AcDbVertex
100
AcDb2dVertex
 10
5.351204396922495
 20
-3.678893934491183
 30
0.0
  0
SEQEND
  5
C8
330
BE
100
AcDbEntity
  8
WINDOW
  6
Continuous
 62
   250
370
     9
  0
POLYLINE
  5
C9
330
42
100
AcDbEntity
  8
None
  6
Continuous
 62
   250
370
     9
100
AcDb2dPolyline
 66
     1
 10
0.0
 20
0.0
 30
0.0
 70
     1
  0
VERTEX
  5
CA
330
C9
100
AcDbEntity
  8
None
  6
Continuous
 62
   250
370
     9
100
AcDbVertex
100
AcDb2dVertex
 10
6.008229334465643
 20
-3.844487077747153
 30
0.0
  0
VERTEX
  5
CB
330
C9
100
AcDbEntity
  8
None
  6
Continuous
 62
   250
370
     9
100
AcDbVertex
100
AcDb2dVertex
 10
6.008229334465643
 20
-3.927601057945823
 30
0.0
  0
VERTEX
  5
CC
330
C9
100
AcDbEntity
  8
None
  6
Continuous
 62
   250
370
     9
100
AcDbVertex
100
AcDb2dVertex
 10
5.955510926651987
 20
-3.927601057945823
 30
0.0
  0
VERTEX
  5
CD
330
C9
100
AcDbEntity
  8
None
  6
Continuous
 62
   250
370
     9
100
AcDbVertex
100
AcDb2dVertex
 10
5.955510926651987
 20
-3.844487077747153
 30
0.0
  0
SEQEND
  5
CE
330
C9
100
AcDbEntity
  8
None
  6
Continuous
 62
   250
370
     9
  0
POLYLINE
  5
CF
330
42
100
AcDbEntity
  8
WINDOW
  6
Continuous
 62
   250
370
     9
100
AcDb2dPolyline
 66
     1
 10
0.0
 20
0.0
 30
0.0
 70
     1
  0
VERTEX
  5
D0
330
CF
100
AcDbEntity
  8
WINDOW
  6
Continuous
 62
   250
370
     9
100
AcDbVertex
100
AcDb2dVertex
 10
5.979663384592793
 20
-3.44825464747733
 30
0.0
  0
VERTEX
  5
D1
330
CF
100
AcDbEntity
  8
WINDOW
  6
Continuous
 62
   250
370
     9
100
AcDbVertex
100
AcDb2dVertex
 10
5.979203884080467
 20
-3.440725319984767
 30
0.0
  0
VERTEX
  5
D2
330
CF
100
AcDbEntity
  8
WINDOW
  6
Continuous
 62
   250
370
     9
100
AcDbVertex
100
AcDb2dVertex
 10
6.07684401944534
 20
-3.387585484564378
 30
0.0
  0
VERTEX
  5
D3
330
CF
100
AcDbEntity
  8
WINDOW
  6
Continuous
 62
   250
370
     9
100
AcDbVertex
100
AcDb2dVertex
 10
6.102405773306988
 20
-3.376074221839308
 30
0.0
  0
VERTEX
  5
D4
330
CF
100
AcDbEntity
  8
WINDOW
  6
Continuous
 62
   250
370
     9
100
AcDbVertex
100
AcDb2dVertex
 10
6.118434552019402
 20
-3.370905998380941
 30
0.0
  0
VERTEX
  5
D5
330
CF
100
AcDbEntity
  8
WINDOW
  6
Continuous
 62
   250
370
     9
100
AcDbVertex
100
AcDb2dVertex
 10
6.14548953159324
 20
-3.36580117512467
 30
0.0
  0
VERTEX
  5
D6
330
CF
100
AcDbEntity
  8
WINDOW
  6
Continuous
 62
   250
370
     9
100
AcDbVertex
100
AcDb2dVertex
 10
6.18845816316331
 20
-3.36383597013022
 30
0.0
  0
VERTEX
  5
D7
330
CF
100
AcDbEntity
  8
WINDOW
  6
Continuous
 62
   250
370
     9
100
AcDbVertex
100
AcDb2dVertex
 10
7.51063797965105
 20
-3.36383597013022
 30
0.0
  0
VERTEX
  5
D8
330
CF
100
AcDbEntity
  8
WINDOW
  6
Continuous
 62
   250
370
     9
100
AcDbVertex
100
AcDb2dVertex
 10
7.510944313325931
 20
-3.382110726160646
 30
0.0
  0
VERTEX
  5
D9
330
CF
100
AcDbEntity
  8
WINDOW
  6
Continuous
 62
   250
370
     9
100
AcDbVertex
100
AcDb2dVertex
 10
6.119098140801325
 20
-3.382263691727604
 30
0.0
  0
SEQEND
  5
DA
330
CF
100
AcDbEntity
  8
WINDOW
  6
Continuous
 62
   250
370
     9
  0
POLYLINE
  5
DB
330
42
100
AcDbEntity
  8
WINDOW
  6
Continuous
 62
   250
370
     9
100
AcDb2dPolyline
 66
     1
 10
0.0
 20
0.0
 30
0.0
 70
     1
  0
VERTEX
  5
DC
330
DB
100
AcDbEntity
  8
WINDOW
  6
Continuous
 62
   250
370
     9
100
AcDbVertex
100
AcDb2dVertex
 10
7.509771912763388
 20
-3.419652099160933
 30
0.0
  0
VERTEX
  5
DD
330
DB
100
AcDbEntity
  8
WINDOW
  6
Continuous
 62
   250
370
     9
100
AcDbVertex
100
AcDb2dVertex
 10
6.552029137955878
 20
-3.419652099160934
 30
0.0
  0
VERTEX
  5
DE
330
DB
100
AcDbEntity
  8
WINDOW
  6
Continuous
 62
   250
370
     9
100
AcDbVertex
100
AcDb2dVertex
 10
6.552029137955878
 20
-3.404886695269306
 30
0.0
  0
VERTEX
  5
DF
330
DB
100
AcDbEntity
  8
WINDOW
  6
Continuous
 62
   250
370
     9
100
AcDbVertex
100
AcDb2dVertex
 10
7.509771912763388
 20
-3.404874015228887
 30
0.0
  0
SEQEND
  5
E0
330
DB
100
AcDbEntity
  8
WINDOW
  6
Continuous
 62
   250
370
     9
  0
POLYLINE
  5
E1
330
42
100
AcDbEntity
  8
WINDOW
  6
Continuous
 62
   250
370
     9
100
AcDb2dPolyline
 66
     1
 10
0.0
 20
0.0
 30
0.0
 70
     1
  0
VERTEX
  5
E2
330
E1
100
AcDbEntity
  8
WINDOW
  6
Continuous
 62
   250
370
     9
100
AcDbVertex
100
AcDb2dVertex
 10
6.027968300474397
 20
-3.436178418506927
 30
0.0
  0
VERTEX
  5
E3
330
E1
100
AcDbEntity
  8
WINDOW
  6
Continuous
 62
   250
370
     9
100
AcDbVertex
100
AcDb2dVertex
 10
6.030443927413329
 20
-3.441372404587098
 30
0.0
  0
VERTEX
  5
E4
330
E1
100
AcDbEntity
  8
WINDOW
  6
Continuous
 62
   250
370
     9
100
AcDbVertex
100
AcDb2dVertex
 10
6.287529331661174
 20
-3.420047595659713
 30
0.0
  0
VERTEX
  5
E5
330
E1
100
AcDbEntity
  8
WINDOW
  6
Continuous
 62
   250
370
     9
100
AcDbVertex
100
AcDb2dVertex
 10
6.552029137955878
 20
-3.419652099160933
 30
0.0
  0
VERTEX
  5
E6
330
E1
100
AcDbEntity
  8
WINDOW
  6
Continuous
 62
   250
370
     9
100
AcDbVertex
100
AcDb2dVertex
 10
6.552029137955878
 20
-3.404886695269306
 30
0.0
  0
VERTEX
  5
E7
330
E1
100
AcDbEntity
  8
WINDOW
  6
Continuous
 62
   250
370
     9
100
AcDbVertex
100
AcDb2dVertex
 10
7.509771912763388
 20
-3.404874015228887
 30
0.0
  0
VERTEX
  5
E8
330
E1
100
AcDbEntity
  8
WINDOW
  6
Continuous
 62
   250
370
     9
100
AcDbVertex
100
AcDb2dVertex
 10
7.509771912763388
 20
-3.39359260339522
 30
0.0
  0
VERTEX
  5
E9
330
E1
100
AcDbEntity
  8
WINDOW
  6
Continuous
 62
   250
370
     9
100
AcDbVertex
100
AcDb2dVertex
 10
6.119750659706694
 20
-3.39359260339522
 30
0.0
  0
SEQEND
  5
EA
330
E1
100
AcDbEntity
  8
WINDOW
  6
Continuous
 62
   250
370
     9
  0
POLYLINE
  5
EB
330
42
100
AcDbEntity
  8
WINDOW
  6
Continuous
 62
   250
370
     9
100
AcDb2dPolyline
 66
     1
 10
0.0
 20
0.0
 30
0.0
 70
     1
  0
VERTEX
  5
EC
330
EB
100
AcDbEntity
  8
WINDOW
  6
Continuous
 62
   250
370
     9
100
AcDbVertex
100
AcDb2dVertex
 10
6.668008435905684
 20
-3.44825464747733
 30
0.0
  0
VERTEX
  5
ED
330
EB
100
AcDbEntity
  8
WINDOW
  6
Continuous
 62
   250
370
     9
100
AcDbVertex
100
AcDb2dVertex
 10
6.668008435905684
 20
-3.625030311285242
 30
0.0
  0
VERTEX
  5
EE
330
EB
100
AcDbEntity
  8
WINDOW
  6
Continuous
 62
   250
370
     9
100
AcDbVertex
100
AcDb2dVertex
 10
6.619703520024079
 20
-3.590644373461467
 30
0.0
  0
VERTEX
  5
EF
330
EB
100
AcDbEntity
  8
WINDOW
  6
Continuous
 62
   250
370
     9
100
AcDbVertex
100
AcDb2dVertex
 10
6.619703520024079
 20
-3.44825464747733
 30
0.0
  0
SEQEND
  5
F0
330
EB
100
AcDbEntity
  8
WINDOW
  6
Continuous
 62
   250
370
     9
  0
POLYLINE
  5
F1
330
42
100
AcDbEntity
  8
None
  6
Continuous
 62
   250
370
     9
100
AcDb2dPolyline
 66
     1
 10
0.0
 20
0.0
 30
0.0
 70
     1
  0
VERTEX
  5
F2
330
F1
100
AcDbEntity
  8
None
  6
Continuous
 62
   250
370
     9
100
AcDbVertex
100
AcDb2dVertex
 10
6.827772526859668
 20
-3.629398082033353
 30
0.0
  0
VERTEX
  5
F3
330
F1
100
AcDbEntity
  8
None
  6
Continuous
 62
   250
370
     9
100
AcDbVertex
100
AcDb2dVertex
 10
6.827772526859668
 20
-3.581142645201538
 30
0.0
  0
VERTEX
  5
F4
330
F1
100
AcDbEntity
  8
None
  6
Continuous
 62
   250
370
     9
100
AcDbVertex
100
AcDb2dVertex
 10
6.8008469545801
 20
-3.581142645201538
 30
0.0
  0
VERTEX
  5
F5
330
F1
100
AcDbEntity
  8
None
  6
Continuous
 62
   250
370
     9
100
AcDbVertex
100
AcDb2dVertex
 10
6.8008469545801
 20
-3.629398082033353
 30
0.0
  0
VERTEX
  5
F6
330
F1
100
AcDbEntity
  8
None
  6
Continuous
 62
   250
370
     9
100
AcDbVertex
100
AcDb2dVertex
 10
6.668008435905684
 20
-3.629398082033353
 30
0.0
  0
VERTEX
  5
F7
330
F1
100
AcDbEntity
  8
None
  6
Continuous
 62
   250
370
     9
100
AcDbVertex
100
AcDb2dVertex
 10
6.668008435905684
 20
-3.44825464747733
 30
0.0
  0
VERTEX
  5
F8
330
F1
100
AcDbEntity
  8
None
  6
Continuous
 62
   250
370
     9
100
AcDbVertex
100
AcDb2dVertex
 10
6.994066618106531
 20
-3.44825464747733
 30
0.0
  0
VERTEX
  5
F9
330
F1
100
AcDbEntity
  8
None
  6
Continuous
 62
   250
370
     9
100
AcDbVertex
100
AcDb2dVertex
 10
6.994066618106531
 20
-3.608520093577875
 30
0.0
  0
VERTEX
  5
FA
330
F1
100
AcDbEntity
  8
None
  6
Continuous
 62
   250
370
     9
100
AcDbVertex
100
AcDb2dVertex
 10
6.961932577898221
 20
-3.608520093577875
 30
0.0
  0
VERTEX
  5
FB
330
F1
100
AcDbEntity
  8
None
  6
Continuous
 62
   250
370
     9
100
AcDbVertex
100
AcDb2dVertex
 10
6.961932577898221
 20
-3.629398082033353
 30
0.0
  0
SEQEND
  5
FC
330
F1
100
AcDbEntity
  8
None
  6
Continuous
 62
   250
370
     9
  0
POLYLINE
  5
FD
330
42
100
AcDbEntity
  8
FIXT
  6
Continuous
 62
   250
370
     9
100
AcDb2dPolyline
 66
     1
 10
0.0
 20
0.0
 30
0.0
 70
     1
  0
VERTEX
  5
FE
330
FD
100
AcDbEntity
  8
FIXT
  6
Continuous
 62
   250
370
     9
100
AcDbVertex
100
AcDb2dVertex
 10
6.994066618106531
 20
-3.629398082033353
 30
0.0
  0
VERTEX
  5
FF
330
FD
100
AcDbEntity
  8
FIXT
  6
Continuous
 62
   250
370
     9
100
AcDbVertex
100
AcDb2dVertex
 10
6.994066618106531
 20
-3.608520093577875
 30
0.0
  0
VERTEX
  5
100
330
FD
100
AcDbEntity
  8
FIXT
  6
Continuous
 62
   250
370
     9
100
AcDbVertex
100
AcDb2dVertex
 10
6.961932577898221
 20
-3.608520093577875
 30
0.0
  0
VERTEX
  5
101
330
FD
100
AcDbEntity
  8
FIXT
  6
Continuous
 62
   250
370
     9
100
AcDbVertex
100
AcDb2dVertex
 10
6.961932577898221
 20
-3.629398082033353
 30
0.0
  0
SEQEND
  5
102
330
FD
100
AcDbEntity
  8
FIXT
  6
Continuous
 62
   250
370
     9
  0
POLYLINE
  5
103
330
42
100
AcDbEntity
  8
None
  6
Continuous
 62
   250
370
     9
100
AcDb2dPolyline
 66
     1
 10
0.0
 20
0.0
 30
0.0
 70
     1
  0
VERTEX
  5
104
330
103
100
AcDbEntity
  8
None
  6
Continuous
 62
   250
370
     9
100
AcDbVertex
100
AcDb2dVertex
 10
7.138981365751348
 20
-3.460330876447733
 30
0.0
  0
VERTEX
  5
105
330
103
100
AcDbEntity
  8
None
  6
Continuous
 62
   250
370
     9
100
AcDbVertex
100
AcDb2dVertex
 10
7.288809727895122
 20
-3.460330876447733
 30
0.0
  0
VERTEX
  5
106
330
103
100
AcDbEntity
  8
None
  6
Continuous
 62
   250
370
     9
100
AcDbVertex
100
AcDb2dVertex
 10
7.288809727895122
 20
-3.543644377573567
 30
0.0
  0
VERTEX
  5
107
330
103
100
AcDbEntity
  8
None
  6
Continuous
 62
   250
370
     9
100
AcDbVertex
100
AcDb2dVertex
 10
7.138981365751348
 20
-3.543644377573567
 30
0.0
  0
SEQEND
  5
108
330
103
100
AcDbEntity
  8
None
  6
Continuous
 62
   250
370
     9
  0
POLYLINE
  5
109
330
42
100
AcDbEntity
  8
None
  6
Continuous
 62
   250
370
     9
100
AcDb2dPolyline
 66
     1
 10
0.0
 20
0.0
 30
0.0
 70
     1
  0
VERTEX
  5
10A
330
109
100
AcDbEntity
  8
None
  6
Continuous
 62
   250
370
     9
100
AcDbVertex
100
AcDb2dVertex
 10
7.492533297178625
 20
-3.641474311003756
 30
0.0
  0
VERTEX
  5
10B
330
109
100
AcDbEntity
  8
None
  6
Continuous
 62
   250
370
     9
100
AcDbVertex
100
AcDb2dVertex
 10
7.389572219566197
 20
-3.641474311003756
 30
0.0
  0
VERTEX
  5
10C
330
109
100
AcDbEntity
  8
None
  6
Continuous
 62
   250
370
     9
100
AcDbVertex
100
AcDb2dVertex
 10
7.389572219566197
 20
-3.626485857158475
 30
0.0
  0
VERTEX
  5
10D
330
109
100
AcDbEntity
  8
None
  6
Continuous
 62
   250
370
     9
100
AcDbVertex
100
AcDb2dVertex
 10
7.360209024587863
 20
-3.626485857158475
 30
0.0
  0
VERTEX
  5
10E
330
109
100
AcDbEntity
  8
None
  6
Continuous
 62
   250
370
     9
100
AcDbVertex
100
AcDb2dVertex
 10
7.360209024587863
 20
-3.641474311003756
 30
0.0
  0
VERTEX
  5
10F
330
109
100
AcDbEntity
  8
None
  6
Continuous
 62
   250
370
     9
100
AcDbVertex
100
AcDb2dVertex
 10
7.307073617118094
 20
-3.641474311003756
 30
0.0
  0
VERTEX
  5
110
330
109
100
AcDbEntity
  8
None
  6
Continuous
 62
   250
370
     9
100
AcDbVertex
100
AcDb2dVertex
 10
7.307073617118094
 20
-3.569016937181346
 30
0.0
  0
VERTEX
  5
111
330
109
100
AcDbEntity
  8
None
  6
Continuous
 62
   250
370
     9
100
AcDbVertex
100
AcDb2dVertex
 10
7.492533297178625
 20
-3.569016937181346
 30
0.0
  0
SEQEND
  5
112
330
109
100
AcDbEntity
  8
None
  6
Continuous
 62
   250
370
     9
  0
POLYLINE
  5
113
330
42
100
AcDbEntity
  8
None
  6
Continuous
 62
   250
370
     9
100
AcDb2dPolyline
 66
     1
 10
0.0
 20
0.0
 30
0.0
 70
     1
  0
VERTEX
  5
114
330
113
100
AcDbEntity
  8
None
  6
Continuous
 62
   250
370
     9
100
AcDbVertex
100
AcDb2dVertex
 10
7.320124800307372
 20
-3.460330876447731
 30
0.0
  0
VERTEX
  5
115
330
113
100
AcDbEntity
  8
None
  6
Continuous
 62
   250
370
     9
100
AcDbVertex
100
AcDb2dVertex
 10
7.320124800307372
 20
-3.551009426093465
 30
0.0
  0
VERTEX
  5
116
330
113
100
AcDbEntity
  8
None
  6
Continuous
 62
   250
370
     9
100
AcDbVertex
100
AcDb2dVertex
 10
7.490632297468201
 20
-3.551009426093465
 30
0.0
  0
VERTEX
  5
117
330
113
100
AcDbEntity
  8
None
  6
Continuous
 62
   250
370
     9
100
AcDbVertex
100
AcDb2dVertex
 10
7.490632297468201
 20
-3.460330876447731
 30
0.0
  0
SEQEND
  5
118
330
113
100
AcDbEntity
  8
None
  6
Continuous
 62
   250
370
     9
  0
POLYLINE
  5
119
330
42
100
AcDbEntity
  8
WINDOW
  6
Continuous
 62
   250
370
     9
100
AcDb2dPolyline
 66
     1
 10
0.0
 20
0.0
 30
0.0
 70
     1
  0
VERTEX
  5
11A
330
119
100
AcDbEntity
  8
WINDOW
  6
Continuous
 62
   250
370
     9
100
AcDbVertex
100
AcDb2dVertex
 10
6.803675880372306
 20
-4.093014175400041
 30
0.0
  0
VERTEX
  5
11B
330
119
100
AcDbEntity
  8
WINDOW
  6
Continuous
 62
   250
370
     9
100
AcDbVertex
100
AcDb2dVertex
 10
6.803675880372306
 20
-4.146231398931253
 30
0.0
  0
VERTEX
  5
11C
330
119
100
AcDbEntity
  8
WINDOW
  6
Continuous
 62
   250
370
     9
100
AcDbVertex
100
AcDb2dVertex
 10
6.701452064131368
 20
-4.146231398931253
 30
0.0
  0
VERTEX
  5
11D
330
119
100
AcDbEntity
  8
WINDOW
  6
Continuous
 62
   250
370
     9
100
AcDbVertex
100
AcDb2dVertex
 10
6.701452064131368
 20
-4.093014175400041
 30
0.0
  0
SEQEND
  5
11E
330
119
100
AcDbEntity
  8
WINDOW
  6
Continuous
 62
   250
370
     9
  0
POLYLINE
  5
11F
330
42
100
AcDbEntity
  8
WINDOW
  6
Continuous
 62
   250
370
     9
100
AcDb2dPolyline
 66
     1
 10
0.0
 20
0.0
 30
0.0
 70
     1
  0
VERTEX
  5
120
330
11F
100
AcDbEntity
  8
WINDOW
  6
Continuous
 62
   250
370
     9
100
AcDbVertex
100
AcDb2dVertex
 10
4.818743894202274
 20
-3.726020593836988
 30
0.0
  0
VERTEX
  5
121
330
11F
100
AcDbEntity
  8
WINDOW
  6
Continuous
 62
   250
370
     9
100
AcDbVertex
100
AcDb2dVertex
 10
5.267165875339094
 20
-3.726007913796568
 30
0.0
  0
VERTEX
  5
122
330
11F
100
AcDbEntity
  8
WINDOW
  6
Continuous
 62
   250
370
     9
100
AcDbVertex
100
AcDb2dVertex
 10
5.267165875339094
 20
-3.678827697373072
 30
0.0
  0
VERTEX
  5
123
330
11F
100
AcDbEntity
  8
WINDOW
  6
Continuous
 62
   250
370
     9
100
AcDbVertex
100
AcDb2dVertex
 10
4.82341457702706
 20
-3.678827697373072
 30
0.0
  0
VERTEX
  5
124
330
11F
100
AcDbEntity
  8
WINDOW
  6
Continuous
 62
   250
370
     9
100
AcDbVertex
100
AcDb2dVertex
 10
4.795057981240693
 20
-3.684621469492104
 30
0.0
  0
VERTEX
  5
125
330
11F
100
AcDbEntity
  8
WINDOW
  6
Continuous
 62
   250
370
     9
100
AcDbVertex
100
AcDb2dVertex
 10
4.775277319457658
 20
-3.697115334714399
 30
0.0
  0
VERTEX
  5
126
330
11F
100
AcDbEntity
  8
WINDOW
  6
Continuous
 62
   250
370
     9
100
AcDbVertex
100
AcDb2dVertex
 10
4.761265069712818
 20
-3.713782140857414
 30
0.0
  0
VERTEX
  5
127
330
11F
100
AcDbEntity
  8
WINDOW
  6
Continuous
 62
   250
370
     9
100
AcDbVertex
100
AcDb2dVertex
 10
4.752676254398586
 20
-3.733779772220953
 30
0.0
  0
VERTEX
  5
128
330
11F
100
AcDbEntity
  8
WINDOW
  6
Continuous
 62
   250
370
     9
100
AcDbVertex
100
AcDb2dVertex
 10
4.755011797081461
 20
-4.388750353339796
 30
0.0
  0
VERTEX
  5
129
330
11F
100
AcDbEntity
  8
WINDOW
  6
Continuous
 62
   250
370
     9
100
AcDbVertex
100
AcDb2dVertex
 10
4.752050907008402
 20
-4.472416279081084
 30
0.0
  0
VERTEX
  5
12A
330
11F
100
AcDbEntity
  8
WINDOW
  6
Continuous
 62
   250
370
     9
100
AcDbVertex
100
AcDb2dVertex
 10
4.725927608499632
 20
-4.625276380306496
 30
0.0
  0
VERTEX
  5
12B
330
11F
100
AcDbEntity
  8
WINDOW
  6
Continuous
 62
   250
370
     9
100
AcDbVertex
100
AcDb2dVertex
 10
4.700519021475422
 20
-4.69956249773599
 30
0.0
  0
VERTEX
  5
12C
330
11F
100
AcDbEntity
  8
WINDOW
  6
Continuous
 62
   250
370
     9
100
AcDbVertex
100
AcDb2dVertex
 10
4.766990586519199
 20
-4.701092176891843
 30
0.0
  0
VERTEX
  5
12D
330
11F
100
AcDbEntity
  8
WINDOW
  6
Continuous
 62
   250
370
     9
100
AcDbVertex
100
AcDb2dVertex
 10
4.76985399670947
 20
-4.701092176891843
 30
0.0
  0
VERTEX
  5
12E
330
11F
100
AcDbEntity
  8
WINDOW
  6
Continuous
 62
   250
370
     9
100
AcDbVertex
100
AcDb2dVertex
 10
4.794190304189169
 20
-4.580112692850575
 30
0.0
  0
VERTEX
  5
12F
330
11F
100
AcDbEntity
  8
WINDOW
  6
Continuous
 62
   250
370
     9
100
AcDbVertex
100
AcDb2dVertex
 10
4.804144337188506
 20
-4.314477117221203
 30
0.0
  0
VERTEX
  5
130
330
11F
100
AcDbEntity
  8
WINDOW
  6
Continuous
 62
   250
370
     9
100
AcDbVertex
100
AcDb2dVertex
 10
4.804067854405027
 20
-3.740913603214735
 30
0.0
  0
SEQEND
  5
131
330
11F
100
AcDbEntity
  8
WINDOW
  6
Continuous
 62
   250
370
     9
  0
POLYLINE
  5
132
330
42
100
AcDbEntity
  8
WINDOW
  6
Continuous
 62
   250
370
     9
100
AcDb2dPolyline
 66
     1
 10
0.0
 20
0.0
 30
0.0
 70
     1
  0
VERTEX
  5
133
330
132
100
AcDbEntity
  8
WINDOW
  6
Continuous
 62
   250
370
     9
100
AcDbVertex
100
AcDb2dVertex
 10
5.267165875339094
 20
-3.726007913796568
 30
0.0
  0
VERTEX
  5
134
330
132
100
AcDbEntity
  8
WINDOW
  6
Continuous
 62
   250
370
     9
100
AcDbVertex
100
AcDb2dVertex
 10
4.818041862758128
 20
-3.726020593836988
 30
0.0
  0
VERTEX
  5
135
330
132
100
AcDbEntity
  8
WINDOW
  6
Continuous
 62
   250
370
     9
100
AcDbVertex
100
AcDb2dVertex
 10
4.804284823985529
 20
-3.740913603214735
 30
0.0
  0
VERTEX
  5
136
330
132
100
AcDbEntity
  8
WINDOW
  6
Continuous
 62
   250
370
     9
100
AcDbVertex
100
AcDb2dVertex
 10
4.803940248918907
 20
-4.325413953988248
 30
0.0
  0
VERTEX
  5
137
330
132
100
AcDbEntity
  8
WINDOW
  6
Continuous
 62
   250
370
     9
100
AcDbVertex
100
AcDb2dVertex
 10
4.794407273769672
 20
-4.580112692850575
 30
0.0
  0
VERTEX
  5
138
330
132
100
AcDbEntity
  8
WINDOW
  6
Continuous
 62
   250
370
     9
100
AcDbVertex
100
AcDb2dVertex
 10
4.770070966289972
 20
-4.701092176891843
 30
0.0
  0
VERTEX
  5
139
330
132
100
AcDbEntity
  8
WINDOW
  6
Continuous
 62
   250
370
     9
100
AcDbVertex
100
AcDb2dVertex
 10
4.831007908533164
 20
-4.701092176891843
 30
0.0
  0
VERTEX
  5
13A
330
132
100
AcDbEntity
  8
WINDOW
  6
Continuous
 62
   250
370
     9
100
AcDbVertex
100
AcDb2dVertex
 10
4.831007908533164
 20
-3.79715441296424
 30
0.0
  0
VERTEX
  5
13B
330
132
100
AcDbEntity
  8
WINDOW
  6
Continuous
 62
   250
370
     9
100
AcDbVertex
100
AcDb2dVertex
 10
4.869012404914465
 20
-3.79715441296424
 30
0.0
  0
VERTEX
  5
13C
330
132
100
AcDbEntity
  8
WINDOW
  6
Continuous
 62
   250
370
     9
100
AcDbVertex
100
AcDb2dVertex
 10
4.869012404914465
 20
-3.750854956173652
 30
0.0
  0
VERTEX
  5
13D
330
132
100
AcDbEntity
  8
WINDOW
  6
Continuous
 62
   250
370
     9
100
AcDbVertex
100
AcDb2dVertex
 10
5.267165875339094
 20
-3.750854956173652
 30
0.0
  0
SEQEND
  5
13E
330
132
100
AcDbEntity
  8
WINDOW
  6
Continuous
 62
   250
370
     9
  0
POLYLINE
  5
13F
330
42
100
AcDbEntity
  8
WINDOW
  6
Continuous
 62
   250
370
     9
100
AcDb2dPolyline
 66
     1
 10
0.0
 20
0.0
 30
0.0
 70
     1
  0
VERTEX
  5
140
330
13F
100
AcDbEntity
  8
WINDOW
  6
Continuous
 62
   250
370
     9
100
AcDbVertex
100
AcDb2dVertex
 10
5.883053552829576
 20
-3.508635792329338
 30
0.0
  0
VERTEX
  5
141
330
13F
100
AcDbEntity
  8
WINDOW
  6
Continuous
 62
   250
370
     9
100
AcDbVertex
100
AcDb2dVertex
 10
5.85474787847537
 20
-3.529437298001337
 30
0.0
  0
VERTEX
  5
142
330
13F
100
AcDbEntity
  8
WINDOW
  6
Continuous
 62
   250
370
     9
100
AcDbVertex
100
AcDb2dVertex
 10
5.850830148526891
 20
-3.51776038966889
 30
0.0
  0
VERTEX
  5
143
330
13F
100
AcDbEntity
  8
WINDOW
  6
Continuous
 62
   250
370
     9
100
AcDbVertex
100
AcDb2dVertex
 10
5.869130465908635
 20
-3.504169197774152
 30
0.0
  0
SEQEND
  5
144
330
13F
100
AcDbEntity
  8
WINDOW
  6
Continuous
 62
   250
370
     9
  0
POLYLINE
  5
145
330
42
100
AcDbEntity
  8
WINDOW
  6
Continuous
 62
   250
370
     9
100
AcDb2dPolyline
 66
     1
 10
0.0
 20
0.0
 30
0.0
 70
     1
  0
VERTEX
  5
146
330
145
100
AcDbEntity
  8
WINDOW
  6
Continuous
 62
   250
370
     9
100
AcDbVertex
100
AcDb2dVertex
 10
5.895129781799979
 20
-3.520712021299739
 30
0.0
  0
VERTEX
  5
147
330
145
100
AcDbEntity
  8
WINDOW
  6
Continuous
 62
   250
370
     9
100
AcDbVertex
100
AcDb2dVertex
 10
5.868713030927226
 20
-3.540122546664831
 30
0.0
  0
VERTEX
  5
148
330
145
100
AcDbEntity
  8
WINDOW
  6
Continuous
 62
   250
370
     9
100
AcDbVertex
100
AcDb2dVertex
 10
5.897656531441553
 20
-3.561013617701695
 30
0.0
  0
VERTEX
  5
149
330
145
100
AcDbEntity
  8
WINDOW
  6
Continuous
 62
   250
370
     9
100
AcDbVertex
100
AcDb2dVertex
 10
5.992565627624766
 20
-3.603318861760322
 30
0.0
  0
VERTEX
  5
14A
330
145
100
AcDbEntity
  8
WINDOW
  6
Continuous
 62
   250
370
     9
100
AcDbVertex
100
AcDb2dVertex
 10
6.070718553570584
 20
-3.62145333226421
 30
0.0
  0
VERTEX
  5
14B
330
145
100
AcDbEntity
  8
WINDOW
  6
Continuous
 62
   250
370
     9
100
AcDbVertex
100
AcDb2dVertex
 10
6.070718553570584
 20
-3.600855713591327
 30
0.0
  0
VERTEX
  5
14C
330
145
100
AcDbEntity
  8
WINDOW
  6
Continuous
 62
   250
370
     9
100
AcDbVertex
100
AcDb2dVertex
 10
6.04602447676046
 20
-3.600855713591327
 30
0.0
  0
VERTEX
  5
14D
330
145
100
AcDbEntity
  8
WINDOW
  6
Continuous
 62
   250
370
     9
100
AcDbVertex
100
AcDb2dVertex
 10
6.04602447676046
 20
-3.574298677192034
 30
0.0
  0
VERTEX
  5
14E
330
145
100
AcDbEntity
  8
WINDOW
  6
Continuous
 62
   250
370
     9
100
AcDbVertex
100
AcDb2dVertex
 10
6.068421453549931
 20
-3.574298677192034
 30
0.0
  0
VERTEX
  5
14F
330
145
100
AcDbEntity
  8
WINDOW
  6
Continuous
 62
   250
370
     9
100
AcDbVertex
100
AcDb2dVertex
 10
6.068421453549931
 20
-3.561013617701695
 30
0.0
  0
VERTEX
  5
150
330
145
100
AcDbEntity
  8
WINDOW
  6
Continuous
 62
   250
370
     9
100
AcDbVertex
100
AcDb2dVertex
 10
6.037218893136209
 20
-3.561013617701695
 30
0.0
  0
VERTEX
  5
151
330
145
100
AcDbEntity
  8
WINDOW
  6
Continuous
 62
   250
370
     9
100
AcDbVertex
100
AcDb2dVertex
 10
5.947899682072909
 20
-3.536842844146954
 30
0.0
  0
SEQEND
  5
152
330
145
100
AcDbEntity
  8
WINDOW
  6
Continuous
 62
   250
370
     9
  0
LINE
  5
153
330
42
100
AcDbEntity
  8
A-ARCH
  6
Continuous
 62
   250
370
     9
100
AcDbLine
 10
6.668008435905684
 20
-3.44825464747733
 30
0.0
 11
6.668008435905684
 21
-3.627901635993438
 31
0.0
  0
LINE
  5
154
330
42
100
AcDbEntity
  8
A-ARCH
  6
Continuous
 62
   250
370
     9
100
AcDbLine
 10
6.668008435905684
 20
-3.44825464747733
 30
0.0
 11
6.668008435905684
 21
-3.624328481111579
 31
0.0
  0
LINE
  5
155
330
42
100
AcDbEntity
  8
A-ARCH
  6
Continuous
 62
   250
370
     9
100
AcDbLine
 10
6.994066618106531
 20
-3.44825464747733
 30
0.0
 11
6.994066618106531
 21
-3.624328481111579
 31
0.0
  0
POLYLINE
  5
156
330
42
100
AcDbEntity
  8
FIXT
  6
Continuous
 62
   250
370
     9
100
AcDb2dPolyline
 66
     1
 10
0.0
 20
0.0
 30
0.0
 70
     1
  0
VERTEX
  5
157
330
156
100
AcDbEntity
  8
FIXT
  6
Continuous
 62
   250
370
     9
100
AcDbVertex
100
AcDb2dVertex
 10
7.271819884425766
 20
-3.550680926464334
 30
0.0
  0
VERTEX
  5
158
330
156
100
AcDbEntity
  8
FIXT
  6
Continuous
 62
   250
370
     9
100
AcDbVertex
100
AcDb2dVertex
 10
7.271819884425766
 20
-3.617935055764363
 30
0.0
  0
VERTEX
  5
159
330
156
100
AcDbEntity
  8
FIXT
  6
Continuous
 62
   250
370
     9
100
AcDbVertex
100
AcDb2dVertex
 10
7.144131072325293
 20
-3.617935055764363
 30
0.0
  0
VERTEX
  5
15A
330
156
100
AcDbEntity
  8
FIXT
  6
Continuous
 62
   250
370
     9
100
AcDbVertex
100
AcDb2dVertex
 10
7.144131072325293
 20
-3.550680926464334
 30
0.0
  0
SEQEND
  5
15B
330
156
100
AcDbEntity
  8
FIXT
  6
Continuous
 62
   250
370
     9
  0
POLYLINE
  5
15C
330
42
100
AcDbEntity
  8
FIXT
  6
Continuous
 62
   250
370
     9
100
AcDb2dPolyline
 66
     1
 10
0.0
 20
0.0
 30
0.0
 70
     1
  0
VERTEX
  5
15D
330
15C
100
AcDbEntity
  8
FIXT
  6
Continuous
 62
   250
370
     9
100
AcDbVertex
100
AcDb2dVertex
 10
6.762033149587301
 20
-3.795596501159699
 30
0.0
  0
VERTEX
  5
15E
330
15C
100
AcDbEntity
  8
FIXT
  6
Continuous
 62
   250
370
     9
100
AcDbVertex
100
AcDb2dVertex
 10
6.762033149587301
 20
-3.756060805834031
 30
0.0
  0
VERTEX
  5
15F
330
15C
100
AcDbEntity
  8
FIXT
  6
Continuous
 62
   250
370
     9
100
AcDbVertex
100
AcDb2dVertex
 10
6.588537993379198
 20
-3.756060805834031
 30
0.0
  0
VERTEX
  5
160
330
15C
100
AcDbEntity
  8
FIXT
  6
Continuous
 62
   250
370
     9
100
AcDbVertex
100
AcDb2dVertex
 10
6.588537993379198
 20
-3.795596501159699
 30
0.0
  0
SEQEND
  5
161
330
15C
100
AcDbEntity
  8
FIXT
  6
Continuous
 62
   250
370
     9
  0
POLYLINE
  5
162
330
42
100
AcDbEntity
  8
WINDOW
  6
Continuous
 62
   250
370
     9
100
AcDb2dPolyline
 66
     1
 10
0.0
 20
0.0
 30
0.0
 70
     1
  0
VERTEX
  5
163
330
162
100
AcDbEntity
  8
WINDOW
  6
Continuous
 62
   250
370
     9
100
AcDbVertex
100
AcDb2dVertex
 10
7.551058526908366
 20
-3.375797273654919
 30
0.0
  0
VERTEX
  5
164
330
162
100
AcDbEntity
  8
WINDOW
  6
Continuous
 62
   250
370
     9
100
AcDbVertex
100
AcDb2dVertex
 10
7.551058526908366
 20
-3.358007378217656
 30
0.0
  0
VERTEX
  5
165
330
162
100
AcDbEntity
  8
WINDOW
  6
Continuous
 62
   250
370
     9
100
AcDbVertex
100
AcDb2dVertex
 10
7.860760262050732
 20
-3.358007378217656
 30
0.0
  0
VERTEX
  5
166
330
162
100
AcDbEntity
  8
WINDOW
  6
Continuous
 62
   250
370
     9
100
AcDbVertex
100
AcDb2dVertex
 10
7.860760262050732
 20
-3.375797273654919
 30
0.0
  0
SEQEND
  5
167
330
162
100
AcDbEntity
  8
WINDOW
  6
Continuous
 62
   250
370
     9
  0
POLYLINE
  5
168
330
42
100
AcDbEntity
  8
WINDOW
  6
Continuous
 62
   250
370
     9
100
AcDb2dPolyline
 66
     1
 10
0.0
 20
0.0
 30
0.0
 70
     1
  0
VERTEX
  5
169
330
168
100
AcDbEntity
  8
WINDOW
  6
Continuous
 62
   250
370
     9
100
AcDbVertex
100
AcDb2dVertex
 10
7.551058526908366
 20
-3.399949731595723
 30
0.0
  0
VERTEX
  5
16A
330
168
100
AcDbEntity
  8
WINDOW
  6
Continuous
 62
   250
370
     9
100
AcDbVertex
100
AcDb2dVertex
 10
7.551058526908366
 20
-3.410350585066964
 30
0.0
  0
VERTEX
  5
16B
330
168
100
AcDbEntity
  8
WINDOW
  6
Continuous
 62
   250
370
     9
100
AcDbVertex
100
AcDb2dVertex
 10
7.55384048752218
 20
-3.41280085192506
 30
0.0
  0
VERTEX
  5
16C
330
168
100
AcDbEntity
  8
WINDOW
  6
Continuous
 62
   250
370
     9
100
AcDbVertex
100
AcDb2dVertex
 10
7.847692373411375
 20
-3.41280085192506
 30
0.0
  0
VERTEX
  5
16D
330
168
100
AcDbEntity
  8
WINDOW
  6
Continuous
 62
   250
370
     9
100
AcDbVertex
100
AcDb2dVertex
 10
7.847692373411375
 20
-3.438694500812911
 30
0.0
  0
VERTEX
  5
16E
330
168
100
AcDbEntity
  8
WINDOW
  6
Continuous
 62
   250
370
     9
100
AcDbVertex
100
AcDb2dVertex
 10
7.863555103975447
 20
-3.438694500812911
 30
0.0
  0
VERTEX
  5
16F
330
168
100
AcDbEntity
  8
WINDOW
  6
Continuous
 62
   250
370
     9
100
AcDbVertex
100
AcDb2dVertex
 10
7.863963481785129
 20
-3.399949731595723
 30
0.0
  0
SEQEND
  5
170
330
168
100
AcDbEntity
  8
WINDOW
  6
Continuous
 62
   250
370
     9
  0
POLYLINE
  5
171
330
42
100
AcDbEntity
  8
WINDOW
  6
Continuous
 62
   250
370
     9
100
AcDb2dPolyline
 66
     1
 10
0.0
 20
0.0
 30
0.0
 70
     1
  0
VERTEX
  5
172
330
171
100
AcDbEntity
  8
WINDOW
  6
Continuous
 62
   250
370
     9
100
AcDbVertex
100
AcDb2dVertex
 10
6.038677500325349
 20
-3.745247359251245
 30
0.0
  0
VERTEX
  5
173
330
171
100
AcDbEntity
  8
WINDOW
  6
Continuous
 62
   250
370
     9
100
AcDbVertex
100
AcDb2dVertex
 10
5.991739613563194
 20
-3.745247359251245
 30
0.0
  0
VERTEX
  5
174
330
171
100
AcDbEntity
  8
WINDOW
  6
Continuous
 62
   250
370
     9
100
AcDbVertex
100
AcDb2dVertex
 10
5.991739613563194
 20
-3.66562676894456
 30
0.0
  0
VERTEX
  5
175
330
171
100
AcDbEntity
  8
WINDOW
  6
Continuous
 62
   250
370
     9
100
AcDbVertex
100
AcDb2dVertex
 10
6.026030468265614
 20
-3.67426650569095
 30
0.0
  0
VERTEX
  5
176
330
171
100
AcDbEntity
  8
WINDOW
  6
Continuous
 62
   250
370
     9
100
AcDbVertex
100
AcDb2dVertex
 10
6.038677500325349
 20
-3.676014942375382
 30
0.0
  0
SEQEND
  5
177
330
171
100
AcDbEntity
  8
WINDOW
  6
Continuous
 62
   250
370
     9
  0
LWPOLYLINE
  5
178
330
42
100
AcDbEntity
  8
None
  6
Continuous
 62
   250
370
     9
100
AcDbPolyline
 90
       14
 70
     1
 43
0.0
 10
6.139069607002093
 20
-3.763420876228813
 10
6.139069607002093
 20
-3.821110833454767
 10
6.116196024429602
 20
-3.821110833454767
 10
6.116196024429602
 20
-4.042290202190558
 10
6.116196024429602
 20
-4.043579140972522
 10
6.116196024429602
 20
-4.047946248225492
 10
6.097387738118661
 20
-4.047946248225492
 10
6.097387738118661
 20
-4.043509685230926
 10
6.097387738118661
 20
-4.042290202190558
 10
6.097387738118661
 20
-3.790925739984124
 42
-0.4142135623730993
 10
6.136031670823947
 20
-3.752281807278839
 10
6.155715907171128
 20
-3.752281807278839
 10
6.160806819148817
 20
-3.752281807278839
 10
6.160806819148817
 20
-3.763420876228813
  0
LWPOLYLINE
  5
179
330
42
100
AcDbEntity
  8
None
  6
Continuous
 62
   250
370
     9
100
AcDbPolyline
 90
        6
 70
     1
 43
0.0
 10
6.092903526704943
 20
-3.618683399716347
 10
6.137673917902284
 20
-3.618471997158657
 10
6.169348903978042
 20
-3.586797011082899
 10
6.139813671123285
 20
-3.557160775669037
 10
6.090827602180387
 20
-3.557160775669037
 10
6.061005855510403
 20
-3.587078475029144
  0
LINE
  5
17A
330
42
100
AcDbEntity
  8
None
  6
Continuous
 62
   250
370
     9
100
AcDbLine
 10
4.766235041745587
 20
-4.70107478989199
 30
0.0
 11
7.863555103975447
 21
-4.701284458089557
 31
0.0
  0
LINE
  5
17B
330
42
100
AcDbEntity
  8
None
  6
Continuous
 62
   250
370
     9
100
AcDbLine
 10
6.25853229319841
 20
-4.078056354717027
 30
0.0
 11
6.25853229319841
 21
-4.25736198849424
 31
0.0
  0
LINE
  5
17C
330
42
100
AcDbEntity
  8
None
  6
Continuous
 62
   250
370
     9
100
AcDbLine
 10
6.300007900326771
 20
-4.078056354717027
 30
0.0
 11
6.300007900326771
 21
-4.25736198849424
 31
0.0
  0
LINE
  5
17D
330
42
100
AcDbEntity
  8
None
  6
Continuous
 62
   250
370
     9
100
AcDbLine
 10
6.519446587363924
 20
-4.078056354717027
 30
0.0
 11
6.519446587363924
 21
-4.25736198849424
 31
0.0
  0
LINE
  5
17E
330
42
100
AcDbEntity
  8
None
  6
Continuous
 62
   250
370
     9
100
AcDbLine
 10
6.557910382987067
 20
-4.078056354717027
 30
0.0
 11
6.557910382987067
 21
-4.257612449911134
 31
0.0
  0
LINE
  5
17F
330
42
100
AcDbEntity
  8
None
  6
Continuous
 62
   250
370
     9
100
AcDbLine
 10
6.852674707722858
 20
-4.078056354717027
 30
0.0
 11
6.852674707722858
 21
-4.25736198849424
 31
0.0
  0
LINE
  5
180
330
42
100
AcDbEntity
  8
None
  6
Continuous
 62
   250
370
     9
100
AcDbLine
 10
6.813701583743939
 20
-4.078056354717027
 30
0.0
 11
6.813701583743939
 21
-4.25736198849424
 31
0.0
  0
POLYLINE
  5
181
330
42
100
AcDbEntity
  8
WINDOW
  6
Continuous
 62
   250
370
     9
100
AcDb2dPolyline
 66
     1
 10
0.0
 20
0.0
 30
0.0
 70
     1
  0
VERTEX
  5
182
330
181
100
AcDbEntity
  8
WINDOW
  6
Continuous
 62
   250
370
     9
100
AcDbVertex
100
AcDb2dVertex
 10
6.655932206935282
 20
-3.641474311003756
 30
0.0
  0
VERTEX
  5
183
330
181
100
AcDbEntity
  8
WINDOW
  6
Continuous
 62
   250
370
     9
100
AcDbVertex
100
AcDb2dVertex
 10
6.655932206935282
 20
-3.661357016921591
 30
0.0
  0
VERTEX
  5
184
330
181
100
AcDbEntity
  8
WINDOW
  6
Continuous
 62
   250
370
     9
100
AcDbVertex
100
AcDb2dVertex
 10
6.602902050693778
 20
-3.661357016921591
 30
0.0
  0
VERTEX
  5
185
330
181
100
AcDbEntity
  8
WINDOW
  6
Continuous
 62
   250
370
     9
100
AcDbVertex
100
AcDb2dVertex
 10
6.602902050693778
 20
-3.616537703261808
 30
0.0
  0
VERTEX
  5
186
330
181
100
AcDbEntity
  8
WINDOW
  6
Continuous
 62
   250
370
     9
100
AcDbVertex
100
AcDb2dVertex
 10
6.343586180189367
 20
-3.616588825964449
 30
0.0
  0
VERTEX
  5
187
330
181
100
AcDbEntity
  8
WINDOW
  6
Continuous
 62
   250
370
     9
100
AcDbVertex
100
AcDb2dVertex
 10
6.343586180189367
 20
-3.605243812658204
 30
0.0
  0
VERTEX
  5
188
330
181
100
AcDbEntity
  8
WINDOW
  6
Continuous
 62
   250
370
     9
100
AcDbVertex
100
AcDb2dVertex
 10
6.606800037321012
 20
-3.605243812658204
 30
0.0
  0
SEQEND
  5
189
330
181
100
AcDbEntity
  8
WINDOW
  6
Continuous
 62
   250
370
     9
  0
POLYLINE
  5
18A
330
42
100
AcDbEntity
  8
WINDOW
  6
Continuous
 62
   250
370
     9
100
AcDb2dPolyline
 66
     1
 10
0.0
 20
0.0
 30
0.0
 70
     1
  0
VERTEX
  5
18B
330
18A
100
AcDbEntity
  8
WINDOW
  6
Continuous
 62
   250
370
     9
100
AcDbVertex
100
AcDb2dVertex
 10
6.302143178879223
 20
-3.433203238229586
 30
0.0
  0
VERTEX
  5
18C
330
18A
100
AcDbEntity
  8
WINDOW
  6
Continuous
 62
   250
370
     9
100
AcDbVertex
100
AcDb2dVertex
 10
6.564077994140612
 20
-3.433203238229586
 30
0.0
  0
VERTEX
  5
18D
330
18A
100
AcDbEntity
  8
WINDOW
  6
Continuous
 62
   250
370
     9
100
AcDbVertex
100
AcDb2dVertex
 10
6.564077994140612
 20
-3.461751242245134
 30
0.0
  0
VERTEX
  5
18E
330
18A
100
AcDbEntity
  8
WINDOW
  6
Continuous
 62
   250
370
     9
100
AcDbVertex
100
AcDb2dVertex
 10
6.247050818504801
 20
-3.461751242245134
 30
0.0
  0
VERTEX
  5
18F
330
18A
100
AcDbEntity
  8
WINDOW
  6
Continuous
 62
   250
370
     9
100
AcDbVertex
100
AcDb2dVertex
 10
6.219842873364002
 20
-3.461751242245134
 30
0.0
  0
VERTEX
  5
190
330
18A
100
AcDbEntity
  8
WINDOW
  6
Continuous
 62
   250
370
     9
100
AcDbVertex
100
AcDb2dVertex
 10
6.218273164868336
 20
-3.465247914343513
 30
0.0
  0
VERTEX
  5
191
330
18A
100
AcDbEntity
  8
WINDOW
  6
Continuous
 62
   250
370
     9
100
AcDbVertex
100
AcDb2dVertex
 10
6.21773718157253
 20
-3.497228787714378
 30
0.0
  0
VERTEX
  5
192
330
18A
100
AcDbEntity
  8
WINDOW
  6
Continuous
 62
   250
370
     9
100
AcDbVertex
100
AcDb2dVertex
 10
6.029054758540767
 20
-3.497228787714378
 30
0.0
  0
VERTEX
  5
193
330
18A
100
AcDbEntity
  8
WINDOW
  6
Continuous
 62
   250
370
     9
100
AcDbVertex
100
AcDb2dVertex
 10
6.001144983226308
 20
-3.48514350157225
 30
0.0
  0
VERTEX
  5
194
330
18A
100
AcDbEntity
  8
WINDOW
  6
Continuous
 62
   250
370
     9
100
AcDbVertex
100
AcDb2dVertex
 10
5.991739613563194
 20
-3.472407105418132
 30
0.0
  0
VERTEX
  5
195
330
18A
100
AcDbEntity
  8
WINDOW
  6
Continuous
 62
   250
370
     9
100
AcDbVertex
100
AcDb2dVertex
 10
6.0377456179898
 20
-3.449729557575581
 30
0.0
  0
VERTEX
  5
196
330
18A
100
AcDbEntity
  8
WINDOW
  6
Continuous
 62
   250
370
     9
100
AcDbVertex
100
AcDb2dVertex
 10
6.040221244928733
 20
-3.454923543655751
 30
0.0
  0
SEQEND
  5
197
330
18A
100
AcDbEntity
  8
WINDOW
  6
Continuous
 62
   250
370
     9
  0
POLYLINE
  5
198
330
42
100
AcDbEntity
  8
None
  6
Continuous
 62
   250
370
     9
100
AcDb2dPolyline
 66
     1
 10
0.0
 20
0.0
 30
0.0
 70
     1
  0
VERTEX
  5
199
330
198
100
AcDbEntity
  8
None
  6
Continuous
 62
   250
370
     9
100
AcDbVertex
100
AcDb2dVertex
 10
5.3514519375272
 20
-3.726262697998548
 30
0.0
  0
VERTEX
  5
19A
330
198
100
AcDbEntity
  8
None
  6
Continuous
 62
   250
370
     9
100
AcDbVertex
100
AcDb2dVertex
 10
5.923262810258285
 20
-3.726262697998548
 30
0.0
  0
VERTEX
  5
19B
330
198
100
AcDbEntity
  8
None
  6
Continuous
 62
   250
370
     9
100
AcDbVertex
100
AcDb2dVertex
 10
5.923262810258285
 20
-3.748904355672249
 30
0.0
  0
VERTEX
  5
19C
330
198
100
AcDbEntity
  8
None
  6
Continuous
 62
   250
370
     9
100
AcDbVertex
100
AcDb2dVertex
 10
5.3514519375272
 20
-3.748904355672249
 30
0.0
  0
SEQEND
  5
19D
330
198
100
AcDbEntity
  8
None
  6
Continuous
 62
   250
370
     9
  0
POLYLINE
  5
19E
330
42
100
AcDbEntity
  8
None
  6
Continuous
 62
   250
370
     9
100
AcDb2dPolyline
 66
     1
 10
0.0
 20
0.0
 30
0.0
 70
     1
  0
VERTEX
  5
19F
330
19E
100
AcDbEntity
  8
None
  6
Continuous
 62
   250
370
     9
100
AcDbVertex
100
AcDb2dVertex
 10
6.025083370850496
 20
-3.520930522171249
 30
0.0
  0
VERTEX
  5
1A0
330
19E
100
AcDbEntity
  8
None
  6
Continuous
 62
   250
370
     9
100
AcDbVertex
100
AcDb2dVertex
 10
6.020889335510005
 20
-3.534068167791864
 30
0.0
  0
VERTEX
  5
1A1
330
19E
100
AcDbEntity
  8
None
  6
Continuous
 62
   250
370
     9
100
AcDbVertex
100
AcDb2dVertex
 10
5.954380004555643
 20
-3.512835863880631
 30
0.0
  0
VERTEX
  5
1A2
330
19E
100
AcDbEntity
  8
None
  6
Continuous
 62
   250
370
     9
100
AcDbVertex
100
AcDb2dVertex
 10
5.948679998458031
 20
-3.530690901825297
 30
0.0
  0
VERTEX
  5
1A3
330
19E
100
AcDbEntity
  8
None
  6
Continuous
 62
   250
370
     9
100
AcDbVertex
100
AcDb2dVertex
 10
5.931843936687232
 20
-3.498403224806904
 30
0.0
  0
VERTEX
  5
1A4
330
19E
100
AcDbEntity
  8
None
  6
Continuous
 62
   250
370
     9
100
AcDbVertex
100
AcDb2dVertex
 10
5.964274045993741
 20
-3.481843180315349
 30
0.0
  0
VERTEX
  5
1A5
330
19E
100
AcDbEntity
  8
None
  6
Continuous
 62
   250
370
     9
100
AcDbVertex
100
AcDb2dVertex
 10
5.958574039896131
 20
-3.499698218260016
 30
0.0
  0
SEQEND
  5
1A6
330
19E
100
AcDbEntity
  8
None
  6
Continuous
 62
   250
370
     9
  0
POLYLINE
  5
1A7
330
42
100
AcDbEntity
  8
None
  6
Continuous
 62
   250
370
     9
100
AcDb2dPolyline
 66
     1
 10
0.0
 20
0.0
 30
0.0
 70
     1
  0
VERTEX
  5
1A8
330
1A7
100
AcDbEntity
  8
None
  6
Continuous
 62
   250
370
     9
100
AcDbVertex
100
AcDb2dVertex
 10
5.839349281195388
 20
-3.580734961900518
 30
0.0
  0
VERTEX
  5
1A9
330
1A7
100
AcDbEntity
  8
None
  6
Continuous
 62
   250
370
     9
100
AcDbVertex
100
AcDb2dVertex
 10
5.844737649231908
 20
-3.568040350650338
 30
0.0
  0
VERTEX
  5
1AA
330
1A7
100
AcDbEntity
  8
None
  6
Continuous
 62
   250
370
     9
100
AcDbVertex
100
AcDb2dVertex
 10
5.909004118685939
 20
-3.595318963835213
 30
0.0
  0
VERTEX
  5
1AB
330
1A7
100
AcDbEntity
  8
None
  6
Continuous
 62
   250
370
     9
100
AcDbVertex
100
AcDb2dVertex
 10
5.916327311785385
 20
-3.578066042565281
 30
0.0
  0
VERTEX
  5
1AC
330
1A7
100
AcDbEntity
  8
None
  6
Continuous
 62
   250
370
     9
100
AcDbVertex
100
AcDb2dVertex
 10
5.930112330761764
 20
-3.611769459528774
 30
0.0
  0
VERTEX
  5
1AD
330
1A7
100
AcDbEntity
  8
None
  6
Continuous
 62
   250
370
     9
100
AcDbVertex
100
AcDb2dVertex
 10
5.896292557549975
 20
-3.625266496355324
 30
0.0
  0
VERTEX
  5
1AE
330
1A7
100
AcDbEntity
  8
None
  6
Continuous
 62
   250
370
     9
100
AcDbVertex
100
AcDb2dVertex
 10
5.903615750649421
 20
-3.608013575085391
 30
0.0
  0
SEQEND
  5
1AF
330
1A7
100
AcDbEntity
  8
None
  6
Continuous
 62
   250
370
     9
  0
ENDBLK
  5
44
330
42
100
AcDbEntity
  8
0
100
AcDbBlockEnd
  0
BLOCK
  5
46
330
45
100
AcDbEntity
  8
0
100
AcDbBlockBegin
  2
Group-3-1
 70
     0
 10
0.0
 20
0.0
 30
0.0
  3
Group-3-1
  1

  0
ELLIPSE
  5
1B0
330
45
100
AcDbEntity
  8
None
  6
Continuous
 62
     7
370
    18
100
AcDbEllipse
 10
4.754836483954028
 20
-3.385863501171561
 30
0.0
 11
0.1226330754869231
 21
0.0
 31
0.0
210
0.0
220
0.0
230
1.0
 40
1.0
 41
0.0
 42
6.283185307179586
  0
POLYLINE
  5
1B1
102
{ACAD_REACTORS
330
1BC
102
}
330
45
100
AcDbEntity
  8
None
  6
Continuous
 62
     7
370
    18
100
AcDb2dPolyline
 66
     1
 10
0.0
 20
0.0
 30
0.0
 70
     1
  0
VERTEX
  5
1B2
330
1B1
100
AcDbEntity
  8
None
  6
Continuous
 62
     7
370
    18
100
AcDbVertex
100
AcDb2dVertex
 10
4.744061696675595
 20
-3.485363760043854
 30
0.0
  0
VERTEX
  5
1B3
330
1B1
100
AcDbEntity
  8
None
  6
Continuous
 62
     7
370
    18
100
AcDbVertex
100
AcDb2dVertex
 10
4.768963863303352
 20
-3.485363760043854
 30
0.0
  0
VERTEX
  5
1B4
330
1B1
100
AcDbEntity
  8
None
  6
Continuous
 62
     7
370
    18
100
AcDbVertex
100
AcDb2dVertex
 10
4.768963863303352
 20
-3.330473378487309
 30
0.0
  0
VERTEX
  5
1B5
330
1B1
100
AcDbEntity
  8
None
  6
Continuous
 62
     7
370
    18
100
AcDbVertex
100
AcDb2dVertex
 10
4.855083970681878
 20
-3.416593534919065
 30
0.0
  0
VERTEX
  5
1B6
330
1B1
100
AcDbEntity
  8
None
  6
Continuous
 62
     7
370
    18
100
AcDbVertex
100
AcDb2dVertex
 10
4.855083970681878
 20
-3.384814743109997
 30
0.0
  0
VERTEX
  5
1B7
330
1B1
100
AcDbEntity
  8
None
  6
Continuous
 62
     7
370
    18
100
AcDbVertex
100
AcDb2dVertex
 10
4.756512779989474
 20
-3.286243552417593
 30
0.0
  0
VERTEX
  5
1B8
330
1B1
100
AcDbEntity
  8
None
  6
Continuous
 62
     7
370
    18
100
AcDbVertex
100
AcDb2dVertex
 10
4.655866539553369
 20
-3.386889792853697
 30
0.0
  0
VERTEX
  5
1B9
330
1B1
100
AcDbEntity
  8
None
  6
Continuous
 62
     7
370
    18
100
AcDbVertex
100
AcDb2dVertex
 10
4.655866539553369
 20
-3.418668928035377
 30
0.0
  0
VERTEX
  5
1BA
330
1B1
100
AcDbEntity
  8
None
  6
Continuous
 62
     7
370
    18
100
AcDbVertex
100
AcDb2dVertex
 10
4.744061696675595
 20
-3.330473378487309
 30
0.0
  0
SEQEND
  5
1BB
330
1B1
100
AcDbEntity
  8
None
  6
Continuous
 62
     7
370
    18
  0
HATCH
  5
1BC
330
45
100
AcDbEntity
  8
None
  6
Continuous
 62
     7
370
     0
100
AcDbHatch
 10
0.0
 20
0.0
 30
0.0
210
0.0
220
0.0
230
1.0
  2
SOLID
 70
     1
 71
     1
 91
        1
 92
        1
 93
        9
 72
     1
 10
4.744061696675595
 20
-3.485363760043854
 11
4.768963863303352
 21
-3.485363760043854
 72
     1
 10
4.768963863303352
 20
-3.485363760043854
 11
4.768963863303352
 21
-3.330473378487309
 72
     1
 10
4.768963863303352
 20
-3.330473378487309
 11
4.855083970681878
 21
-3.416593534919065
 72
     1
 10
4.855083970681878
 20
-3.416593534919065
 11
4.855083970681878
 21
-3.384814743109997
 72
     1
 10
4.855083970681878
 20
-3.384814743109997
 11
4.756512779989474
 21
-3.286243552417593
 72
     1
 10
4.756512779989474
 20
-3.286243552417593
 11
4.655866539553369
 21
-3.386889792853697
 72
     1
 10
4.655866539553369
 20
-3.386889792853697
 11
4.655866539553369
 21
-3.418668928035377
 72
     1
 10
4.655866539553369
 20
-3.418668928035377
 11
4.744061696675595
 21
-3.330473378487309
 72
     1
 10
4.744061696675595
 20
-3.330473378487309
 11
4.744061696675595
 21
-3.485363760043854
 97
        1
330
1B1
 75
     0
 76
     1
 98
        1
 10
0.0
 20
0.0
  0
ENDBLK
  5
47
330
45
100
AcDbEntity
  8
0
100
AcDbBlockEnd
  0
BLOCK
  5
49
330
48
100
AcDbEntity
  8
0
100
AcDbBlockBegin
  2
Group-4-1
 70
     0
 10
0.0
 20
0.0
 30
0.0
  3
Group-4-1
  1

  0
WIPEOUT
  5
1BD
330
48
100
AcDbEntity
  8
None
  6
Continuous
 62
     7
370
    18
 92
      200
310
C8000000040000000C0000000E000000B20000000C00000016000000000000C20C00000014000000010000009C000000070000000600000093B4E651EEA21C4074E966CC42EE0DC0000000000000000093B4E651EEA21C40CEEE6F77FC540EC00000000000000000F782F8F75B3F1C40CEEE6F77FC540EC000000000000000
310
00F782F8F75B3F1C409DD84630965510C00000000000000000C39F3CE0215D1D409DD84630965510C00000000000000000C39F3CE0215D1D4074E966CC42EE0DC00000000000000000
100
AcDbWipeout
 90
        0
 10
7.061874270003266
 20
-4.083580736469369
 30
0.0
 11
0.3422423910460308
 21
0.0
 31
0.0
 12
0.0
 22
0.3422423910460308
 32
0.0
 13
1.0
 23
1.0
340
0
 70
     4
280
     1
281
    50
282
    50
283
     0
360
0
 71
     2
 91
        7
 14
-0.2158798094191923
 24
-0.5
 14
-0.2158798094191923
 24
-0.35344065311258
 14
-0.5000000000000036
 24
-0.35344065311258
 14
-0.5000000000000036
 24
0.5
 14
0.315431624476517
 24
0.5
 14
0.315431624476517
 24
-0.5
 14
-0.2158798094191923
 24
-0.5
  0
POLYLINE
  5
1BE
330
48
100
AcDbEntity
  8
None
  6
Continuous
 62
     7
370
    18
100
AcDb2dPolyline
 66
     1
 10
0.0
 20
0.0
 30
0.0
 70
     1
  0
VERTEX
  5
1BF
330
1BE
100
AcDbEntity
  8
None
  6
Continuous
 62
     7
370
    18
100
AcDbVertex
100
AcDb2dVertex
 10
7.159112243372096
 20
-3.741338345423339
 30
0.0
  0
VERTEX
  5
1C0
330
1BE
100
AcDbEntity
  8
None
  6
Continuous
 62
     7
370
    18
100
AcDbVertex
100
AcDb2dVertex
 10
7.159112243372096
 20
-3.791497166732234
 30
0.0
  0
VERTEX
  5
1C1
330
1BE
100
AcDbEntity
  8
None
  6
Continuous
 62
     7
370
    18
100
AcDbVertex
100
AcDb2dVertex
 10
7.061874270003266
 20
-3.791497166732234
 30
0.0
  0
VERTEX
  5
1C2
330
1BE
100
AcDbEntity
  8
None
  6
Continuous
 62
     7
370
    18
100
AcDbVertex
100
AcDb2dVertex
 10
7.061874270003266
 20
-4.083580736469369
 30
0.0
  0
VERTEX
  5
1C3
330
1BE
100
AcDbEntity
  8
None
  6
Continuous
 62
     7
370
    18
100
AcDbVertex
100
AcDb2dVertex
 10
7.340949538898658
 20
-4.083580736469369
 30
0.0
  0
VERTEX
  5
1C4
330
1BE
100
AcDbEntity
  8
None
  6
Continuous
 62
     7
370
    18
100
AcDbVertex
100
AcDb2dVertex
 10
7.340949538898658
 20
-3.741338345423339
 30
0.0
  0
SEQEND
  5
1C5
330
1BE
100
AcDbEntity
  8
None
  6
Continuous
 62
     7
370
    18
  0
WIPEOUT
  5
1C6
330
48
100
AcDbEntity
  8
None
  6
Continuous
 62
     7
370
    18
 92
      200
310
C8000000040000000C0000000E000000B20000000C00000016000000000000C20C00000014000000010000009C00000007000000060000003071F81D40DC1D403C3B43D5C5FB0DC000000000000000008534C75333DC1D40F25AE9B79D7B10C000000000000000008EADC0D49CDD1E40F25AE9B79D7B10C000000000000000
310
008EADC0D49CDD1E403C3B43D5C5FB0DC00000000000000000B2273C3A08C01E403C3B43D5C5FB0DC000000000000000005E5F6B8932811E403C3B43D5C5FB0DC00000000000000000
100
AcDbWipeout
 90
        0
 10
7.465039547952192
 20
-4.120718835466265
 30
0.0
 11
0.3727829051052427
 21
0.0
 31
0.0
 12
0.0
 22
0.3727829051052427
 32
0.0
 13
1.0
 23
1.0
340
0
 70
     4
280
     1
281
    50
282
    50
283
     0
360
0
 71
     2
 91
        7
 14
-0.4998691214992697
 24
-0.5
 14
-0.5
 24
0.5
 14
0.1743308884075105
 24
0.5
 14
0.1743308884075105
 24
-0.5
 14
0.0968402368986148
 24
-0.5
 14
-0.067765058661724
 24
-0.5
 14
-0.4998691214992697
 24
-0.5
  0
POLYLINE
  5
1C7
330
48
100
AcDbEntity
  8
None
  6
Continuous
 62
     7
370
    18
100
AcDb2dPolyline
 66
     1
 10
0.0
 20
0.0
 30
0.0
 70
     1
  0
VERTEX
  5
1C8
330
1C7
100
AcDbEntity
  8
None
  6
Continuous
 62
     7
370
    18
100
AcDbVertex
100
AcDb2dVertex
 10
7.46508833721991
 20
-3.747935930361022
 30
0.0
  0
VERTEX
  5
1C9
330
1C7
100
AcDbEntity
  8
None
  6
Continuous
 62
     7
370
    18
100
AcDbVertex
100
AcDb2dVertex
 10
7.465039547952192
 20
-4.120718835466265
 30
0.0
  0
VERTEX
  5
1CA
330
1C7
100
AcDbEntity
  8
None
  6
Continuous
 62
     7
370
    18
100
AcDbVertex
100
AcDb2dVertex
 10
7.716418575534943
 20
-4.120718835466265
 30
0.0
  0
VERTEX
  5
1CB
330
1C7
100
AcDbEntity
  8
None
  6
Continuous
 62
     7
370
    18
100
AcDbVertex
100
AcDb2dVertex
 10
7.716418575534943
 20
-3.747935930361022
 30
0.0
  0
VERTEX
  5
1CC
330
1C7
100
AcDbEntity
  8
None
  6
Continuous
 62
     7
370
    18
100
AcDbVertex
100
AcDb2dVertex
 10
7.68753138534696
 20
-3.747935930361022
 30
0.0
  0
VERTEX
  5
1CD
330
1C7
100
AcDbEntity
  8
None
  6
Continuous
 62
     7
370
    18
100
AcDbVertex
100
AcDb2dVertex
 10
7.626169345072269
 20
-3.747935930361022
 30
0.0
  0
SEQEND
  5
1CE
330
1C7
100
AcDbEntity
  8
None
  6
Continuous
 62
     7
370
    18
  0
INSERT
  5
1CF
330
48
100
AcDbEntity
  8
None
 62
   250
100
AcDbBlockReference
  2
Group-2-1
 10
0.0
 20
0.0
 30
0.0
  0
POLYLINE
  5
1F2
102
{ACAD_REACTORS
330
1FA
102
}
330
48
100
AcDbEntity
  8
None
  6
Continuous
 62
     7
370
    18
100
AcDb2dPolyline
 66
     1
 10
0.0
 20
0.0
 30
0.0
 70
     1
  0
VERTEX
  5
1F3
330
1F2
100
AcDbEntity
  8
None
  6
Continuous
 62
     7
370
    18
100
AcDbVertex
100
AcDb2dVertex
 10
5.756491829074031
 20
-4.233167161617407
 30
0.0
  0
VERTEX
  5
1F4
330
1F2
100
AcDbEntity
  8
None
  6
Continuous
 62
     7
370
    18
100
AcDbVertex
100
AcDb2dVertex
 10
5.756439046515133
 20
-3.964955167186158
 30
0.0
  0
VERTEX
  5
1F5
330
1F2
100
AcDbEntity
  8
None
  6
Continuous
 62
     7
370
    18
100
AcDbVertex
100
AcDb2dVertex
 10
5.540179923079304
 20
-3.964955167186158
 30
0.0
  0
VERTEX
  5
1F6
330
1F2
100
AcDbEntity
  8
None
  6
Continuous
 62
     7
370
    18
100
AcDbVertex
100
AcDb2dVertex
 10
5.540190724520685
 20
-3.955392260220657
 30
0.0
  0
VERTEX
  5
1F7
330
1F2
100
AcDbEntity
  8
None
  6
Continuous
 62
     7
370
    18
100
AcDbVertex
100
AcDb2dVertex
 10
5.484537996806323
 20
-3.955392260220657
 30
0.0
  0
VERTEX
  5
1F8
330
1F2
100
AcDbEntity
  8
None
  6
Continuous
 62
     7
370
    18
100
AcDbVertex
100
AcDb2dVertex
 10
5.484537996806323
 20
-4.233167161617407
 30
0.0
  0
SEQEND
  5
1F9
330
1F2
100
AcDbEntity
  8
None
  6
Continuous
 62
     7
370
    18
  0
HATCH
  5
1FA
330
48
100
AcDbEntity
  8
None
  6
Continuous
 62
   161
370
     0
100
AcDbHatch
 10
0.0
 20
0.0
 30
0.0
210
0.0
220
0.0
230
1.0
  2
SOLID
 70
     1
 71
     1
 91
        1
 92
        1
 93
        6
 72
     1
 10
5.756491829074031
 20
-4.233167161617407
 11
5.756439046515133
 21
-3.964955167186158
 72
     1
 10
5.756439046515133
 20
-3.964955167186158
 11
5.540179923079304
 21
-3.964955167186158
 72
     1
 10
5.540179923079304
 20
-3.964955167186158
 11
5.540190724520685
 21
-3.955392260220657
 72
     1
 10
5.540190724520685
 20
-3.955392260220657
 11
5.484537996806323
 21
-3.955392260220657
 72
     1
 10
5.484537996806323
 20
-3.955392260220657
 11
5.484537996806323
 21
-4.233167161617407
 72
     1
 10
5.484537996806323
 20
-4.233167161617407
 11
5.756491829074031
 21
-4.233167161617407
 97
        1
330
1F2
 75
     0
 76
     1
 98
        1
 10
0.0
 20
0.0
  0
WIPEOUT
  5
1FB
330
48
100
AcDbEntity
  8
None
  6
Continuous
 62
     7
370
    18
 92
      248
310
F8000000040000000C0000000E000000B20000000C00000016000000000000C20C0000001400000001000000CC000000070000000800000060CF87BA2AF01540AC1A91D8493112C000000000000000006F911D4D23521640AC1A91D8493112C00000000000000000D43FB4982052164095413810A04A12C000000000000000
310
00634E894D9088164095413810A04A12C00000000000000000634E894D90881640AC1A91D8493112C00000000000000000B9CC18F597061740AC1A91D8493112C00000000000000000BB4146CBA50617407697565FC3EE10C0000000000000000060CF87BA2AF015407697565FC3EE10C00000000000000000
100
AcDbWipeout
 90
        0
 10
5.484537996806323
 20
-4.57287621825562
 30
0.0
 11
0.3397090566382124
 21
0.0
 31
0.0
 12
0.0
 22
0.3397090566382124
 32
0.0
 13
1.0
 23
1.0
340
0
 70
     4
280
     1
281
    50
282
    50
283
     0
360
0
 71
     2
 91
        9
 14
-0.4999999999999964
 24
0.4271642740317425
 14
-0.2183625521930992
 24
0.4271642740317425
 14
-0.2183929244593195
 24
0.4999999999999982
 14
-0.0619046002058496
 24
0.4999999999999982
 14
-0.0619046002058496
 24
0.4271642740317425
 14
0.3003938793965801
 24
0.4271642740317425
 14
0.3005492551743707
 24
-0.5000000000000018
 14
-0.4999999999999964
 24
-0.5000000000000018
 14
-0.4999999999999964
 24
0.4271642740317425
  0
POLYLINE
  5
1FC
330
48
100
AcDbEntity
  8
None
  6
Continuous
 62
     7
370
    18
100
AcDb2dPolyline
 66
     1
 10
0.0
 20
0.0
 30
0.0
 70
     1
  0
VERTEX
  5
1FD
330
1FC
100
AcDbEntity
  8
None
  6
Continuous
 62
     7
370
    18
100
AcDbVertex
100
AcDb2dVertex
 10
5.484537996806323
 20
-4.548133262497385
 30
0.0
  0
VERTEX
  5
1FE
330
1FC
100
AcDbEntity
  8
None
  6
Continuous
 62
     7
370
    18
100
AcDbVertex
100
AcDb2dVertex
 10
5.580212788514799
 20
-4.548133262497385
 30
0.0
  0
VERTEX
  5
1FF
330
1FC
100
AcDbEntity
  8
None
  6
Continuous
 62
     7
370
    18
100
AcDbVertex
100
AcDb2dVertex
 10
5.580202470780893
 20
-4.57287621825562
 30
0.0
  0
VERTEX
  5
200
330
1FC
100
AcDbEntity
  8
None
  6
Continuous
 62
     7
370
    18
100
AcDbVertex
100
AcDb2dVertex
 10
5.633362971787934
 20
-4.57287621825562
 30
0.0
  0
VERTEX
  5
201
330
1FC
100
AcDbEntity
  8
None
  6
Continuous
 62
     7
370
    18
100
AcDbVertex
100
AcDb2dVertex
 10
5.633362971787934
 20
-4.548133262497385
 30
0.0
  0
VERTEX
  5
202
330
1FC
100
AcDbEntity
  8
None
  6
Continuous
 62
     7
370
    18
100
AcDbVertex
100
AcDb2dVertex
 10
5.756439046515133
 20
-4.548133262497385
 30
0.0
  0
VERTEX
  5
203
330
1FC
100
AcDbEntity
  8
None
  6
Continuous
 62
     7
370
    18
100
AcDbVertex
100
AcDb2dVertex
 10
5.756491829074031
 20
-4.233167161617407
 30
0.0
  0
VERTEX
  5
204
330
1FC
100
AcDbEntity
  8
None
  6
Continuous
 62
     7
370
    18
100
AcDbVertex
100
AcDb2dVertex
 10
5.484537996806323
 20
-4.233167161617407
 30
0.0
  0
SEQEND
  5
205
330
1FC
100
AcDbEntity
  8
None
  6
Continuous
 62
     7
370
    18
  0
WIPEOUT
  5
206
330
48
100
AcDbEntity
  8
None
  6
Continuous
 62
     7
370
    18
 92
      248
310
F8000000040000000C0000000E000000B20000000C00000016000000000000C20C0000001400000001000000CC0000000700000008000000F69EC037E8881640B75D296A3AB80FC00000000000000000B94146CBA5061740B75D296A3AB80FC00000000000000000B94146CBA50617404963EBE50D0112C000000000000000
310
0037E3C57C055D17404963EBE50D0112C0000000000000000037E3C57C055D1740D8725A80F7BB0FC000000000000000007B4F7B3579371740D8725A80F7BB0FC000000000000000007B4F7B35793717401131B792CE3E0FC00000000000000000F69EC037E88816401131B792CE3E0FC00000000000000000
100
AcDbWipeout
 90
        0
 10
5.633698340541506
 20
-4.501029579631743
 30
0.0
 11
0.5953621351970364
 21
0.0
 31
0.0
 12
0.0
 22
0.5953621351970364
 32
0.0
 13
1.0
 23
1.0
340
0
 70
     4
280
     1
281
    50
282
    50
283
     0
360
0
 71
     2
 91
        9
 14
-0.5000000000000018
 24
-0.4004173775145619
 14
-0.2937499191279862
 24
-0.4004173775145619
 14
-0.2937499191279862
 24
0.4999999999999982
 14
-0.1520724237210231
 24
0.4999999999999982
 14
-0.1520724237210231
 24
-0.3973511798594815
 14
-0.2136617158053351
 24
-0.3973511798594815
 14
-0.2136617158053351
 24
-0.5000000000000018
 14
-0.5000000000000018
 24
-0.5000000000000018
 14
-0.5000000000000018
 24
-0.4004173775145619
  0
POLYLINE
  5
207
330
48
100
AcDbEntity
  8
None
  6
Continuous
 62
     7
370
    18
100
AcDb2dPolyline
 66
     1
 10
0.0
 20
0.0
 30
0.0
 70
     1
  0
VERTEX
  5
208
330
207
100
AcDbEntity
  8
None
  6
Continuous
 62
     7
370
    18
100
AcDbVertex
100
AcDb2dVertex
 10
5.633698340541506
 20
-3.964955167186158
 30
0.0
  0
VERTEX
  5
209
330
207
100
AcDbEntity
  8
None
  6
Continuous
 62
     7
370
    18
100
AcDbVertex
100
AcDb2dVertex
 10
5.756491829074031
 20
-3.964955167186158
 30
0.0
  0
VERTEX
  5
20A
330
207
100
AcDbEntity
  8
None
  6
Continuous
 62
     7
370
    18
100
AcDbVertex
100
AcDb2dVertex
 10
5.756491829074031
 20
-4.501029579631743
 30
0.0
  0
VERTEX
  5
20B
330
207
100
AcDbEntity
  8
None
  6
Continuous
 62
     7
370
    18
100
AcDbVertex
100
AcDb2dVertex
 10
5.840841245248889
 20
-4.501029579631743
 30
0.0
  0
VERTEX
  5
20C
330
207
100
AcDbEntity
  8
None
  6
Continuous
 62
     7
370
    18
100
AcDbVertex
100
AcDb2dVertex
 10
5.840841245248889
 20
-3.966780665169023
 30
0.0
  0
VERTEX
  5
20D
330
207
100
AcDbEntity
  8
None
  6
Continuous
 62
     7
370
    18
100
AcDbVertex
100
AcDb2dVertex
 10
5.804173312808299
 20
-3.966780665169023
 30
0.0
  0
VERTEX
  5
20E
330
207
100
AcDbEntity
  8
None
  6
Continuous
 62
     7
370
    18
100
AcDbVertex
100
AcDb2dVertex
 10
5.804173312808299
 20
-3.905667444434706
 30
0.0
  0
VERTEX
  5
20F
330
207
100
AcDbEntity
  8
None
  6
Continuous
 62
     7
370
    18
100
AcDbVertex
100
AcDb2dVertex
 10
5.633698340541506
 20
-3.905667444434706
 30
0.0
  0
SEQEND
  5
210
330
207
100
AcDbEntity
  8
None
  6
Continuous
 62
     7
370
    18
  0
WIPEOUT
  5
211
330
48
100
AcDbEntity
  8
None
  6
Continuous
 62
     7
370
    18
 92
      200
310
C8000000040000000C0000000E000000B20000000C00000016000000000000C20C00000014000000010000009C00000007000000060000001794B4D1B5FC1A40F75120DD9C5510C000000000000000000A2476C6A7FC1A40A28F2CD48D9D0EC00000000000000000EE6D20DF4E171C40A28F2CD48D9D0EC000000000000000
310
00EE6D20DF4E171C40F75120DD9C5510C00000000000000000459C21BCD3F61B40F75120DD9C5510C00000000000000000F79538C2D4B11B40F75120DD9C5510C00000000000000000
100
AcDbWipeout
 90
        0
 10
6.746733761749973
 20
-4.083606200311343
 30
0.0
 11
0.2760280469833321
 21
0.0
 31
0.0
 12
0.0
 22
0.2760280469833321
 32
0.0
 13
1.0
 23
1.0
340
0
 70
     4
280
     1
281
    50
282
    50
283
     0
360
0
 71
     2
 91
        7
 14
-0.4998059135315032
 24
0.5
 14
-0.5
 24
-0.4298892988929914
 14
0.5
 24
-0.4298892988929914
 14
0.5
 24
0.5
 14
0.3850851223916187
 24
0.5
 14
0.140983453033023
 24
0.5
 14
-0.4998059135315032
 24
0.5
  0
POLYLINE
  5
212
330
48
100
AcDbEntity
  8
None
  6
Continuous
 62
     7
370
    18
100
AcDb2dPolyline
 66
     1
 10
0.0
 20
0.0
 30
0.0
 70
     1
  0
VERTEX
  5
213
330
212
100
AcDbEntity
  8
None
  6
Continuous
 62
     7
370
    18
100
AcDbVertex
100
AcDb2dVertex
 10
6.746787335058818
 20
-4.083606200311343
 30
0.0
  0
VERTEX
  5
214
330
212
100
AcDbEntity
  8
None
  6
Continuous
 62
     7
370
    18
100
AcDbVertex
100
AcDb2dVertex
 10
6.746733761749973
 20
-3.826930673227211
 30
0.0
  0
VERTEX
  5
215
330
212
100
AcDbEntity
  8
None
  6
Continuous
 62
     7
370
    18
100
AcDbVertex
100
AcDb2dVertex
 10
7.022761808733305
 20
-3.826930673227211
 30
0.0
  0
VERTEX
  5
216
330
212
100
AcDbEntity
  8
None
  6
Continuous
 62
     7
370
    18
100
AcDbVertex
100
AcDb2dVertex
 10
7.022761808733305
 20
-4.083606200311343
 30
0.0
  0
VERTEX
  5
217
330
212
100
AcDbEntity
  8
None
  6
Continuous
 62
     7
370
    18
100
AcDbVertex
100
AcDb2dVertex
 10
6.991042079497736
 20
-4.083606200311343
 30
0.0
  0
VERTEX
  5
218
330
212
100
AcDbEntity
  8
None
  6
Continuous
 62
     7
370
    18
100
AcDbVertex
100
AcDb2dVertex
 10
6.923663172439311
 20
-4.083606200311343
 30
0.0
  0
SEQEND
  5
219
330
212
100
AcDbEntity
  8
None
  6
Continuous
 62
     7
370
    18
  0
WIPEOUT
  5
21A
330
48
100
AcDbEntity
  8
None
  6
Continuous
 62
     7
370
    18
 92
      200
310
C8000000040000000C0000000E000000B20000000C00000016000000000000C20C00000014000000010000009C000000070000000600000051C070DD93FC1A409ED84630965510C000000000000000000A2476C6A7FC1A40F29C797A809D0EC00000000000000000C2863967EF6B1940F29C797A809D0EC000000000000000
310
00C2863967EF6B19409ED84630965510C000000000000000008DD2AFDFFB9919409ED84630965510C000000000000000002089E6E3CCFB19409ED84630965510C00000000000000000
100
AcDbWipeout
 90
        0
 10
6.355405438314564
 20
-4.083580736469369
 30
0.0
 11
0.3913283234354088
 21
0.0
 31
0.0
 12
0.0
 22
0.3913283234354088
 32
0.0
 13
1.0
 23
1.0
340
0
 70
     4
280
     1
281
    50
282
    50
283
     0
360
0
 71
     2
 91
        7
 14
0.4998059135315067
 24
0.5000000000000018
 14
0.5
 24
-0.1559083810515354
 14
-0.5
 24
-0.1559083810515354
 14
-0.5
 24
0.5000000000000018
 14
-0.385085122391633
 24
0.5000000000000018
 14
-0.1409834530330301
 24
0.5000000000000018
 14
0.4998059135315067
 24
0.5000000000000018
  0
POLYLINE
  5
21B
330
48
100
AcDbEntity
  8
None
  6
Continuous
 62
     7
370
    18
100
AcDb2dPolyline
 66
     1
 10
0.0
 20
0.0
 30
0.0
 70
     1
  0
VERTEX
  5
21C
330
21B
100
AcDbEntity
  8
None
  6
Continuous
 62
     7
370
    18
100
AcDbVertex
100
AcDb2dVertex
 10
6.746657810217656
 20
-4.083580736469369
 30
0.0
  0
VERTEX
  5
21D
330
21B
100
AcDbEntity
  8
None
  6
Continuous
 62
     7
370
    18
100
AcDbVertex
100
AcDb2dVertex
 10
6.746733761749973
 20
-3.826905209385238
 30
0.0
  0
VERTEX
  5
21E
330
21B
100
AcDbEntity
  8
None
  6
Continuous
 62
     7
370
    18
100
AcDbVertex
100
AcDb2dVertex
 10
6.355405438314564
 20
-3.826905209385238
 30
0.0
  0
VERTEX
  5
21F
330
21B
100
AcDbEntity
  8
None
  6
Continuous
 62
     7
370
    18
100
AcDbVertex
100
AcDb2dVertex
 10
6.355405438314564
 20
-4.083580736469369
 30
0.0
  0
VERTEX
  5
220
330
21B
100
AcDbEntity
  8
None
  6
Continuous
 62
     7
370
    18
100
AcDbVertex
100
AcDb2dVertex
 10
6.400374884706832
 20
-4.083580736469369
 30
0.0
  0
VERTEX
  5
221
330
21B
100
AcDbEntity
  8
None
  6
Continuous
 62
     7
370
    18
100
AcDbVertex
100
AcDb2dVertex
 10
6.495898781724719
 20
-4.083580736469369
 30
0.0
  0
SEQEND
  5
222
330
21B
100
AcDbEntity
  8
None
  6
Continuous
 62
     7
370
    18
  0
WIPEOUT
  5
223
330
48
100
AcDbEntity
  8
None
  6
Continuous
 62
     7
370
    18
 92
      200
310
C8000000040000000C0000000E000000B20000000C00000016000000000000C20C00000014000000010000009C0000000700000006000000D15FA35E777B18409DD84630965510C00000000000000000AE3D5D6B6B7B1840F09C797A809D0EC00000000000000000C3863967EF6B1940F09C797A809D0EC000000000000000
310
00C3863967EF6B19409DD84630965510C00000000000000000C59DC1DD4B5019409DD84630965510C000000000000000009C6BCD0A961519409DD84630965510C00000000000000000
100
AcDbWipeout
 90
        0
 10
6.120526959959006
 20
-4.083580736469369
 30
0.0
 11
0.256675527084131
 21
0.0
 31
0.0
 12
0.0
 22
0.256675527084131
 32
0.0
 13
1.0
 23
1.0
340
0
 70
     4
280
     1
281
    50
282
    50
283
     0
360
0
 71
     2
 91
        7
 14
-0.4998223954776329
 24
0.4999999999999982
 14
-0.4999999999999964
 24
-0.5000000000000018
 14
0.4150793650793716
 24
-0.5000000000000018
 14
0.4150793650793716
 24
0.4999999999999982
 14
0.3099231318393372
 24
0.4999999999999982
 14
0.0865507312278417
 24
0.4999999999999982
 14
-0.4998223954776329
 24
0.4999999999999982
  0
POLYLINE
  5
224
330
48
100
AcDbEntity
  8
None
  6
Continuous
 62
     7
370
    18
100
AcDb2dPolyline
 66
     1
 10
0.0
 20
0.0
 30
0.0
 70
     1
  0
VERTEX
  5
225
330
224
100
AcDbEntity
  8
None
  6
Continuous
 62
     7
370
    18
100
AcDbVertex
100
AcDb2dVertex
 10
6.120572546693396
 20
-4.083580736469369
 30
0.0
  0
VERTEX
  5
226
330
224
100
AcDbEntity
  8
None
  6
Continuous
 62
     7
370
    18
100
AcDbVertex
100
AcDb2dVertex
 10
6.120526959959006
 20
-3.826905209385238
 30
0.0
  0
VERTEX
  5
227
330
224
100
AcDbEntity
  8
None
  6
Continuous
 62
     7
370
    18
100
AcDbVertex
100
AcDb2dVertex
 10
6.355405438314564
 20
-3.826905209385238
 30
0.0
  0
VERTEX
  5
228
330
224
100
AcDbEntity
  8
None
  6
Continuous
 62
     7
370
    18
100
AcDbVertex
100
AcDb2dVertex
 10
6.355405438314564
 20
-4.083580736469369
 30
0.0
  0
VERTEX
  5
229
330
224
100
AcDbEntity
  8
None
  6
Continuous
 62
     7
370
    18
100
AcDbVertex
100
AcDb2dVertex
 10
6.328414406721497
 20
-4.083580736469369
 30
0.0
  0
VERTEX
  5
22A
330
224
100
AcDbEntity
  8
None
  6
Continuous
 62
     7
370
    18
100
AcDbVertex
100
AcDb2dVertex
 10
6.271080178058494
 20
-4.083580736469369
 30
0.0
  0
SEQEND
  5
22B
330
224
100
AcDbEntity
  8
None
  6
Continuous
 62
     7
370
    18
  0
MTEXT
  5
22C
330
48
100
AcDbEntity
  8
None
 62
     7
100
AcDbMText
 10
4.569178931343012
 20
-4.674167181637091
 30
0.0
 40
0.0781091510847966
 41
0.0
 71
     1
 72
     1
  1
BOUNDARY ROAD
  7
Helvetica
 11
0.0
 21
1.0
 31
0.0
 73
     1
 44
0.8397955333929319
  0
MTEXT
  5
22D
330
48
100
AcDbEntity
  8
None
 62
     7
100
AcDbMText
 10
6.616605607963247
 20
-3.22910392007349
 30
0.0
 40
0.0781091510847966
 41
0.0
 71
     1
 72
     1
  1
HENNING DRIVE
  7
Helvetica
 73
     1
 44
0.8397955333929319
  0
WIPEOUT
  5
22E
330
48
100
AcDbEntity
  8
None
  6
Continuous
 62
     7
370
    18
 92
      152
310
98000000040000000C0000000E000000B20000000C00000016000000000000C20C00000014000000010000006C00000007000000040000001E85BB0F01921D400529B352452011C000000000000000001C80D2C78B161E400529B352452011C000000000000000001C80D2C78B161E400ABBD1399CFE11C000000000000000
310
001E85BB0F01921D400ABBD1399CFE11C00000000000000000
100
AcDbWipeout
 90
        0
 10
7.392582174129783
 20
-4.498642829347554
 30
0.0
 11
0.2171283829125104
 21
0.0
 31
0.0
 12
0.0
 22
0.2171283829125104
 32
0.0
 13
1.0
 23
1.0
340
0
 70
     4
280
     1
281
    50
282
    50
283
     0
360
0
 71
     2
 91
        5
 14
-0.5
 24
-0.5000000000000036
 14
0.0961239135931322
 24
-0.5000000000000036
 14
0.0961239135931322
 24
0.4999999999999964
 14
-0.5
 24
0.4999999999999964
 14
-0.5
 24
-0.5000000000000036
  0
POLYLINE
  5
22F
330
48
100
AcDbEntity
  8
None
  6
Continuous
 62
     7
370
    18
100
AcDb2dPolyline
 66
     1
 10
0.0
 20
0.0
 30
0.0
 70
     1
  0
VERTEX
  5
230
330
22F
100
AcDbEntity
  8
None
  6
Continuous
 62
     7
370
    18
100
AcDbVertex
100
AcDb2dVertex
 10
7.392582174129783
 20
-4.281514446435044
 30
0.0
  0
VERTEX
  5
231
330
22F
100
AcDbEntity
  8
None
  6
Continuous
 62
     7
370
    18
100
AcDbVertex
100
AcDb2dVertex
 10
7.522017595503738
 20
-4.281514446435044
 30
0.0
  0
VERTEX
  5
232
330
22F
100
AcDbEntity
  8
None
  6
Continuous
 62
     7
370
    18
100
AcDbVertex
100
AcDb2dVertex
 10
7.522017595503738
 20
-4.498642829347554
 30
0.0
  0
VERTEX
  5
233
330
22F
100
AcDbEntity
  8
None
  6
Continuous
 62
     7
370
    18
100
AcDbVertex
100
AcDb2dVertex
 10
7.392582174129783
 20
-4.498642829347554
 30
0.0
  0
SEQEND
  5
234
330
22F
100
AcDbEntity
  8
None
  6
Continuous
 62
     7
370
    18
  0
WIPEOUT
  5
235
330
48
100
AcDbEntity
  8
None
  6
Continuous
 62
     7
370
    18
 92
      200
310
C8000000040000000C0000000E000000B20000000C00000016000000000000C20C00000014000000010000009C0000000700000006000000D5B66FC619BA1840C04A4FBF583011C00000000000000000B9A1259CE0B9184020136893B9F311C00000000000000000822B4B4667381D4020136893B9F311C000000000000000
310
00822B4B4667381D40C04A4FBF583011C0000000000000000045CB11DC30B41C40C04A4FBF583011C0000000000000000032B8D174589B1B40C04A4FBF583011C00000000000000000
100
AcDbWipeout
 90
        0
 10
6.1815208814591
 20
-4.488012603022782
 30
0.0
 11
1.123560579816009
 21
0.0
 31
0.0
 12
0.0
 22
1.123560579816009
 32
0.0
 13
1.0
 23
1.0
340
0
 70
     4
280
     1
281
    50
282
    50
283
     0
360
0
 71
     2
 91
        7
 14
-0.4998059135315032
 24
0.3301835589875695
 14
-0.4999999999999991
 24
0.4999999999999996
 14
0.5000000000000009
 24
0.4999999999999996
 14
0.5000000000000009
 24
0.3301835589875695
 14
0.3850851223916285
 24
0.3301835589875695
 14
0.1409834530330274
 24
0.3301835589875695
 14
-0.4998059135315032
 24
0.3301835589875695
  0
POLYLINE
  5
236
330
48
100
AcDbEntity
  8
None
  6
Continuous
 62
     7
370
    18
100
AcDb2dPolyline
 66
     1
 10
0.0
 20
0.0
 30
0.0
 70
     1
  0
VERTEX
  5
237
330
236
100
AcDbEntity
  8
None
  6
Continuous
 62
     7
370
    18
100
AcDbVertex
100
AcDb2dVertex
 10
6.181738949364179
 20
-4.297213544096565
 30
0.0
  0
VERTEX
  5
238
330
236
100
AcDbEntity
  8
None
  6
Continuous
 62
     7
370
    18
100
AcDbVertex
100
AcDb2dVertex
 10
6.1815208814591
 20
-4.488012603022782
 30
0.0
  0
VERTEX
  5
239
330
236
100
AcDbEntity
  8
None
  6
Continuous
 62
     7
370
    18
100
AcDbVertex
100
AcDb2dVertex
 10
7.305081461275109
 20
-4.488012603022782
 30
0.0
  0
VERTEX
  5
23A
330
236
100
AcDbEntity
  8
None
  6
Continuous
 62
     7
370
    18
100
AcDbVertex
100
AcDb2dVertex
 10
7.305081461275109
 20
-4.297213544096565
 30
0.0
  0
VERTEX
  5
23B
330
236
100
AcDbEntity
  8
None
  6
Continuous
 62
     7
370
    18
100
AcDbVertex
100
AcDb2dVertex
 10
7.175967634759961
 20
-4.297213544096565
 30
0.0
  0
VERTEX
  5
23C
330
236
100
AcDbEntity
  8
None
  6
Continuous
 62
     7
370
    18
100
AcDbVertex
100
AcDb2dVertex
 10
6.901704621601356
 20
-4.297213544096565
 30
0.0
  0
SEQEND
  5
23D
330
236
100
AcDbEntity
  8
None
  6
Continuous
 62
     7
370
    18
  0
WIPEOUT
  5
23E
330
48
100
AcDbEntity
  8
None
  6
Continuous
 62
     7
370
    18
 92
      152
310
98000000040000000C0000000E000000B20000000C00000016000000000000C20C00000014000000010000006C00000007000000040000002080D2C78B161E400529B352452011C00000000000000000D836F91CEDC91E400529B352452011C00000000000000000D836F91CEDC91E400ABBD1399CFE11C000000000000000
310
002080D2C78B161E400ABBD1399CFE11C00000000000000000
100
AcDbWipeout
 90
        0
 10
7.52201759550374
 20
-4.498642829347554
 30
0.0
 11
0.2171283829125104
 21
0.0
 31
0.0
 12
0.0
 22
0.2171283829125104
 32
0.0
 13
1.0
 23
1.0
340
0
 70
     4
280
     1
281
    50
282
    50
283
     0
360
0
 71
     2
 91
        5
 14
-0.5
 24
-0.5000000000000036
 14
0.3067852743944997
 24
-0.5000000000000036
 14
0.3067852743944997
 24
0.4999999999999964
 14
-0.5
 24
0.4999999999999964
 14
-0.5
 24
-0.5000000000000036
  0
POLYLINE
  5
23F
330
48
100
AcDbEntity
  8
None
  6
Continuous
 62
     7
370
    18
100
AcDb2dPolyline
 66
     1
 10
0.0
 20
0.0
 30
0.0
 70
     1
  0
VERTEX
  5
240
330
23F
100
AcDbEntity
  8
None
  6
Continuous
 62
     7
370
    18
100
AcDbVertex
100
AcDb2dVertex
 10
7.52201759550374
 20
-4.281514446435044
 30
0.0
  0
VERTEX
  5
241
330
23F
100
AcDbEntity
  8
None
  6
Continuous
 62
     7
370
    18
100
AcDbVertex
100
AcDb2dVertex
 10
7.697193577490643
 20
-4.281514446435044
 30
0.0
  0
VERTEX
  5
242
330
23F
100
AcDbEntity
  8
None
  6
Continuous
 62
     7
370
    18
100
AcDbVertex
100
AcDb2dVertex
 10
7.697193577490643
 20
-4.498642829347554
 30
0.0
  0
VERTEX
  5
243
330
23F
100
AcDbEntity
  8
None
  6
Continuous
 62
     7
370
    18
100
AcDbVertex
100
AcDb2dVertex
 10
7.52201759550374
 20
-4.498642829347554
 30
0.0
  0
SEQEND
  5
244
330
23F
100
AcDbEntity
  8
None
  6
Continuous
 62
     7
370
    18
  0
WIPEOUT
  5
245
330
48
100
AcDbEntity
  8
None
  6
Continuous
 62
     7
370
    18
 92
      152
310
98000000040000000C0000000E000000B20000000C00000016000000000000C20C00000014000000010000006C0000000700000004000000802B4B4667381D40C14A4FBF583011C00000000000000000802B4B4667381D40E143AFE6890711C00000000000000000D4B66FC619BA1840E143AFE6890711C000000000000000
310
00D4B66FC619BA1840C14A4FBF583011C00000000000000000
100
AcDbWipeout
 90
        0
 10
6.181738949364179
 20
-4.297213544096565
 30
0.0
 11
1.123342511910931
 21
0.0
 31
0.0
 12
0.0
 22
1.123342511910931
 32
0.0
 13
1.0
 23
1.0
340
0
 70
     4
280
     1
281
    50
282
    50
283
     0
360
0
 71
     2
 91
        5
 14
0.4999999999999991
 24
0.5
 14
0.4999999999999991
 24
0.464524127610435
 14
-0.5000000000000009
 24
0.464524127610435
 14
-0.5000000000000009
 24
0.5
 14
0.4999999999999991
 24
0.5
  0
POLYLINE
  5
246
330
48
100
AcDbEntity
  8
None
  6
Continuous
 62
     7
370
    18
100
AcDb2dPolyline
 66
     1
 10
0.0
 20
0.0
 30
0.0
 70
     1
  0
VERTEX
  5
247
330
246
100
AcDbEntity
  8
None
  6
Continuous
 62
     7
370
    18
100
AcDbVertex
100
AcDb2dVertex
 10
7.305081461275109
 20
-4.297213544096565
 30
0.0
  0
VERTEX
  5
248
330
246
100
AcDbEntity
  8
None
  6
Continuous
 62
     7
370
    18
100
AcDbVertex
100
AcDb2dVertex
 10
7.305081461275109
 20
-4.25736198849424
 30
0.0
  0
VERTEX
  5
249
330
246
100
AcDbEntity
  8
None
  6
Continuous
 62
     7
370
    18
100
AcDbVertex
100
AcDb2dVertex
 10
6.181738949364179
 20
-4.25736198849424
 30
0.0
  0
VERTEX
  5
24A
330
246
100
AcDbEntity
  8
None
  6
Continuous
 62
     7
370
    18
100
AcDbVertex
100
AcDb2dVertex
 10
6.181738949364179
 20
-4.297213544096565
 30
0.0
  0
SEQEND
  5
24B
330
246
100
AcDbEntity
  8
None
  6
Continuous
 62
     7
370
    18
  0
MTEXT
  5
24C
330
48
100
AcDbEntity
  8
None
 62
   251
100
AcDbMText
 10
5.618603976180795
 20
-4.322228721193647
 30
0.0
 40
0.099629019240812
 41
0.0
 71
     2
 72
     1
  1
6
  7
Helvetica
 73
     1
 44
0.8397955333929318
  0
MTEXT
  5
24D
330
48
100
AcDbEntity
  8
None
 62
   251
100
AcDbMText
 10
6.549179178356943
 20
-3.896400621398457
 30
0.0
 40
0.099629019240812
 41
0.0
 71
     2
 72
     1
  1
2
  7
Helvetica
 73
     1
 44
0.8397955333929318
  0
MTEXT
  5
24E
330
48
100
AcDbEntity
  8
None
 62
   251
100
AcDbMText
 10
6.884751797476892
 20
-3.896400621398457
 30
0.0
 40
0.099629019240812
 41
0.0
 71
     2
 72
     1
  1
3
  7
Helvetica
 73
     1
 44
0.8397955333929318
  0
MTEXT
  5
24F
330
48
100
AcDbEntity
  8
None
 62
   251
100
AcDbMText
 10
6.720007505161086
 20
-4.33882136549535
 30
0.0
 40
0.099629019240812
 41
0.0
 71
     2
 72
     1
  1
FX
  7
Helvetica
 73
     1
 44
0.8397955333929318
  0
MTEXT
  5
250
330
48
100
AcDbEntity
  8
None
 62
   251
100
AcDbMText
 10
6.238478075767098
 20
-3.896400621398457
 30
0.0
 40
0.099629019240812
 41
0.0
 71
     2
 72
     1
  1
1
  7
Helvetica
 73
     1
 44
0.8397955333929318
  0
MTEXT
  5
251
330
48
100
AcDbEntity
  8
None
 62
   251
100
AcDbMText
 10
7.455730416853805
 20
-4.338845230106877
 30
0.0
 40
0.099629019240812
 41
0.0
 71
     2
 72
     1
  1
B
  7
Helvetica
 73
     1
 44
0.8397955333929318
  0
MTEXT
  5
252
330
48
100
AcDbEntity
  8
None
 62
     7
100
AcDbMText
 10
5.709983344073234
 20
-3.410099045572772
 30
0.0
 40
0.0398516076963248
 41
0.0
 71
     2
 72
     1
  1
SECURITY\PGATE
  7
Helvetica
 73
     1
 44
0.8397955333929318
  0
INSERT
  5
253
330
48
100
AcDbEntity
  8
elements-ojects
 62
     7
100
AcDbBlockReference
  2
Group-3-1
 10
0.0
 20
0.0
 30
0.0
  0
WIPEOUT
  5
254
330
48
100
AcDbEntity
  8
None
  6
Continuous
 62
   250
370
     9
 92
      392
310
88010000040000000C0000000E000000B20000000C00000016000000000000C20C00000014000000010000005C010000070000000E000000C0ECD5D6A8D7134053D882BCA6480FC00000000000000000C0ECD5D6A8D71340F11865225A630FC00000000000000000D54EBC2AF2B21340F11865225A630FC000000000000000
310
00D54EBC2AF2B2134064957AE07AC70FC00000000000000000B8EF36FBE999134064957AE07AC70FC00000000000000000B8EF36FBE99913407B0977601F3B11C0000000000000000075B587506B2515407B0977601F3B11C0000000000000000075B587506B2515405A226D61BA840FC000000000000000009A22290856E4
310
14405A226D61BA840FC000000000000000009A22290856E414406E448BF2514A0FC000000000000000001CC68E0E2FB814406E448BF2514A0FC000000000000000001CC68E0E2FB8144052E505C349310FC00000000000000000712E58B5F4FB134052E505C349310FC00000000000000000712E58B5F4FB134053D882BCA6
310
480FC00000000000000000
100
AcDbWipeout
 90
        0
 10
4.90030663035207
 20
-4.307736880555576
 30
0.0
 11
0.4086704098205742
 21
0.0
 31
0.0
 12
0.0
 22
0.4086704098205742
 32
0.0
 13
1.0
 23
1.0
340
0
 70
     4
280
     1
281
    50
282
    50
283
     0
360
0
 71
     2
 91
       15
 14
-0.3524523035186551
 24
-0.4720855648435691
 14
-0.3524523035186551
 24
-0.4401833603153538
 14
-0.440183366330146
 24
-0.4401833603153538
 14
-0.440183366330146
 24
-0.3205500929756475
 14
-0.5
 24
-0.3205500929756475
 14
-0.5
 24
0.5
 14
0.4451028150462761
 24
0.5
 14
0.4451028150462761
 24
-0.400305610550248
 14
0.2895795669623258
 24
-0.400305610550248
 14
0.2895795669623258
 24
-0.4700916831650748
 14
0.1840729610664589
 24
-0.4700916831650748
 14
0.1840729610664589
 24
-0.5
 14
-0.2657181845737533
 24
-0.5
 14
-0.2657181845737533
 24
-0.4720855648435691
 14
-0.3524523035186551
 24
-0.4720855648435691
  0
POLYLINE
  5
255
330
48
100
AcDbEntity
  8
None
  6
Continuous
 62
   250
370
     9
100
AcDb2dPolyline
 66
     1
 10
0.0
 20
0.0
 30
0.0
 70
     1
  0
VERTEX
  5
256
330
255
100
AcDbEntity
  8
None
  6
Continuous
 62
   250
370
     9
100
AcDbVertex
100
AcDb2dVertex
 10
4.960605007941183
 20
-3.910474274390291
 30
0.0
  0
VERTEX
  5
257
330
255
100
AcDbEntity
  8
None
  6
Continuous
 62
   250
370
     9
100
AcDbVertex
100
AcDb2dVertex
 10
4.960605007941183
 20
-3.923511761389016
 30
0.0
  0
VERTEX
  5
258
330
255
100
AcDbEntity
  8
None
  6
Continuous
 62
   250
370
     9
100
AcDbVertex
100
AcDb2dVertex
 10
4.924751918548016
 20
-3.923511761389016
 30
0.0
  0
VERTEX
  5
259
330
255
100
AcDbEntity
  8
None
  6
Continuous
 62
   250
370
     9
100
AcDbVertex
100
AcDb2dVertex
 10
4.924751918548016
 20
-3.972402337780908
 30
0.0
  0
VERTEX
  5
25A
330
255
100
AcDbEntity
  8
None
  6
Continuous
 62
   250
370
     9
100
AcDbVertex
100
AcDb2dVertex
 10
4.90030663035207
 20
-3.972402337780908
 30
0.0
  0
VERTEX
  5
25B
330
255
100
AcDbEntity
  8
None
  6
Continuous
 62
   250
370
     9
100
AcDbVertex
100
AcDb2dVertex
 10
4.90030663035207
 20
-4.307736880555576
 30
0.0
  0
VERTEX
  5
25C
330
255
100
AcDbEntity
  8
None
  6
Continuous
 62
   250
370
     9
100
AcDbVertex
100
AcDb2dVertex
 10
5.28654218509961
 20
-4.307736880555576
 30
0.0
  0
VERTEX
  5
25D
330
255
100
AcDbEntity
  8
None
  6
Continuous
 62
   250
370
     9
100
AcDbVertex
100
AcDb2dVertex
 10
5.28654218509961
 20
-3.939808617728244
 30
0.0
  0
VERTEX
  5
25E
330
255
100
AcDbEntity
  8
None
  6
Continuous
 62
   250
370
     9
100
AcDbVertex
100
AcDb2dVertex
 10
5.222984435568515
 20
-3.939808617728244
 30
0.0
  0
VERTEX
  5
25F
330
255
100
AcDbEntity
  8
None
  6
Continuous
 62
   250
370
     9
100
AcDbVertex
100
AcDb2dVertex
 10
5.222984435568515
 20
-3.911289114832975
 30
0.0
  0
VERTEX
  5
260
330
255
100
AcDbEntity
  8
None
  6
Continuous
 62
   250
370
     9
100
AcDbVertex
100
AcDb2dVertex
 10
5.179867007698273
 20
-3.911289114832975
 30
0.0
  0
VERTEX
  5
261
330
255
100
AcDbEntity
  8
None
  6
Continuous
 62
   250
370
     9
100
AcDbVertex
100
AcDb2dVertex
 10
5.179867007698273
 20
-3.899066470735002
 30
0.0
  0
VERTEX
  5
262
330
255
100
AcDbEntity
  8
None
  6
Continuous
 62
   250
370
     9
100
AcDbVertex
100
AcDb2dVertex
 10
4.996050675875822
 20
-3.899066470735002
 30
0.0
  0
VERTEX
  5
263
330
255
100
AcDbEntity
  8
None
  6
Continuous
 62
   250
370
     9
100
AcDbVertex
100
AcDb2dVertex
 10
4.996050675875822
 20
-3.910474274390291
 30
0.0
  0
SEQEND
  5
264
330
255
100
AcDbEntity
  8
None
  6
Continuous
 62
   250
370
     9
  0
MTEXT
  5
265
330
48
100
AcDbEntity
  8
None
 62
   251
100
AcDbMText
 10
7.201387056626372
 20
-3.883202994517626
 30
0.0
 40
0.099629019240812
 41
0.0
 71
     2
 72
     1
  1
H
  7
Helvetica
 73
     1
 44
0.8397955333929318
  0
MTEXT
  5
266
330
48
100
AcDbEntity
  8
None
 62
   251
100
AcDbMText
 10
7.582748699248813
 20
-3.885148478708215
 30
0.0
 40
0.099629019240812
 41
0.0
 71
     2
 72
     1
  1
4
  7
Helvetica
 73
     1
 44
0.8397955333929318
  0
WIPEOUT
  5
267
330
48
100
AcDbEntity
  8
None
  6
Continuous
 62
     7
370
    18
 92
      152
310
98000000040000000C0000000E000000B20000000C00000016000000000000C20C00000014000000010000006C00000007000000040000000BAB46670AAC1A40A08F598806960BC0000000000000000060407B99ECF91B40A08F598806960BC0000000000000000060407B99ECF91B40ACFC93DC01090DC000000000000000
310
000BAB46670AAC1A40ACFC93DC01090DC00000000000000000
100
AcDbWipeout
 90
        0
 10
6.668008435905684
 20
-3.629398082033353
 30
0.0
 11
0.3260581822008435
 21
0.0
 31
0.0
 12
0.0
 22
0.3260581822008435
 32
0.0
 13
1.0
 23
1.0
340
0
 70
     4
280
     1
281
    50
282
    50
283
     0
360
0
 71
     2
 91
        5
 14
-0.4999999999999964
 24
-0.0555555555555589
 14
0.5000000000000036
 24
-0.0555555555555589
 14
0.5000000000000036
 24
0.5
 14
-0.4999999999999964
 24
0.5
 14
-0.4999999999999964
 24
-0.0555555555555589
  0
POLYLINE
  5
268
330
48
100
AcDbEntity
  8
None
  6
Continuous
 62
     7
370
    18
100
AcDb2dPolyline
 66
     1
 10
0.0
 20
0.0
 30
0.0
 70
     1
  0
VERTEX
  5
269
330
268
100
AcDbEntity
  8
None
  6
Continuous
 62
     7
370
    18
100
AcDbVertex
100
AcDb2dVertex
 10
6.668008435905684
 20
-3.448254647477327
 30
0.0
  0
VERTEX
  5
26A
330
268
100
AcDbEntity
  8
None
  6
Continuous
 62
     7
370
    18
100
AcDbVertex
100
AcDb2dVertex
 10
6.994066618106528
 20
-3.448254647477327
 30
0.0
  0
VERTEX
  5
26B
330
268
100
AcDbEntity
  8
None
  6
Continuous
 62
     7
370
    18
100
AcDbVertex
100
AcDb2dVertex
 10
6.994066618106528
 20
-3.629398082033353
 30
0.0
  0
VERTEX
  5
26C
330
268
100
AcDbEntity
  8
None
  6
Continuous
 62
     7
370
    18
100
AcDbVertex
100
AcDb2dVertex
 10
6.668008435905684
 20
-3.629398082033353
 30
0.0
  0
SEQEND
  5
26D
330
268
100
AcDbEntity
  8
None
  6
Continuous
 62
     7
370
    18
  0
MTEXT
  5
26E
330
48
100
AcDbEntity
  8
None
 62
   251
100
AcDbMText
 10
6.83064320675202
 20
-3.508572149492363
 30
0.0
 40
0.0398516076963248
 41
0.0
 71
     2
 72
     1
  1
CAFETERIA\P
  7
Helvetica
 73
     1
 44
0.8397955333929318
  0
MTEXT
  5
26F
330
48
100
AcDbEntity
  8
None
 62
     7
100
AcDbMText
 10
5.618603976180795
 20
-4.04501806926748
 30
0.0
 40
0.099629019240812
 41
0.0
 71
     2
 72
     1
  1
5
  7
Helvetica
 73
     1
 44
0.8397955333929318
  0
ENDBLK
  5
4A
330
48
100
AcDbEntity
  8
0
100
AcDbBlockEnd
  0
BLOCK
  5
4C
330
4B
100
AcDbEntity
  8
0
100
AcDbBlockBegin
  2
*D5
 70
     1
 10
0.0
 20
0.0
 30
0.0
  3
*D5
  1

  0
LINE
  5
270
330
4B
100
AcDbEntity
  8
Dimension
  6
Continuous
 62
     0
370
    -2
100
AcDbLine
 10
166.1387088979108
 20
608.7188391165506
 30
0.0
 11
166.1387088979109
 21
876.6598027842226
 31
0.0
  0
LINE
  5
271
330
4B
100
AcDbEntity
  8
Dimension
  6
Continuous
 62
     0
370
    -2
100
AcDbLine
 10
-1134.861291102089
 20
578.7188391165506
 30
0.0
 11
-1134.861291102089
 21
876.6598027842226
 31
0.0
  0
LINE
  5
272
330
4B
100
AcDbEntity
  8
Dimension
  6
Continuous
 62
     0
370
    -2
100
AcDbLine
 10
143.0137088979109
 20
853.5348027842226
 30
0.0
 11
-417.2241814088
 21
853.5348027842226
 31
0.0
  0
LINE
  5
273
102
{ACAD_REACTORS
330
278
102
}
330
4B
100
AcDbEntity
  8
Dimension
  6
Continuous
 62
     0
370
    -2
100
AcDbLine
 10
-1111.736291102089
 20
853.5348027842226
 30
0.0
 11
-551.4984007953784
 21
853.5348027842226
 31
0.0
  0
INSERT
  5
278
330
4B
100
AcDbEntity
  8
Dimension
 62
     0
370
    -2
100
AcDbBlockReference
  2
VW_FILLEDARROW
 10
166.1387088979109
 20
853.5348027842226
 30
0.0
 41
23.125
 42
23.125
 43
23.125
  0
INSERT
  5
279
102
{ACAD_REACTORS
330
27E
102
}
330
4B
100
AcDbEntity
  8
Dimension
 62
     0
370
    -2
100
AcDbBlockReference
  2
VW_FILLEDARROW
 10
-1134.861291102089
 20
853.5348027842226
 30
0.0
 41
23.125
 42
23.125
 43
23.125
 50
180.0
  0
MTEXT
  5
27E
330
4B
100
AcDbEntity
  8
Dimension
 62
     0
370
     9
100
AcDbMText
 10
-484.3612911020892
 20
853.5348027842226
 30
0.0
 40
22.11764227146026
 41
0.0
 71
     5
 72
     1
  1
\A1;108'-5"
  7
Helvetica
 73
     1
 44
1.0
  0
POINT
  5
27F
330
4B
100
AcDbEntity
  8
Defpoints
 62
     0
100
AcDbPoint
 10
166.1387088979108
 20
597.1563391165506
 30
0.0
  0
POINT
  5
280
330
4B
100
AcDbEntity
  8
Defpoints
 62
     0
100
AcDbPoint
 10
-1134.861291102089
 20
567.1563391165506
 30
0.0
  0
POINT
  5
281
330
4B
100
AcDbEntity
  8
Defpoints
 62
     0
100
AcDbPoint
 10
-1134.861291102089
 20
853.5348027842226
 30
0.0
  0
ENDBLK
  5
4D
330
4B
100
AcDbEntity
  8
0
100
AcDbBlockEnd
  0
BLOCK
  5
4F
330
4E
100
AcDbEntity
  8
0
100
AcDbBlockBegin
  2
*D6
 70
     1
 10
0.0
 20
0.0
 30
0.0
  3
*D6
  1

  0
LINE
  5
284
330
4E
100
AcDbEntity
  8
Dimension
  6
Continuous
 62
     0
370
    -2
100
AcDbLine
 10
-990.2245727348723
 20
-734.6876108518239
 30
0.0
 11
-1319.125
 21
-734.6876108518239
 31
0.0
  0
LINE
  5
285
330
4E
100
AcDbEntity
  8
Dimension
  6
Continuous
 62
     0
370
    -2
100
AcDbLine
 10
-1014.224572734872
 20
627.3123891481756
 30
0.0
 11
-1319.125
 21
627.3123891481756
 31
0.0
  0
LINE
  5
286
330
4E
100
AcDbEntity
  8
Dimension
  6
Continuous
 62
     0
370
    -2
100
AcDbLine
 10
-1296.0
 20
-711.5626108518239
 30
0.0
 11
-1296.0
 21
-67.63705698755427
 31
0.0
  0
LINE
  5
287
102
{ACAD_REACTORS
330
28C
102
}
330
4E
100
AcDbEntity
  8
Dimension
  6
Continuous
 62
     0
370
    -2
100
AcDbLine
 10
-1296.0
 20
604.1873891481756
 30
0.0
 11
-1296.0
 21
-39.73816471609416
 31
0.0
  0
INSERT
  5
28C
330
4E
100
AcDbEntity
  8
Dimension
 62
     0
370
    -2
100
AcDbBlockReference
  2
VW_FILLEDARROW
 10
-1296.0
 20
-734.6876108518239
 30
0.0
 41
23.125
 42
23.125
 43
23.125
 50
270.0
  0
INSERT
  5
28D
102
{ACAD_REACTORS
330
292
102
}
330
4E
100
AcDbEntity
  8
Dimension
 62
     0
370
    -2
100
AcDbBlockReference
  2
VW_FILLEDARROW
 10
-1296.0
 20
627.3123891481756
 30
0.0
 41
23.125
 42
23.125
 43
23.125
 50
90.0
  0
MTEXT
  5
292
330
4E
100
AcDbEntity
  8
Dimension
 62
     0
370
     9
100
AcDbMText
 10
-1296.0
 20
-53.68761085182416
 30
0.0
 40
22.11764227146026
 41
0.0
 71
     5
 72
     1
  1
\A1;113'-6"
  7
Helvetica
 73
     1
 44
1.0
  0
POINT
  5
293
330
4E
100
AcDbEntity
  8
Defpoints
 62
     0
100
AcDbPoint
 10
-978.6620727348723
 20
-734.6876108518239
 30
0.0
  0
POINT
  5
294
330
4E
100
AcDbEntity
  8
Defpoints
 62
     0
100
AcDbPoint
 10
-1002.662072734872
 20
627.3123891481756
 30
0.0
  0
POINT
  5
295
330
4E
100
AcDbEntity
  8
Defpoints
 62
     0
100
AcDbPoint
 10
-1296.0
 20
627.3123891481756
 30
0.0
  0
ENDBLK
  5
50
330
4E
100
AcDbEntity
  8
0
100
AcDbBlockEnd
  0
BLOCK
  5
52
330
51
100
AcDbEntity
  8
0
100
AcDbBlockBegin
  2
Group-5-1
 70
     0
 10
0.0
 20
0.0
 30
0.0
  3
Group-5-1
  1

  0
LINE
  5
298
330
51
100
AcDbEntity
  8
0
  6
Continuous
 62
     7
370
     9
100
AcDbLine
 10
-632.9649922347645
 20
680.3123891481763
 30
0.0
 11
-635.2149922347893
 21
680.3123891481763
 31
0.0
  0
LINE
  5
299
330
51
100
AcDbEntity
  8
0
  6
Continuous
 62
     7
370
     9
100
AcDbLine
 10
-635.2149922347893
 20
680.3123891481763
 30
0.0
 11
-635.2149922347893
 21
644.3123891481756
 31
0.0
  0
LINE
  5
29A
330
51
100
AcDbEntity
  8
0
  6
Continuous
 62
     7
370
     9
100
AcDbLine
 10
-635.2149922347893
 20
644.3123891481756
 30
0.0
 11
-632.9649922347645
 21
644.3123891481756
 31
0.0
  0
LINE
  5
29B
330
51
100
AcDbEntity
  8
0
  6
Continuous
 62
     7
370
     9
100
AcDbLine
 10
-632.9649922347645
 20
644.3123891481756
 30
0.0
 11
-632.9649922347645
 21
680.3123891481763
 31
0.0
  0
SPLINE
  5
29C
330
51
100
AcDbEntity
  8
0
  6
Continuous
 62
     7
370
     9
100
AcDbSpline
210
0.0
220
0.0
230
1.0
 70
     8
 71
     2
 72
     8
 73
     5
 74
     0
 42
0.000000001
 43
0.0000000000001
 40
0.0
 40
0.0
 40
0.0
 40
1.0
 40
2.0
 40
3.0
 40
3.0
 40
3.0
 10
-599.2149922347893
 20
644.3125580896902
 30
0.0
 10
-599.2150356203355
 20
653.557649002582
 30
0.0
 10
-608.1243970267174
 20
669.7598125399081
 30
0.0
 10
-623.7381429779756
 20
679.6642439386792
 30
0.0
 10
-632.9651621369993
 20
680.2420184884744
 30
0.0
  0
ENDBLK
  5
53
330
51
100
AcDbEntity
  8
0
100
AcDbBlockEnd
  0
BLOCK
  5
55
330
54
100
AcDbEntity
  8
0
100
AcDbBlockBegin
  2
Group-6-1
 70
     0
 10
0.0
 20
0.0
 30
0.0
  3
Group-6-1
  1

  0
LINE
  5
29D
330
54
100
AcDbEntity
  8
0
  6
Continuous
 62
     7
370
     9
100
AcDbLine
 10
-633.0973451759584
 20
712.6748299286564
 30
0.0
 11
-635.2149922347892
 21
712.6748299286564
 31
0.0
  0
LINE
  5
29E
330
54
100
AcDbEntity
  8
0
  6
Continuous
 62
     7
370
     9
100
AcDbLine
 10
-635.2149922347892
 20
712.6748299286564
 30
0.0
 11
-635.2149922347892
 21
748.6748299286562
 31
0.0
  0
LINE
  5
29F
330
54
100
AcDbEntity
  8
0
  6
Continuous
 62
     7
370
     9
100
AcDbLine
 10
-635.2149922347892
 20
748.6748299286562
 30
0.0
 11
-633.0973451759584
 21
748.6748299286562
 31
0.0
  0
LINE
  5
2A0
330
54
100
AcDbEntity
  8
0
  6
Continuous
 62
     7
370
     9
100
AcDbLine
 10
-633.0973451759584
 20
748.6748299286562
 30
0.0
 11
-633.0973451759584
 21
712.6748299286564
 31
0.0
  0
SPLINE
  5
2A1
330
54
100
AcDbEntity
  8
0
  6
Continuous
 62
     7
370
     9
100
AcDbSpline
210
0.0
220
0.0
230
1.0
 70
     8
 71
     2
 72
     8
 73
     5
 74
     0
 42
0.000000001
 43
0.0000000000001
 40
0.0
 40
0.0
 40
0.0
 40
1.0
 40
2.0
 40
3.0
 40
3.0
 40
3.0
 10
-633.0974444753521
 20
712.7371617866279
 30
0.0
 10
-623.8448404909988
 20
713.2823510503954
 30
0.0
 10
-608.166987326685
 20
723.1735879526204
 30
0.0
 10
-599.215016837414
 20
739.4060822666733
 30
0.0
 10
-599.2149922347892
 20
748.6747343705875
 30
0.0
  0
ENDBLK
  5
56
330
54
100
AcDbEntity
  8
0
100
AcDbBlockEnd
  0
BLOCK
  5
58
330
57
100
AcDbEntity
  8
0
100
AcDbBlockBegin
  2
Group-7-1
 70
     0
 10
0.0
 20
0.0
 30
0.0
  3
Group-7-1
  1

  0
LINE
  5
2A2
330
57
100
AcDbEntity
  8
0
  6
Continuous
 62
     7
370
     9
100
AcDbLine
 10
-724.1486889107582
 20
719.7736153489765
 30
0.0
 11
-726.2663359695891
 21
719.7736153489765
 31
0.0
  0
LINE
  5
2A3
330
57
100
AcDbEntity
  8
0
  6
Continuous
 62
     7
370
     9
100
AcDbLine
 10
-726.2663359695891
 20
719.7736153489765
 30
0.0
 11
-726.2663359695891
 21
755.7736153489763
 31
0.0
  0
LINE
  5
2A4
330
57
100
AcDbEntity
  8
0
  6
Continuous
 62
     7
370
     9
100
AcDbLine
 10
-726.2663359695891
 20
755.7736153489763
 30
0.0
 11
-724.1486889107582
 21
755.7736153489763
 31
0.0
  0
LINE
  5
2A5
330
57
100
AcDbEntity
  8
0
  6
Continuous
 62
     7
370
     9
100
AcDbLine
 10
-724.1486889107582
 20
755.7736153489763
 30
0.0
 11
-724.1486889107582
 21
719.7736153489765
 31
0.0
  0
SPLINE
  5
2A6
330
57
100
AcDbEntity
  8
0
  6
Continuous
 62
     7
370
     9
100
AcDbSpline
210
0.0
220
0.0
230
1.0
 70
     8
 71
     2
 72
     8
 73
     5
 74
     0
 42
0.000000001
 43
0.0000000000001
 40
0.0
 40
0.0
 40
0.0
 40
1.0
 40
2.0
 40
3.0
 40
3.0
 40
3.0
 10
-724.1487882101518
 20
719.8359472069479
 30
0.0
 10
-714.8961842257987
 20
720.3811364707154
 30
0.0
 10
-699.218331061485
 20
730.2723733729405
 30
0.0
 10
-690.2663605722139
 20
746.5048676869934
 30
0.0
 10
-690.266335969589
 20
755.7735197909077
 30
0.0
  0
ENDBLK
  5
59
330
57
100
AcDbEntity
  8
0
100
AcDbBlockEnd
  0
BLOCK
  5
5B
330
5A
100
AcDbEntity
  8
0
100
AcDbBlockBegin
  2
Group-8-1
 70
     0
 10
0.0
 20
0.0
 30
0.0
  3
Group-8-1
  1

  0
LINE
  5
2A7
330
5A
100
AcDbEntity
  8
0
  6
Continuous
 62
     7
370
     9
100
AcDbLine
 10
-1080.117806910113
 20
768.8649926148788
 30
0.0
 11
-1082.10911172419
 21
768.8649926148788
 31
0.0
  0
LINE
  5
2A8
330
5A
100
AcDbEntity
  8
0
  6
Continuous
 62
     7
370
     9
100
AcDbLine
 10
-1082.10911172419
 20
768.8649926148788
 30
0.0
 11
-1082.10911172419
 21
802.717174454176
 31
0.0
  0
LINE
  5
2A9
330
5A
100
AcDbEntity
  8
0
  6
Continuous
 62
     7
370
     9
100
AcDbLine
 10
-1082.10911172419
 20
802.717174454176
 30
0.0
 11
-1080.117806910113
 21
802.717174454176
 31
0.0
  0
LINE
  5
2AA
330
5A
100
AcDbEntity
  8
0
  6
Continuous
 62
     7
370
     9
100
AcDbLine
 10
-1080.117806910113
 20
802.717174454176
 30
0.0
 11
-1080.117806910113
 21
768.8649926148788
 31
0.0
  0
ARC
  5
2AB
330
5A
100
AcDbEntity
  8
0
  6
Continuous
 62
     7
370
     9
100
AcDbCircle
 10
-1082.109111724189
 20
802.717174454176
 30
0.0
 40
33.85218183929757
100
AcDbArc
 50
273.3721283694159
 51
359.9998479146103
  0
ENDBLK
  5
5C
330
5A
100
AcDbEntity
  8
0
100
AcDbBlockEnd
  0
BLOCK
  5
5E
330
5D
100
AcDbEntity
  8
0
100
AcDbBlockBegin
  2
Group-9-1
 70
     0
 10
0.0
 20
0.0
 30
0.0
  3
Group-9-1
  1

  0
LINE
  5
2AC
330
5D
100
AcDbEntity
  8
0
  6
Continuous
 62
     7
370
     9
100
AcDbLine
 10
-1087.187831547774
 20
-764.2808518534475
 30
0.0
 11
-1085.187831547767
 21
-764.2808518534475
 31
0.0
  0
LINE
  5
2AD
330
5D
100
AcDbEntity
  8
0
  6
Continuous
 62
     7
370
     9
100
AcDbLine
 10
-1085.187831547767
 20
-764.2808518534475
 30
0.0
 11
-1085.187831547767
 21
-800.2808518534479
 31
0.0
  0
LINE
  5
2AE
330
5D
100
AcDbEntity
  8
0
  6
Continuous
 62
     7
370
     9
100
AcDbLine
 10
-1085.187831547767
 20
-800.2808518534479
 30
0.0
 11
-1087.187831547774
 21
-800.2808518534479
 31
0.0
  0
LINE
  5
2AF
330
5D
100
AcDbEntity
  8
0
  6
Continuous
 62
     7
370
     9
100
AcDbLine
 10
-1087.187831547774
 20
-800.2808518534479
 30
0.0
 11
-1087.187831547774
 21
-764.2808518534475
 31
0.0
  0
SPLINE
  5
2B0
330
5D
100
AcDbEntity
  8
0
  6
Continuous
 62
     7
370
     9
100
AcDbSpline
210
0.0
220
0.0
230
1.0
 70
     8
 71
     2
 72
     8
 73
     5
 74
     0
 42
0.000000001
 43
0.0000000000001
 40
0.0
 40
0.0
 40
0.0
 40
1.0
 40
2.0
 40
3.0
 40
3.0
 40
3.0
 10
-1087.187730963955
 20
-764.3364447457326
 30
0.0
 10
-1096.462982676493
 20
-764.8525075209283
 30
0.0
 10
-1112.197860665714
 20
-774.731782551982
 30
0.0
 10
-1121.187806889546
 20
-790.9911591503105
 30
0.0
 10
-1121.187831547767
 20
-800.280756295379
 30
0.0
  0
ENDBLK
  5
5F
330
5D
100
AcDbEntity
  8
0
100
AcDbBlockEnd
  0
BLOCK
  5
61
330
60
100
AcDbEntity
  8
0
100
AcDbBlockBegin
  2
Group-10-1
 70
     0
 10
0.0
 20
0.0
 30
0.0
  3
Group-10-1
  1

  0
LINE
  5
2B1
330
60
100
AcDbEntity
  8
0
  6
Continuous
 62
     7
370
     9
100
AcDbLine
 10
-1180.41955420979
 20
-726.3103008860304
 30
0.0
 11
-1180.41955420979
 21
-724.3103008860235
 31
0.0
  0
LINE
  5
2B2
330
60
100
AcDbEntity
  8
0
  6
Continuous
 62
     7
370
     9
100
AcDbLine
 10
-1180.41955420979
 20
-724.3103008860235
 30
0.0
 11
-1144.419554209789
 21
-724.3103008860235
 31
0.0
  0
LINE
  5
2B3
330
60
100
AcDbEntity
  8
0
  6
Continuous
 62
     7
370
     9
100
AcDbLine
 10
-1144.419554209789
 20
-724.3103008860235
 30
0.0
 11
-1144.419554209789
 21
-726.3103008860304
 31
0.0
  0
LINE
  5
2B4
330
60
100
AcDbEntity
  8
0
  6
Continuous
 62
     7
370
     9
100
AcDbLine
 10
-1144.419554209789
 20
-726.3103008860304
 30
0.0
 11
-1180.41955420979
 21
-726.3103008860304
 31
0.0
  0
SPLINE
  5
2B5
330
60
100
AcDbEntity
  8
0
  6
Continuous
 62
     7
370
     9
100
AcDbSpline
210
0.0
220
0.0
230
1.0
 70
     8
 71
     2
 72
     8
 73
     5
 74
     0
 42
0.000000001
 43
0.0000000000001
 40
0.0
 40
0.0
 40
0.0
 40
1.0
 40
2.0
 40
3.0
 40
3.0
 40
3.0
 10
-1180.363961317505
 20
-726.3102003022121
 30
0.0
 10
-1179.847898542309
 20
-735.5854520147501
 30
0.0
 10
-1169.968623511255
 20
-751.3203300039705
 30
0.0
 10
-1153.709246912927
 20
-760.3102762278029
 30
0.0
 10
-1144.419649767858
 20
-760.3103008860238
 30
0.0
  0
ENDBLK
  5
62
330
60
100
AcDbEntity
  8
0
100
AcDbBlockEnd
  0
BLOCK
  5
64
330
63
100
AcDbEntity
  8
0
100
AcDbBlockBegin
  2
Group-11-1
 70
     0
 10
0.0
 20
0.0
 30
0.0
  3
Group-11-1
  1

  0
LINE
  5
2B6
330
63
100
AcDbEntity
  8
0
  6
Continuous
 62
     7
370
     9
100
AcDbLine
 10
-1086.930465124673
 20
-718.0158291212239
 30
0.0
 11
-1084.930465124666
 21
-718.0158291212239
 31
0.0
  0
LINE
  5
2B7
330
63
100
AcDbEntity
  8
0
  6
Continuous
 62
     7
370
     9
100
AcDbLine
 10
-1084.930465124666
 20
-718.0158291212239
 30
0.0
 11
-1084.930465124666
 21
-682.0158291212235
 31
0.0
  0
LINE
  5
2B8
330
63
100
AcDbEntity
  8
0
  6
Continuous
 62
     7
370
     9
100
AcDbLine
 10
-1084.930465124666
 20
-682.0158291212235
 30
0.0
 11
-1086.930465124673
 21
-682.0158291212235
 31
0.0
  0
LINE
  5
2B9
330
63
100
AcDbEntity
  8
0
  6
Continuous
 62
     7
370
     9
100
AcDbLine
 10
-1086.930465124673
 20
-682.0158291212235
 30
0.0
 11
-1086.930465124673
 21
-718.0158291212239
 31
0.0
  0
SPLINE
  5
2BA
330
63
100
AcDbEntity
  8
0
  6
Continuous
 62
     7
370
     9
100
AcDbSpline
210
0.0
220
0.0
230
1.0
 70
     8
 71
     2
 72
     8
 73
     5
 74
     0
 42
0.000000001
 43
0.0000000000001
 40
0.0
 40
0.0
 40
0.0
 40
1.0
 40
2.0
 40
3.0
 40
3.0
 40
3.0
 10
-1086.930364540855
 20
-717.9602362289387
 30
0.0
 10
-1096.205616253393
 20
-717.4441734537431
 30
0.0
 10
-1111.940494242613
 20
-707.5648984226895
 30
0.0
 10
-1120.930440466445
 20
-691.3055218243608
 30
0.0
 10
-1120.930465124666
 20
-682.0159246792923
 30
0.0
  0
ENDBLK
  5
65
330
63
100
AcDbEntity
  8
0
100
AcDbBlockEnd
  0
BLOCK
  5
67
330
66
100
AcDbEntity
  8
0
100
AcDbBlockBegin
  2
Group-12-1
 70
     0
 10
0.0
 20
0.0
 30
0.0
  3
Group-12-1
  1

  0
LWPOLYLINE
  5
2BB
330
66
100
AcDbEntity
  8
studio
  6
Continuous
 62
     7
370
     9
100
AcDbPolyline
 90
        4
 70
     0
 43
0.0
 10
151.2985479983988
 20
-687.1329884021154
 10
151.2985479983988
 20
-640.1329978105289
 10
153.2568813317322
 20
-640.1329978105289
 10
153.2568813317322
 20
-687.1329884021154
  0
SPLINE
  5
2BC
330
66
100
AcDbEntity
  8
studio
  6
Continuous
 62
     7
370
     9
100
AcDbSpline
210
0.0
220
0.0
230
1.0
 70
     8
 71
     2
 72
     8
 73
     5
 74
     0
 42
0.000000001
 43
0.0000000000001
 40
0.0
 40
0.0
 40
0.0
 40
1.0
 40
2.0
 40
3.0
 40
3.0
 40
3.0
 10
106.2568907401229
 20
-640.1329978105238
 30
0.0
 10
106.2568813317405
 20
-652.726610469943
 30
0.0
 10
118.8504885592312
 20
-674.5393905830337
 30
0.0
 10
140.6632686723212
 20
-687.1329978105235
 30
0.0
 10
153.2568813317402
 20
-687.1329884021409
 30
0.0
  0
ENDBLK
  5
68
330
66
100
AcDbEntity
  8
0
100
AcDbBlockEnd
  0
BLOCK
  5
6A
330
69
100
AcDbEntity
  8
0
100
AcDbBlockBegin
  2
Group-13-1
 70
     0
 10
0.0
 20
0.0
 30
0.0
  3
Group-13-1
  1

  0
LWPOLYLINE
  5
2BD
330
69
100
AcDbEntity
  8
studio
  6
Continuous
 62
     7
370
     9
100
AcDbPolyline
 90
        4
 70
     0
 43
0.0
 10
151.2985831109213
 20
-781.6479524624589
 10
151.2985831109213
 20
-828.6479430540445
 10
153.2569164442547
 20
-828.6479430540445
 10
153.2569164442547
 20
-781.6479524624589
  0
SPLINE
  5
2BE
330
69
100
AcDbEntity
  8
studio
  6
Continuous
 62
     7
370
     9
100
AcDbSpline
210
0.0
220
0.0
230
1.0
 70
     8
 71
     2
 72
     8
 73
     5
 74
     0
 42
0.000000001
 43
0.0000000000001
 40
0.0
 40
0.0
 40
0.0
 40
1.0
 40
2.0
 40
3.0
 40
3.0
 40
3.0
 10
106.2569258526454
 20
-828.6479430540503
 30
0.0
 10
106.256916444263
 20
-816.0543303946304
 30
0.0
 10
118.8505236717537
 20
-794.2415502815401
 30
0.0
 10
140.6633037848437
 20
-781.6479430540502
 30
0.0
 10
153.2569164442627
 20
-781.6479524624334
 30
0.0
  0
ENDBLK
  5
6B
330
69
100
AcDbEntity
  8
0
100
AcDbBlockEnd
  0
BLOCK
  5
6D
330
6C
100
AcDbEntity
  8
0
100
AcDbBlockBegin
  2
Group-14-1
 70
     0
 10
0.0
 20
0.0
 30
0.0
  3
Group-14-1
  1

  0
LINE
  5
2BF
330
6C
100
AcDbEntity
  8
None
  6
Dash Style-6
 62
     7
370
     9
100
AcDbLine
 10
166.1387088979108
 20
585.3123891481761
 30
0.0
 11
-6.662072734871879
 21
585.3123891481761
 31
0.0
  0
LINE
  5
2C0
330
6C
100
AcDbEntity
  8
None
  6
Dash Style-6
 62
     7
370
     9
100
AcDbLine
 10
166.1387088979108
 20
505.3123891481761
 30
0.0
 11
-6.662072734871879
 21
505.3123891481761
 31
0.0
  0
LINE
  5
2C1
330
6C
100
AcDbEntity
  8
None
  6
Dash Style-6
 62
     7
370
     9
100
AcDbLine
 10
166.1387088979108
 20
425.3123891481761
 30
0.0
 11
-6.662072734871879
 21
425.3123891481761
 31
0.0
  0
LINE
  5
2C2
330
6C
100
AcDbEntity
  8
None
  6
Dash Style-6
 62
     7
370
     9
100
AcDbLine
 10
166.1387088979108
 20
345.3123891481761
 30
0.0
 11
-6.662072734871879
 21
345.3123891481761
 31
0.0
  0
LINE
  5
2C3
330
6C
100
AcDbEntity
  8
None
  6
Dash Style-6
 62
     7
370
     9
100
AcDbLine
 10
166.1387088979108
 20
265.312389148176
 30
0.0
 11
-6.662072734871879
 21
265.312389148176
 31
0.0
  0
LINE
  5
2C4
330
6C
100
AcDbEntity
  8
None
  6
Dash Style-6
 62
     7
370
     9
100
AcDbLine
 10
166.1387088979108
 20
185.312389148176
 30
0.0
 11
-6.662072734871879
 21
185.312389148176
 31
0.0
  0
LINE
  5
2C5
330
6C
100
AcDbEntity
  8
None
  6
Dash Style-6
 62
     7
370
     9
100
AcDbLine
 10
166.1387088979108
 20
105.3123891481759
 30
0.0
 11
-6.662072734871879
 21
105.3123891481759
 31
0.0
  0
LINE
  5
2C6
330
6C
100
AcDbEntity
  8
None
  6
Dash Style-6
 62
     7
370
     9
100
AcDbLine
 10
166.1387088979108
 20
25.31238914817594
 30
0.0
 11
-6.662072734871879
 21
25.31238914817594
 31
0.0
  0
LINE
  5
2C7
330
6C
100
AcDbEntity
  8
None
  6
Dash Style-6
 62
     7
370
     9
100
AcDbLine
 10
166.1387088979108
 20
-54.68761085182405
 30
0.0
 11
-6.662072734871879
 21
-54.68761085182405
 31
0.0
  0
LINE
  5
2C8
330
6C
100
AcDbEntity
  8
None
  6
Dash Style-6
 62
     7
370
     9
100
AcDbLine
 10
166.1387088979108
 20
-134.6876108518241
 30
0.0
 11
-6.662072734871879
 21
-134.6876108518241
 31
0.0
  0
LINE
  5
2C9
330
6C
100
AcDbEntity
  8
None
  6
Dash Style-6
 62
     7
370
     9
100
AcDbLine
 10
166.1387088979108
 20
-214.687610851824
 30
0.0
 11
-6.662072734871879
 21
-214.687610851824
 31
0.0
  0
LINE
  5
2CA
330
6C
100
AcDbEntity
  8
None
  6
Dash Style-6
 62
     7
370
     9
100
AcDbLine
 10
166.1387088979108
 20
-374.6876108518242
 30
0.0
 11
-6.662072734871879
 21
-374.6876108518242
 31
0.0
  0
LINE
  5
2CB
330
6C
100
AcDbEntity
  8
None
  6
Dash Style-6
 62
     7
370
     9
100
AcDbLine
 10
166.1387088979108
 20
-454.6876108518242
 30
0.0
 11
-6.662072734871879
 21
-454.6876108518242
 31
0.0
  0
LINE
  5
2CC
330
6C
100
AcDbEntity
  8
None
  6
Dash Style-6
 62
     7
370
     9
100
AcDbLine
 10
166.1387088979108
 20
-534.687610851824
 30
0.0
 11
-6.662072734871879
 21
-534.687610851824
 31
0.0
  0
LINE
  5
2CD
330
6C
100
AcDbEntity
  8
None
  6
Dash Style-6
 62
     7
370
     9
100
AcDbLine
 10
166.1387088979108
 20
-614.6876108518242
 30
0.0
 11
-6.662072734871879
 21
-614.6876108518242
 31
0.0
  0
LINE
  5
2CE
330
6C
100
AcDbEntity
  8
None
  6
Dash Style-6
 62
     7
370
     9
100
AcDbLine
 10
166.1387088979108
 20
-694.6876108518239
 30
0.0
 11
-6.662072734871879
 21
-694.6876108518239
 31
0.0
  0
LINE
  5
2CF
330
6C
100
AcDbEntity
  8
None
  6
Dash Style-6
 62
     7
370
     9
100
AcDbLine
 10
166.1387088979108
 20
-294.687610851824
 30
0.0
 11
-6.662072734871879
 21
-294.687610851824
 31
0.0
  0
ENDBLK
  5
6E
330
6C
100
AcDbEntity
  8
0
100
AcDbBlockEnd
  0
BLOCK
  5
70
330
6F
100
AcDbEntity
  8
0
100
AcDbBlockBegin
  2
Group-15-1
 70
     0
 10
0.0
 20
0.0
 30
0.0
  3
Group-15-1
  1

  0
LINE
  5
2D0
330
6F
100
AcDbEntity
  8
None
  6
Dash Style-6
 62
     7
370
     9
100
AcDbLine
 10
-962.0605094693062
 20
585.3123891481761
 30
0.0
 11
-1134.861291102089
 21
585.3123891481761
 31
0.0
  0
LINE
  5
2D1
330
6F
100
AcDbEntity
  8
None
  6
Dash Style-6
 62
     7
370
     9
100
AcDbLine
 10
-962.0605094693062
 20
505.3123891481761
 30
0.0
 11
-1134.861291102089
 21
505.3123891481761
 31
0.0
  0
LINE
  5
2D2
330
6F
100
AcDbEntity
  8
None
  6
Dash Style-6
 62
     7
370
     9
100
AcDbLine
 10
-962.0605094693062
 20
425.3123891481761
 30
0.0
 11
-1134.861291102089
 21
425.3123891481761
 31
0.0
  0
LINE
  5
2D3
330
6F
100
AcDbEntity
  8
None
  6
Dash Style-6
 62
     7
370
     9
100
AcDbLine
 10
-962.0605094693062
 20
345.3123891481761
 30
0.0
 11
-1134.861291102089
 21
345.3123891481761
 31
0.0
  0
LINE
  5
2D4
330
6F
100
AcDbEntity
  8
None
  6
Dash Style-6
 62
     7
370
     9
100
AcDbLine
 10
-962.0605094693062
 20
265.312389148176
 30
0.0
 11
-1134.861291102089
 21
265.312389148176
 31
0.0
  0
LINE
  5
2D5
330
6F
100
AcDbEntity
  8
None
  6
Dash Style-6
 62
     7
370
     9
100
AcDbLine
 10
-962.0605094693062
 20
185.312389148176
 30
0.0
 11
-1134.861291102089
 21
185.312389148176
 31
0.0
  0
LINE
  5
2D6
330
6F
100
AcDbEntity
  8
None
  6
Dash Style-6
 62
     7
370
     9
100
AcDbLine
 10
-962.0605094693062
 20
105.3123891481759
 30
0.0
 11
-1134.861291102089
 21
105.3123891481759
 31
0.0
  0
LINE
  5
2D7
330
6F
100
AcDbEntity
  8
None
  6
Dash Style-6
 62
     7
370
     9
100
AcDbLine
 10
-962.0605094693062
 20
25.31238914817594
 30
0.0
 11
-1134.861291102089
 21
25.31238914817594
 31
0.0
  0
LINE
  5
2D8
330
6F
100
AcDbEntity
  8
None
  6
Dash Style-6
 62
     7
370
     9
100
AcDbLine
 10
-962.0605094693062
 20
-54.68761085182405
 30
0.0
 11
-1134.861291102089
 21
-54.68761085182405
 31
0.0
  0
LINE
  5
2D9
330
6F
100
AcDbEntity
  8
None
  6
Dash Style-6
 62
     7
370
     9
100
AcDbLine
 10
-962.0605094693062
 20
-134.6876108518241
 30
0.0
 11
-1134.861291102089
 21
-134.6876108518241
 31
0.0
  0
LINE
  5
2DA
330
6F
100
AcDbEntity
  8
None
  6
Dash Style-6
 62
     7
370
     9
100
AcDbLine
 10
-962.0605094693062
 20
-214.687610851824
 30
0.0
 11
-1134.861291102089
 21
-214.687610851824
 31
0.0
  0
LINE
  5
2DB
330
6F
100
AcDbEntity
  8
None
  6
Dash Style-6
 62
     7
370
     9
100
AcDbLine
 10
-962.0605094693062
 20
-374.6876108518242
 30
0.0
 11
-1134.861291102089
 21
-374.6876108518242
 31
0.0
  0
LINE
  5
2DC
330
6F
100
AcDbEntity
  8
None
  6
Dash Style-6
 62
     7
370
     9
100
AcDbLine
 10
-962.0605094693062
 20
-454.6876108518242
 30
0.0
 11
-1134.861291102089
 21
-454.6876108518242
 31
0.0
  0
LINE
  5
2DD
330
6F
100
AcDbEntity
  8
None
  6
Dash Style-6
 62
     7
370
     9
100
AcDbLine
 10
-962.0605094693062
 20
-534.687610851824
 30
0.0
 11
-1134.861291102089
 21
-534.687610851824
 31
0.0
  0
LINE
  5
2DE
330
6F
100
AcDbEntity
  8
None
  6
Dash Style-6
 62
     7
370
     9
100
AcDbLine
 10
-962.0605094693062
 20
-614.6876108518242
 30
0.0
 11
-1134.861291102089
 21
-614.6876108518242
 31
0.0
  0
LINE
  5
2DF
330
6F
100
AcDbEntity
  8
None
  6
Dash Style-6
 62
     7
370
     9
100
AcDbLine
 10
-962.0605094693062
 20
-694.6876108518239
 30
0.0
 11
-1134.861291102089
 21
-694.6876108518239
 31
0.0
  0
LINE
  5
2E0
330
6F
100
AcDbEntity
  8
None
  6
Dash Style-6
 62
     7
370
     9
100
AcDbLine
 10
-962.0605094693062
 20
-294.687610851824
 30
0.0
 11
-1134.861291102089
 21
-294.687610851824
 31
0.0
  0
ENDBLK
  5
71
330
6F
100
AcDbEntity
  8
0
100
AcDbBlockEnd
  0
BLOCK
  5
73
330
72
100
AcDbEntity
  8
0
100
AcDbBlockBegin
  2
Group-16-1
 70
     0
 10
0.0
 20
0.0
 30
0.0
  3
Group-16-1
  1

  0
LWPOLYLINE
  5
2E1
330
72
100
AcDbEntity
  8
studio
  6
Continuous
 62
     7
370
     9
100
AcDbPolyline
 90
        4
 70
     0
 43
0.0
 10
230.1386643769762
 20
-716.4870342284361
 10
183.1386737853896
 20
-716.4870342284361
 10
183.1386737853896
 20
-714.5287008951026
 10
230.1386643769762
 20
-714.5287008951026
  0
SPLINE
  5
2E2
330
72
100
AcDbEntity
  8
studio
  6
Continuous
 62
     7
370
     9
100
AcDbSpline
210
0.0
220
0.0
230
1.0
 70
     8
 71
     2
 72
     8
 73
     5
 74
     0
 42
0.000000001
 43
0.0000000000001
 40
0.0
 40
0.0
 40
0.0
 40
1.0
 40
2.0
 40
3.0
 40
3.0
 40
3.0
 10
183.1386737853845
 20
-761.5286914867118
 30
0.0
 10
195.7322864448038
 20
-761.5287008950942
 30
0.0
 10
217.5450665578944
 20
-748.9350936676037
 30
0.0
 10
230.1386737853843
 20
-727.1223135545137
 30
0.0
 10
230.1386643770016
 20
-714.5287008950946
 30
0.0
  0
ENDBLK
  5
74
330
72
100
AcDbEntity
  8
0
100
AcDbBlockEnd
  0
BLOCK
  5
76
330
75
100
AcDbEntity
  8
0
100
AcDbBlockBegin
  2
Group-17-1
 70
     0
 10
0.0
 20
0.0
 30
0.0
  3
Group-17-1
  1

  0
POLYLINE
  5
2E3
102
{ACAD_REACTORS
330
2F9
102
}
330
75
100
AcDbEntity
  8
Layer0
  6
Continuous
 62
     7
370
    15
100
AcDb2dPolyline
 66
     1
 10
0.0
 20
0.0
 30
0.0
 70
     1
  0
VERTEX
  5
2E4
330
2E3
100
AcDbEntity
  8
Layer0
  6
Continuous
 62
     7
370
    15
100
AcDbVertex
100
AcDb2dVertex
 10
80.51260189261113
 20
-633.1634309612238
 30
0.0
  0
VERTEX
  5
2E5
330
2E3
100
AcDbEntity
  8
Layer0
  6
Continuous
 62
     7
370
    15
100
AcDbVertex
100
AcDb2dVertex
 10
106.4342913548844
 20
-633.1634309612238
 30
0.0
  0
VERTEX
  5
2E6
330
2E3
100
AcDbEntity
  8
Layer0
  6
Continuous
 62
     7
370
    15
100
AcDbVertex
100
AcDb2dVertex
 10
106.4342913548844
 20
-640.1329978105238
 30
0.0
  0
VERTEX
  5
2E7
330
2E3
100
AcDbEntity
  8
Layer0
  6
Continuous
 62
     7
370
    15
100
AcDbVertex
100
AcDb2dVertex
 10
87.48216874181092
 20
-640.1329978105238
 30
0.0
  0
VERTEX
  5
2E8
330
2E3
100
AcDbEntity
  8
Layer0
  6
Continuous
 62
     7
370
    15
100
AcDbVertex
100
AcDb2dVertex
 10
87.48216874181092
 20
-828.7180440026234
 30
0.0
  0
VERTEX
  5
2E9
330
2E3
100
AcDbEntity
  8
Layer0
  6
Continuous
 62
     7
370
    15
100
AcDbVertex
100
AcDb2dVertex
 10
106.581314885234
 20
-828.7180440026234
 30
0.0
  0
VERTEX
  5
2EA
330
2E3
100
AcDbEntity
  8
Layer0
  6
Continuous
 62
     7
370
    15
100
AcDbVertex
100
AcDb2dVertex
 10
106.581314885234
 20
-835.6876108518238
 30
0.0
  0
VERTEX
  5
2EB
330
2E3
100
AcDbEntity
  8
Layer0
  6
Continuous
 62
     7
370
    15
100
AcDbVertex
100
AcDb2dVertex
 10
80.51260189261113
 20
-835.6876108518238
 30
0.0
  0
VERTEX
  5
2EC
330
2E3
100
AcDbEntity
  8
Layer0
  6
Continuous
 62
     7
370
    15
100
AcDbVertex
100
AcDb2dVertex
 10
80.51260189261113
 20
-751.6876108518238
 30
0.0
  0
VERTEX
  5
2ED
330
2E3
100
AcDbEntity
  8
Layer0
  6
Continuous
 62
     7
370
    15
100
AcDbVertex
100
AcDb2dVertex
 10
-1067.804729042589
 20
-751.6876108518238
 30
0.0
  0
VERTEX
  5
2EE
330
2E3
100
AcDbEntity
  8
Layer0
  6
Continuous
 62
     7
370
    15
100
AcDbVertex
100
AcDb2dVertex
 10
-1067.804729042589
 20
-808.0018445463476
 30
0.0
  0
VERTEX
  5
2EF
330
2E3
100
AcDbEntity
  8
Layer0
  6
Continuous
 62
     7
370
    15
100
AcDbVertex
100
AcDb2dVertex
 10
-1085.187831547767
 20
-808.0018445463476
 30
0.0
  0
VERTEX
  5
2F0
330
2E3
100
AcDbEntity
  8
Layer0
  6
Continuous
 62
     7
370
    15
100
AcDbVertex
100
AcDb2dVertex
 10
-1085.187831547767
 20
-800.2808518534479
 30
0.0
  0
VERTEX
  5
2F1
330
2E3
100
AcDbEntity
  8
Layer0
  6
Continuous
 62
     7
370
    15
100
AcDbVertex
100
AcDb2dVertex
 10
-1075.268355312389
 20
-800.2808518534479
 30
0.0
  0
VERTEX
  5
2F2
330
2E3
100
AcDbEntity
  8
Layer0
  6
Continuous
 62
     7
370
    15
100
AcDbVertex
100
AcDb2dVertex
 10
-1075.268355312389
 20
-682.0158291212235
 30
0.0
  0
VERTEX
  5
2F3
330
2E3
100
AcDbEntity
  8
Layer0
  6
Continuous
 62
     7
370
    15
100
AcDbVertex
100
AcDb2dVertex
 10
-1084.930465124666
 20
-682.0158291212235
 30
0.0
  0
VERTEX
  5
2F4
330
2E3
100
AcDbEntity
  8
Layer0
  6
Continuous
 62
     7
370
    15
100
AcDbVertex
100
AcDb2dVertex
 10
-1084.930465124666
 20
-674.6359739820234
 30
0.0
  0
VERTEX
  5
2F5
330
2E3
100
AcDbEntity
  8
Layer0
  6
Continuous
 62
     7
370
    15
100
AcDbVertex
100
AcDb2dVertex
 10
-1067.804729042589
 20
-674.6359739820234
 30
0.0
  0
VERTEX
  5
2F6
330
2E3
100
AcDbEntity
  8
Layer0
  6
Continuous
 62
     7
370
    15
100
AcDbVertex
100
AcDb2dVertex
 10
-1067.804729042589
 20
-734.6876108518239
 30
0.0
  0
VERTEX
  5
2F7
330
2E3
100
AcDbEntity
  8
Layer0
  6
Continuous
 62
     7
370
    15
100
AcDbVertex
100
AcDb2dVertex
 10
80.51260189261113
 20
-734.6876108518239
 30
0.0
  0
SEQEND
  5
2F8
330
2E3
100
AcDbEntity
  8
Layer0
  6
Continuous
 62
     7
370
    15
  0
HATCH
  5
2F9
330
75
100
AcDbEntity
  8
Layer0
  6
Continuous
 62
     7
370
     0
100
AcDbHatch
 10
0.0
 20
0.0
 30
0.0
210
0.0
220
0.0
230
1.0
  2
SOLID
 70
     1
 71
     1
 91
        1
 92
        1
 93
       20
 72
     1
 10
80.51260189261113
 20
-633.1634309612238
 11
106.4342913548844
 21
-633.1634309612238
 72
     1
 10
106.4342913548844
 20
-633.1634309612238
 11
106.4342913548844
 21
-640.1329978105238
 72
     1
 10
106.4342913548844
 20
-640.1329978105238
 11
87.48216874181092
 21
-640.1329978105238
 72
     1
 10
87.48216874181092
 20
-640.1329978105238
 11
87.48216874181092
 21
-828.7180440026234
 72
     1
 10
87.48216874181092
 20
-828.7180440026234
 11
106.581314885234
 21
-828.7180440026234
 72
     1
 10
106.581314885234
 20
-828.7180440026234
 11
106.581314885234
 21
-835.6876108518238
 72
     1
 10
106.581314885234
 20
-835.6876108518238
 11
80.51260189261113
 21
-835.6876108518238
 72
     1
 10
80.51260189261113
 20
-835.6876108518238
 11
80.51260189261113
 21
-751.6876108518238
 72
     1
 10
80.51260189261113
 20
-751.6876108518238
 11
-1067.804729042589
 21
-751.6876108518238
 72
     1
 10
-1067.804729042589
 20
-751.6876108518238
 11
-1067.804729042589
 21
-808.0018445463476
 72
     1
 10
-1067.804729042589
 20
-808.0018445463476
 11
-1085.187831547767
 21
-808.0018445463476
 72
     1
 10
-1085.187831547767
 20
-808.0018445463476
 11
-1085.187831547767
 21
-800.2808518534479
 72
     1
 10
-1085.187831547767
 20
-800.2808518534479
 11
-1075.268355312389
 21
-800.2808518534479
 72
     1
 10
-1075.268355312389
 20
-800.2808518534479
 11
-1075.268355312389
 21
-682.0158291212235
 72
     1
 10
-1075.268355312389
 20
-682.0158291212235
 11
-1084.930465124666
 21
-682.0158291212235
 72
     1
 10
-1084.930465124666
 20
-682.0158291212235
 11
-1084.930465124666
 21
-674.6359739820234
 72
     1
 10
-1084.930465124666
 20
-674.6359739820234
 11
-1067.804729042589
 21
-674.6359739820234
 72
     1
 10
-1067.804729042589
 20
-674.6359739820234
 11
-1067.804729042589
 21
-734.6876108518239
 72
     1
 10
-1067.804729042589
 20
-734.6876108518239
 11
80.5126018926112
 21
-734.6876108518239
 72
     1
 10
80.51260189261113
 20
-734.6876108518239
 11
80.51260189261113
 21
-633.1634309612238
 97
        1
330
2E3
 75
     0
 76
     1
 98
        1
 10
0.0
 20
0.0
  0
POLYLINE
  5
2FA
102
{ACAD_REACTORS
330
305
102
}
330
75
100
AcDbEntity
  8
Layer0
  6
Continuous
 62
     7
370
    15
100
AcDb2dPolyline
 66
     1
 10
0.0
 20
0.0
 30
0.0
 70
     1
  0
VERTEX
  5
2FB
330
2FA
100
AcDbEntity
  8
Layer0
  6
Continuous
 62
     7
370
    15
100
AcDbVertex
100
AcDb2dVertex
 10
-578.2149922347892
 20
748.7736153489761
 30
0.0
  0
VERTEX
  5
2FC
330
2FA
100
AcDbEntity
  8
Layer0
  6
Continuous
 62
     7
370
    15
100
AcDbVertex
100
AcDb2dVertex
 10
-578.2149922347892
 20
755.773615348976
 30
0.0
  0
VERTEX
  5
2FD
330
2FA
100
AcDbEntity
  8
Layer0
  6
Continuous
 62
     7
370
    15
100
AcDbVertex
100
AcDb2dVertex
 10
-581.2149922347892
 20
755.773615348976
 30
0.0
  0
VERTEX
  5
2FE
330
2FA
100
AcDbEntity
  8
Layer0
  6
Continuous
 62
     7
370
    15
100
AcDbVertex
100
AcDb2dVertex
 10
-581.2149922347892
 20
760.773615348976
 30
0.0
  0
VERTEX
  5
2FF
330
2FA
100
AcDbEntity
  8
Layer0
  6
Continuous
 62
     7
370
    15
100
AcDbVertex
100
AcDb2dVertex
 10
-578.2149922347892
 20
760.773615348976
 30
0.0
  0
VERTEX
  5
300
330
2FA
100
AcDbEntity
  8
Layer0
  6
Continuous
 62
     7
370
    15
100
AcDbVertex
100
AcDb2dVertex
 10
-578.2149922347892
 20
765.7736153489763
 30
0.0
  0
VERTEX
  5
301
330
2FA
100
AcDbEntity
  8
Layer0
  6
Continuous
 62
     7
370
    15
100
AcDbVertex
100
AcDb2dVertex
 10
-584.214992234789
 20
765.7736153489763
 30
0.0
  0
VERTEX
  5
302
330
2FA
100
AcDbEntity
  8
Layer0
  6
Continuous
 62
     7
370
    15
100
AcDbVertex
100
AcDb2dVertex
 10
-599.2149922347892
 20
765.7736153489763
 30
0.0
  0
VERTEX
  5
303
330
2FA
100
AcDbEntity
  8
Layer0
  6
Continuous
 62
     7
370
    15
100
AcDbVertex
100
AcDb2dVertex
 10
-599.2149922347892
 20
748.7736153489761
 30
0.0
  0
SEQEND
  5
304
330
2FA
100
AcDbEntity
  8
Layer0
  6
Continuous
 62
     7
370
    15
  0
HATCH
  5
305
330
75
100
AcDbEntity
  8
Layer0
  6
Continuous
 62
     7
370
     0
100
AcDbHatch
 10
0.0
 20
0.0
 30
0.0
210
0.0
220
0.0
230
1.0
  2
SOLID
 70
     1
 71
     1
 91
        1
 92
        1
 93
        9
 72
     1
 10
-578.2149922347892
 20
748.7736153489761
 11
-578.2149922347892
 21
755.773615348976
 72
     1
 10
-578.2149922347892
 20
755.773615348976
 11
-581.2149922347892
 21
755.773615348976
 72
     1
 10
-581.2149922347892
 20
755.773615348976
 11
-581.2149922347892
 21
760.773615348976
 72
     1
 10
-581.2149922347892
 20
760.773615348976
 11
-578.2149922347892
 21
760.773615348976
 72
     1
 10
-578.2149922347892
 20
760.773615348976
 11
-578.2149922347892
 21
765.7736153489763
 72
     1
 10
-578.2149922347892
 20
765.7736153489763
 11
-584.214992234789
 21
765.7736153489763
 72
     1
 10
-584.214992234789
 20
765.7736153489763
 11
-599.2149922347892
 21
765.7736153489763
 72
     1
 10
-599.2149922347892
 20
765.7736153489763
 11
-599.2149922347892
 21
748.7736153489761
 72
     1
 10
-599.2149922347892
 20
748.7736153489761
 11
-578.2149922347892
 21
748.7736153489761
 97
        1
330
2FA
 75
     0
 76
     1
 98
        1
 10
0.0
 20
0.0
  0
POLYLINE
  5
306
102
{ACAD_REACTORS
330
31F
102
}
330
75
100
AcDbEntity
  8
0
  6
Continuous
 62
     7
370
    15
100
AcDb2dPolyline
 66
     1
 10
0.0
 20
0.0
 30
0.0
 70
     1
  0
VERTEX
  5
307
330
306
100
AcDbEntity
  8
0
  6
Continuous
 62
     7
370
    15
100
AcDbVertex
100
AcDb2dVertex
 10
160.5068544370372
 20
-640.1330087487231
 30
0.0
  0
VERTEX
  5
308
330
306
100
AcDbEntity
  8
0
  6
Continuous
 62
     7
370
    15
100
AcDbVertex
100
AcDb2dVertex
 10
166.1387088979108
 20
-640.1330087487231
 30
0.0
  0
VERTEX
  5
309
330
306
100
AcDbEntity
  8
0
  6
Continuous
 62
     7
370
    15
100
AcDbVertex
100
AcDb2dVertex
 10
166.1387088979108
 20
-714.5287360076236
 30
0.0
  0
VERTEX
  5
30A
330
306
100
AcDbEntity
  8
0
  6
Continuous
 62
     7
370
    15
100
AcDbVertex
100
AcDb2dVertex
 10
175.5974067647108
 20
-714.5287360076236
 30
0.0
  0
VERTEX
  5
30B
330
306
100
AcDbEntity
  8
0
  6
Continuous
 62
     7
370
    15
100
AcDbVertex
100
AcDb2dVertex
 10
183.1387088979108
 20
-714.5287360076234
 30
0.0
  0
VERTEX
  5
30C
330
306
100
AcDbEntity
  8
0
  6
Continuous
 62
     7
370
    15
100
AcDbVertex
100
AcDb2dVertex
 10
183.1387088979108
 20
644.3123891481756
 30
0.0
  0
VERTEX
  5
30D
330
306
100
AcDbEntity
  8
0
  6
Continuous
 62
     7
370
    15
100
AcDbVertex
100
AcDb2dVertex
 10
-409.6448805958887
 20
644.3123891481756
 30
0.0
  0
VERTEX
  5
30E
330
306
100
AcDbEntity
  8
0
  6
Continuous
 62
     7
370
    15
100
AcDbVertex
100
AcDb2dVertex
 10
-409.6448805958887
 20
765.7736153489763
 30
0.0
  0
VERTEX
  5
30F
330
306
100
AcDbEntity
  8
0
  6
Continuous
 62
     7
370
    15
100
AcDbVertex
100
AcDb2dVertex
 10
-432.2149922347892
 20
765.7736153489763
 30
0.0
  0
VERTEX
  5
310
330
306
100
AcDbEntity
  8
0
  6
Continuous
 62
     7
370
    15
100
AcDbVertex
100
AcDb2dVertex
 10
-432.2149922347892
 20
760.773615348976
 30
0.0
  0
VERTEX
  5
311
330
306
100
AcDbEntity
  8
0
  6
Continuous
 62
     7
370
    15
100
AcDbVertex
100
AcDb2dVertex
 10
-429.214992234789
 20
760.773615348976
 30
0.0
  0
VERTEX
  5
312
330
306
100
AcDbEntity
  8
0
  6
Continuous
 62
     7
370
    15
100
AcDbVertex
100
AcDb2dVertex
 10
-429.214992234789
 20
755.773615348976
 30
0.0
  0
VERTEX
  5
313
330
306
100
AcDbEntity
  8
0
  6
Continuous
 62
     7
370
    15
100
AcDbVertex
100
AcDb2dVertex
 10
-432.2149922347892
 20
755.773615348976
 30
0.0
  0
VERTEX
  5
314
330
306
100
AcDbEntity
  8
0
  6
Continuous
 62
     7
370
    15
100
AcDbVertex
100
AcDb2dVertex
 10
-432.2149922347892
 20
748.7819828067761
 30
0.0
  0
VERTEX
  5
315
330
306
100
AcDbEntity
  8
0
  6
Continuous
 62
     7
370
    15
100
AcDbVertex
100
AcDb2dVertex
 10
-419.6448805958887
 20
748.7819828067761
 30
0.0
  0
VERTEX
  5
316
330
306
100
AcDbEntity
  8
0
  6
Continuous
 62
     7
370
    15
100
AcDbVertex
100
AcDb2dVertex
 10
-419.6448805958887
 20
644.3123891481756
 30
0.0
  0
VERTEX
  5
317
330
306
100
AcDbEntity
  8
0
  6
Continuous
 62
     7
370
    15
100
AcDbVertex
100
AcDb2dVertex
 10
-432.2149922347892
 20
644.3123891481756
 30
0.0
  0
VERTEX
  5
318
330
306
100
AcDbEntity
  8
0
  6
Continuous
 62
     7
370
    15
100
AcDbVertex
100
AcDb2dVertex
 10
-432.2149922347892
 20
627.3123891481756
 30
0.0
  0
VERTEX
  5
319
330
306
100
AcDbEntity
  8
0
  6
Continuous
 62
     7
370
    15
100
AcDbVertex
100
AcDb2dVertex
 10
166.1387088979108
 20
627.3123891481756
 30
0.0
  0
VERTEX
  5
31A
330
306
100
AcDbEntity
  8
0
  6
Continuous
 62
     7
370
    15
100
AcDbVertex
100
AcDb2dVertex
 10
166.1387088979108
 20
-633.1634309612238
 30
0.0
  0
VERTEX
  5
31B
330
306
100
AcDbEntity
  8
0
  6
Continuous
 62
     7
370
    15
100
AcDbVertex
100
AcDb2dVertex
 10
153.2568544370371
 20
-633.1634578559248
 30
0.0
  0
VERTEX
  5
31C
330
306
100
AcDbEntity
  8
0
  6
Continuous
 62
     7
370
    15
100
AcDbVertex
100
AcDb2dVertex
 10
153.2568544370371
 20
-640.1330247052248
 30
0.0
  0
VERTEX
  5
31D
330
306
100
AcDbEntity
  8
0
  6
Continuous
 62
     7
370
    15
100
AcDbVertex
100
AcDb2dVertex
 10
160.5068544370372
 20
-640.1329978105238
 30
0.0
  0
SEQEND
  5
31E
330
306
100
AcDbEntity
  8
0
  6
Continuous
 62
     7
370
    15
  0
HATCH
  5
31F
330
75
100
AcDbEntity
  8
0
  6
Continuous
 62
     7
370
     0
100
AcDbHatch
 10
0.0
 20
0.0
 30
0.0
210
0.0
220
0.0
230
1.0
  2
SOLID
 70
     1
 71
     1
 91
        1
 92
        1
 93
       23
 72
     1
 10
160.5068544370372
 20
-640.1330087487231
 11
166.1387088979108
 21
-640.1330087487231
 72
     1
 10
166.1387088979108
 20
-640.1330087487231
 11
166.1387088979108
 21
-714.5287360076236
 72
     1
 10
166.1387088979108
 20
-714.5287360076236
 11
175.5974067647108
 21
-714.5287360076236
 72
     1
 10
175.5974067647108
 20
-714.5287360076236
 11
183.1387088979108
 21
-714.5287360076234
 72
     1
 10
183.1387088979108
 20
-714.5287360076234
 11
183.1387088979108
 21
644.3123891481757
 72
     1
 10
183.1387088979108
 20
644.3123891481756
 11
-409.6448805958887
 21
644.3123891481756
 72
     1
 10
-409.6448805958887
 20
644.3123891481756
 11
-409.6448805958887
 21
765.7736153489763
 72
     1
 10
-409.6448805958887
 20
765.7736153489763
 11
-432.2149922347892
 21
765.7736153489763
 72
     1
 10
-432.2149922347892
 20
765.7736153489763
 11
-432.2149922347892
 21
760.773615348976
 72
     1
 10
-432.2149922347892
 20
760.773615348976
 11
-429.214992234789
 21
760.773615348976
 72
     1
 10
-429.214992234789
 20
760.773615348976
 11
-429.214992234789
 21
755.773615348976
 72
     1
 10
-429.214992234789
 20
755.773615348976
 11
-432.2149922347892
 21
755.773615348976
 72
     1
 10
-432.2149922347892
 20
755.773615348976
 11
-432.2149922347892
 21
748.7819828067761
 72
     1
 10
-432.2149922347892
 20
748.7819828067761
 11
-419.6448805958887
 21
748.7819828067761
 72
     1
 10
-419.6448805958887
 20
748.7819828067761
 11
-419.6448805958887
 21
644.3123891481756
 72
     1
 10
-419.6448805958887
 20
644.3123891481756
 11
-432.2149922347892
 21
644.3123891481756
 72
     1
 10
-432.2149922347892
 20
644.3123891481756
 11
-432.2149922347892
 21
627.3123891481756
 72
     1
 10
-432.2149922347892
 20
627.3123891481756
 11
166.1387088979109
 21
627.3123891481756
 72
     1
 10
166.1387088979108
 20
627.3123891481756
 11
166.1387088979108
 21
-633.1634309612238
 72
     1
 10
166.1387088979108
 20
-633.1634309612238
 11
153.2568544370371
 21
-633.1634578559248
 72
     1
 10
153.2568544370371
 20
-633.1634578559248
 11
153.2568544370371
 21
-640.1330247052248
 72
     1
 10
153.2568544370371
 20
-640.1330247052248
 11
160.5068544370372
 21
-640.1329978105238
 72
     1
 10
160.5068544370372
 20
-640.1329978105238
 11
160.5068544370372
 21
-640.1330087487231
 97
        1
330
306
 75
     0
 76
     1
 98
        1
 10
0.0
 20
0.0
  0
LINE
  5
320
330
75
100
AcDbEntity
  8
FIXT
  6
Continuous
 62
     7
370
    15
100
AcDbLine
 10
-888.224685510289
 20
758.3318784565759
 30
0.0
 11
-888.224685510289
 21
636.8460307077762
 31
0.0
  0
LINE
  5
321
330
75
100
AcDbEntity
  8
FIXT
  6
Continuous
 62
     7
370
    15
100
AcDbLine
 10
-878.6664224026889
 20
748.7736153489763
 30
0.0
 11
-878.6664224026889
 21
636.8460307077762
 31
0.0
  0
INSERT
  5
322
330
75
100
AcDbEntity
  8
FIXT
 62
     7
100
AcDbBlockReference
  2
Group-5-1
 10
0.0
 20
0.0
 30
0.0
  0
INSERT
  5
323
330
75
100
AcDbEntity
  8
FIXT
 62
     7
100
AcDbBlockReference
  2
Group-6-1
 10
0.0
 20
0.0
 30
0.0
  0
WIPEOUT
  5
324
330
75
100
AcDbEntity
  8
FIXT
  6
Continuous
 62
     7
370
    15
 92
      152
310
98000000040000000C0000000E000000B20000000C00000016000000000000C20C00000014000000010000006C0000000700000004000000D2F7C48BDE3582C0B8F11BEE9A8B83400000000000000000A3EF8917BDCB7AC0B8F11BEE9A8B83400000000000000000A3EF8917BDCB7AC0AFD1F5C5BC65834000000000000000
310
00D2F7C48BDE3582C0AFD1F5C5BC6583400000000000000000
100
AcDbWipeout
 90
        0
 10
-582.7336650264862
 20
620.7171744541755
 30
0.0
 11
154.0
 21
0.0
 31
0.0
 12
0.0
 22
154.0
 32
0.0
 13
1.0
 23
1.0
340
0
 70
     4
280
     1
281
    50
282
    50
283
     0
360
0
 71
     2
 91
        5
 14
-0.5000000000000009
 24
0.4692631492500015
 14
0.4999999999999996
 24
0.4692631492500015
 14
0.4999999999999996
 24
0.5
 14
-0.5000000000000009
 24
0.5
 14
-0.5000000000000009
 24
0.4692631492500015
  0
POLYLINE
  5
325
330
75
100
AcDbEntity
  8
FIXT
  6
Continuous
 62
     7
370
    15
100
AcDb2dPolyline
 66
     1
 10
0.0
 20
0.0
 30
0.0
 70
     1
  0
VERTEX
  5
326
330
325
100
AcDbEntity
  8
FIXT
  6
Continuous
 62
     7
370
    15
100
AcDbVertex
100
AcDb2dVertex
 10
-582.7336650264862
 20
625.4506494696752
 30
0.0
  0
VERTEX
  5
327
330
325
100
AcDbEntity
  8
FIXT
  6
Continuous
 62
     7
370
    15
100
AcDbVertex
100
AcDb2dVertex
 10
-428.7336650264862
 20
625.4506494696752
 30
0.0
  0
VERTEX
  5
328
330
325
100
AcDbEntity
  8
FIXT
  6
Continuous
 62
     7
370
    15
100
AcDbVertex
100
AcDb2dVertex
 10
-428.7336650264862
 20
620.7171744541755
 30
0.0
  0
VERTEX
  5
329
330
325
100
AcDbEntity
  8
FIXT
  6
Continuous
 62
     7
370
    15
100
AcDbVertex
100
AcDb2dVertex
 10
-582.7336650264862
 20
620.7171744541755
 30
0.0
  0
SEQEND
  5
32A
330
325
100
AcDbEntity
  8
FIXT
  6
Continuous
 62
     7
370
    15
  0
INSERT
  5
32B
330
75
100
AcDbEntity
  8
FIXT
 62
     7
100
AcDbBlockReference
  2
Group-7-1
 10
0.0
 20
0.0
 30
0.0
  0
INSERT
  5
32C
330
75
100
AcDbEntity
  8
FIXT
 62
     7
100
AcDbBlockReference
  2
Group-8-1
 10
0.0
 20
0.0
 30
0.0
  0
INSERT
  5
32D
330
75
100
AcDbEntity
  8
FIXT
 62
     7
100
AcDbBlockReference
  2
Group-9-1
 10
0.0
 20
0.0
 30
0.0
  0
INSERT
  5
32E
330
75
100
AcDbEntity
  8
FIXT
 62
     7
100
AcDbBlockReference
  2
Group-10-1
 10
0.0
 20
0.0
 30
0.0
  0
POLYLINE
  5
32F
102
{ACAD_REACTORS
330
351
102
}
330
75
100
AcDbEntity
  8
Layer0
  6
Continuous
 62
     7
370
    15
100
AcDb2dPolyline
 66
     1
 10
0.0
 20
0.0
 30
0.0
 70
     1
  0
VERTEX
  5
330
330
32F
100
AcDbEntity
  8
Layer0
  6
Continuous
 62
     7
370
    15
100
AcDbVertex
100
AcDb2dVertex
 10
-1134.861291102089
 20
-682.6143330980236
 30
0.0
  0
VERTEX
  5
331
330
32F
100
AcDbEntity
  8
Layer0
  6
Continuous
 62
     7
370
    15
100
AcDbVertex
100
AcDb2dVertex
 10
-1134.861291102089
 20
-724.3103008860235
 30
0.0
  0
VERTEX
  5
332
330
32F
100
AcDbEntity
  8
Layer0
  6
Continuous
 62
     7
370
    15
100
AcDbVertex
100
AcDb2dVertex
 10
-1151.861291102089
 20
-724.3103008860235
 30
0.0
  0
VERTEX
  5
333
330
32F
100
AcDbEntity
  8
Layer0
  6
Continuous
 62
     7
370
    15
100
AcDbVertex
100
AcDb2dVertex
 10
-1151.861291102089
 20
812.717174454176
 30
0.0
  0
VERTEX
  5
334
330
32F
100
AcDbEntity
  8
Layer0
  6
Continuous
 62
     7
370
    15
100
AcDbVertex
100
AcDb2dVertex
 10
-1082.109111724189
 20
812.717174454176
 30
0.0
  0
VERTEX
  5
335
330
32F
100
AcDbEntity
  8
Layer0
  6
Continuous
 62
     7
370
    15
100
AcDbVertex
100
AcDb2dVertex
 10
-1082.109111724189
 20
802.717174454176
 30
0.0
  0
VERTEX
  5
336
330
32F
100
AcDbEntity
  8
Layer0
  6
Continuous
 62
     7
370
    15
100
AcDbVertex
100
AcDb2dVertex
 10
-1141.861291102089
 20
802.717174454176
 30
0.0
  0
VERTEX
  5
337
330
32F
100
AcDbEntity
  8
Layer0
  6
Continuous
 62
     7
370
    15
100
AcDbVertex
100
AcDb2dVertex
 10
-1141.861291102089
 20
644.3123891481756
 30
0.0
  0
VERTEX
  5
338
330
32F
100
AcDbEntity
  8
Layer0
  6
Continuous
 62
     7
370
    15
100
AcDbVertex
100
AcDb2dVertex
 10
-888.6664224026889
 20
644.3123891481756
 30
0.0
  0
VERTEX
  5
339
330
32F
100
AcDbEntity
  8
Layer0
  6
Continuous
 62
     7
370
    15
100
AcDbVertex
100
AcDb2dVertex
 10
-888.6664224026889
 20
802.717174454176
 30
0.0
  0
VERTEX
  5
33A
330
32F
100
AcDbEntity
  8
Layer0
  6
Continuous
 62
     7
370
    15
100
AcDbVertex
100
AcDb2dVertex
 10
-1048.674220042489
 20
802.717174454176
 30
0.0
  0
VERTEX
  5
33B
330
32F
100
AcDbEntity
  8
Layer0
  6
Continuous
 62
     7
370
    15
100
AcDbVertex
100
AcDb2dVertex
 10
-1048.674220042489
 20
812.717174454176
 30
0.0
  0
VERTEX
  5
33C
330
32F
100
AcDbEntity
  8
Layer0
  6
Continuous
 62
     7
370
    15
100
AcDbVertex
100
AcDb2dVertex
 10
-878.6664224026889
 20
812.717174454176
 30
0.0
  0
VERTEX
  5
33D
330
32F
100
AcDbEntity
  8
Layer0
  6
Continuous
 62
     7
370
    15
100
AcDbVertex
100
AcDb2dVertex
 10
-878.6664224026889
 20
765.7736153489763
 30
0.0
  0
VERTEX
  5
33E
330
32F
100
AcDbEntity
  8
Layer0
  6
Continuous
 62
     7
370
    15
100
AcDbVertex
100
AcDb2dVertex
 10
-726.2663359695889
 20
765.7736153489763
 30
0.0
  0
VERTEX
  5
33F
330
32F
100
AcDbEntity
  8
Layer0
  6
Continuous
 62
     7
370
    15
100
AcDbVertex
100
AcDb2dVertex
 10
-726.2663359695889
 20
755.7736153489763
 30
0.0
  0
VERTEX
  5
340
330
32F
100
AcDbEntity
  8
Layer0
  6
Continuous
 62
     7
370
    15
100
AcDbVertex
100
AcDb2dVertex
 10
-878.6664224026889
 20
755.7736153489763
 30
0.0
  0
VERTEX
  5
341
330
32F
100
AcDbEntity
  8
Layer0
  6
Continuous
 62
     7
370
    15
100
AcDbVertex
100
AcDb2dVertex
 10
-878.6664224026889
 20
644.3123891481756
 30
0.0
  0
VERTEX
  5
342
330
32F
100
AcDbEntity
  8
Layer0
  6
Continuous
 62
     7
370
    15
100
AcDbVertex
100
AcDb2dVertex
 10
-670.6056041591897
 20
644.3123891481756
 30
0.0
  0
VERTEX
  5
343
330
32F
100
AcDbEntity
  8
Layer0
  6
Continuous
 62
     7
370
    15
100
AcDbVertex
100
AcDb2dVertex
 10
-670.6056041591897
 20
755.7736153489763
 30
0.0
  0
VERTEX
  5
344
330
32F
100
AcDbEntity
  8
Layer0
  6
Continuous
 62
     7
370
    15
100
AcDbVertex
100
AcDb2dVertex
 10
-690.5376863443155
 20
755.7736153489763
 30
0.0
  0
VERTEX
  5
345
330
32F
100
AcDbEntity
  8
Layer0
  6
Continuous
 62
     7
370
    15
100
AcDbVertex
100
AcDb2dVertex
 10
-690.5376863443155
 20
765.7736153489763
 30
0.0
  0
VERTEX
  5
346
330
32F
100
AcDbEntity
  8
Layer0
  6
Continuous
 62
     7
370
    15
100
AcDbVertex
100
AcDb2dVertex
 10
-635.2149922347892
 20
765.7736153489763
 30
0.0
  0
VERTEX
  5
347
330
32F
100
AcDbEntity
  8
Layer0
  6
Continuous
 62
     7
370
    15
100
AcDbVertex
100
AcDb2dVertex
 10
-635.2149922347892
 20
748.6748299286562
 30
0.0
  0
VERTEX
  5
348
330
32F
100
AcDbEntity
  8
Layer0
  6
Continuous
 62
     7
370
    15
100
AcDbVertex
100
AcDb2dVertex
 10
-660.6056041591897
 20
748.6748299286562
 30
0.0
  0
VERTEX
  5
349
330
32F
100
AcDbEntity
  8
Layer0
  6
Continuous
 62
     7
370
    15
100
AcDbVertex
100
AcDb2dVertex
 10
-660.6056041591897
 20
644.3123891481756
 30
0.0
  0
VERTEX
  5
34A
330
32F
100
AcDbEntity
  8
Layer0
  6
Continuous
 62
     7
370
    15
100
AcDbVertex
100
AcDb2dVertex
 10
-635.2149922347892
 20
644.3123891481756
 30
0.0
  0
VERTEX
  5
34B
330
32F
100
AcDbEntity
  8
Layer0
  6
Continuous
 62
     7
370
    15
100
AcDbVertex
100
AcDb2dVertex
 10
-635.2149922347892
 20
627.3123891481756
 30
0.0
  0
VERTEX
  5
34C
330
32F
100
AcDbEntity
  8
Layer0
  6
Continuous
 62
     7
370
    15
100
AcDbVertex
100
AcDb2dVertex
 10
-1134.861291102089
 20
627.3123891481756
 30
0.0
  0
VERTEX
  5
34D
330
32F
100
AcDbEntity
  8
Layer0
  6
Continuous
 62
     7
370
    15
100
AcDbVertex
100
AcDb2dVertex
 10
-1134.861291102089
 20
-674.6359739820234
 30
0.0
  0
VERTEX
  5
34E
330
32F
100
AcDbEntity
  8
Layer0
  6
Continuous
 62
     7
370
    15
100
AcDbVertex
100
AcDb2dVertex
 10
-1121.219130781266
 20
-674.6359739820234
 30
0.0
  0
VERTEX
  5
34F
330
32F
100
AcDbEntity
  8
Layer0
  6
Continuous
 62
     7
370
    15
100
AcDbVertex
100
AcDb2dVertex
 10
-1121.219130781266
 20
-682.6143330980236
 30
0.0
  0
SEQEND
  5
350
330
32F
100
AcDbEntity
  8
Layer0
  6
Continuous
 62
     7
370
    15
  0
HATCH
  5
351
330
75
100
AcDbEntity
  8
Layer0
  6
Continuous
 62
     7
370
     0
100
AcDbHatch
 10
0.0
 20
0.0
 30
0.0
210
0.0
220
0.0
230
1.0
  2
SOLID
 70
     1
 71
     1
 91
        1
 92
        1
 93
       32
 72
     1
 10
-1134.861291102089
 20
-682.6143330980236
 11
-1134.861291102089
 21
-724.3103008860235
 72
     1
 10
-1134.861291102089
 20
-724.3103008860235
 11
-1151.861291102089
 21
-724.3103008860235
 72
     1
 10
-1151.861291102089
 20
-724.3103008860235
 11
-1151.861291102089
 21
812.7171744541761
 72
     1
 10
-1151.861291102089
 20
812.717174454176
 11
-1082.109111724189
 21
812.717174454176
 72
     1
 10
-1082.109111724189
 20
812.717174454176
 11
-1082.109111724189
 21
802.717174454176
 72
     1
 10
-1082.109111724189
 20
802.717174454176
 11
-1141.861291102089
 21
802.717174454176
 72
     1
 10
-1141.861291102089
 20
802.717174454176
 11
-1141.861291102089
 21
644.3123891481756
 72
     1
 10
-1141.861291102089
 20
644.3123891481756
 11
-888.6664224026889
 21
644.3123891481756
 72
     1
 10
-888.6664224026889
 20
644.3123891481756
 11
-888.6664224026889
 21
802.717174454176
 72
     1
 10
-888.6664224026889
 20
802.717174454176
 11
-1048.674220042489
 21
802.717174454176
 72
     1
 10
-1048.674220042489
 20
802.717174454176
 11
-1048.674220042489
 21
812.717174454176
 72
     1
 10
-1048.674220042489
 20
812.717174454176
 11
-878.6664224026889
 21
812.717174454176
 72
     1
 10
-878.6664224026889
 20
812.717174454176
 11
-878.6664224026889
 21
765.7736153489763
 72
     1
 10
-878.6664224026889
 20
765.7736153489763
 11
-726.2663359695889
 21
765.7736153489763
 72
     1
 10
-726.2663359695889
 20
765.7736153489763
 11
-726.2663359695889
 21
755.7736153489763
 72
     1
 10
-726.2663359695889
 20
755.7736153489763
 11
-878.6664224026889
 21
755.7736153489763
 72
     1
 10
-878.6664224026889
 20
755.7736153489763
 11
-878.6664224026889
 21
644.3123891481756
 72
     1
 10
-878.6664224026889
 20
644.3123891481756
 11
-670.6056041591897
 21
644.3123891481756
 72
     1
 10
-670.6056041591897
 20
644.3123891481756
 11
-670.6056041591897
 21
755.7736153489763
 72
     1
 10
-670.6056041591897
 20
755.7736153489763
 11
-690.5376863443155
 21
755.7736153489763
 72
     1
 10
-690.5376863443155
 20
755.7736153489763
 11
-690.5376863443155
 21
765.7736153489763
 72
     1
 10
-690.5376863443155
 20
765.7736153489763
 11
-635.2149922347892
 21
765.7736153489763
 72
     1
 10
-635.2149922347892
 20
765.7736153489763
 11
-635.2149922347892
 21
748.6748299286562
 72
     1
 10
-635.2149922347892
 20
748.6748299286562
 11
-660.6056041591897
 21
748.6748299286562
 72
     1
 10
-660.6056041591897
 20
748.6748299286562
 11
-660.6056041591897
 21
644.3123891481756
 72
     1
 10
-660.6056041591897
 20
644.3123891481756
 11
-635.2149922347892
 21
644.3123891481756
 72
     1
 10
-635.2149922347892
 20
644.3123891481756
 11
-635.2149922347892
 21
627.3123891481756
 72
     1
 10
-635.2149922347892
 20
627.3123891481756
 11
-1134.861291102089
 21
627.3123891481756
 72
     1
 10
-1134.861291102089
 20
627.3123891481756
 11
-1134.861291102089
 21
-674.6359739820235
 72
     1
 10
-1134.861291102089
 20
-674.6359739820234
 11
-1121.219130781266
 21
-674.6359739820234
 72
     1
 10
-1121.219130781266
 20
-674.6359739820234
 11
-1121.219130781266
 21
-682.6143330980236
 72
     1
 10
-1121.219130781266
 20
-682.6143330980236
 11
-1134.861291102089
 21
-682.6143330980236
 97
        1
330
32F
 75
     0
 76
     1
 98
        1
 10
0.0
 20
0.0
  0
POLYLINE
  5
352
102
{ACAD_REACTORS
330
359
102
}
330
75
100
AcDbEntity
  8
Layer0
  6
Continuous
 62
     7
370
    15
100
AcDb2dPolyline
 66
     1
 10
0.0
 20
0.0
 30
0.0
 70
     1
  0
VERTEX
  5
353
330
352
100
AcDbEntity
  8
Layer0
  6
Continuous
 62
     7
370
    15
100
AcDbVertex
100
AcDb2dVertex
 10
-578.2149922347892
 20
627.3123891481756
 30
0.0
  0
VERTEX
  5
354
330
352
100
AcDbEntity
  8
Layer0
  6
Continuous
 62
     7
370
    15
100
AcDbVertex
100
AcDb2dVertex
 10
-578.2149922347892
 20
644.3123891481756
 30
0.0
  0
VERTEX
  5
355
330
352
100
AcDbEntity
  8
Layer0
  6
Continuous
 62
     7
370
    15
100
AcDbVertex
100
AcDb2dVertex
 10
-584.214992234789
 20
644.3123891481756
 30
0.0
  0
VERTEX
  5
356
330
352
100
AcDbEntity
  8
Layer0
  6
Continuous
 62
     7
370
    15
100
AcDbVertex
100
AcDb2dVertex
 10
-599.2149922347892
 20
644.3123891481756
 30
0.0
  0
VERTEX
  5
357
330
352
100
AcDbEntity
  8
Layer0
  6
Continuous
 62
     7
370
    15
100
AcDbVertex
100
AcDb2dVertex
 10
-599.2149922347892
 20
627.3123891481756
 30
0.0
  0
SEQEND
  5
358
330
352
100
AcDbEntity
  8
Layer0
  6
Continuous
 62
     7
370
    15
  0
HATCH
  5
359
330
75
100
AcDbEntity
  8
Layer0
  6
Continuous
 62
     7
370
     0
100
AcDbHatch
 10
0.0
 20
0.0
 30
0.0
210
0.0
220
0.0
230
1.0
  2
SOLID
 70
     1
 71
     1
 91
        1
 92
        1
 93
        5
 72
     1
 10
-578.2149922347892
 20
627.3123891481756
 11
-578.2149922347892
 21
644.3123891481756
 72
     1
 10
-578.2149922347892
 20
644.3123891481756
 11
-584.214992234789
 21
644.3123891481756
 72
     1
 10
-584.214992234789
 20
644.3123891481756
 11
-599.2149922347892
 21
644.3123891481756
 72
     1
 10
-599.2149922347892
 20
644.3123891481756
 11
-599.2149922347892
 21
627.3123891481756
 72
     1
 10
-599.2149922347892
 20
627.3123891481756
 11
-578.2149922347892
 21
627.3123891481756
 97
        1
330
352
 75
     0
 76
     1
 98
        1
 10
0.0
 20
0.0
  0
POLYLINE
  5
35A
102
{ACAD_REACTORS
330
364
102
}
330
75
100
AcDbEntity
  8
Layer0
  6
Continuous
 62
     7
370
    15
100
AcDb2dPolyline
 66
     1
 10
0.0
 20
0.0
 30
0.0
 70
     1
  0
VERTEX
  5
35B
330
35A
100
AcDbEntity
  8
Layer0
  6
Continuous
 62
     7
370
    15
100
AcDbVertex
100
AcDb2dVertex
 10
-1134.861291102089
 20
-808.0018445463476
 30
0.0
  0
VERTEX
  5
35C
330
35A
100
AcDbEntity
  8
Layer0
  6
Continuous
 62
     7
370
    15
100
AcDbVertex
100
AcDb2dVertex
 10
-1121.187831547767
 20
-808.0018445463476
 30
0.0
  0
VERTEX
  5
35D
330
35A
100
AcDbEntity
  8
Layer0
  6
Continuous
 62
     7
370
    15
100
AcDbVertex
100
AcDb2dVertex
 10
-1121.187831547767
 20
-801.3103175458476
 30
0.0
  0
VERTEX
  5
35E
330
35A
100
AcDbEntity
  8
Layer0
  6
Continuous
 62
     7
370
    15
100
AcDbVertex
100
AcDb2dVertex
 10
-1134.861291102089
 20
-801.3103175458476
 30
0.0
  0
VERTEX
  5
35F
330
35A
100
AcDbEntity
  8
Layer0
  6
Continuous
 62
     7
370
    15
100
AcDbVertex
100
AcDb2dVertex
 10
-1134.861291102089
 20
-760.5720492988238
 30
0.0
  0
VERTEX
  5
360
330
35A
100
AcDbEntity
  8
Layer0
  6
Continuous
 62
     7
370
    15
100
AcDbVertex
100
AcDb2dVertex
 10
-1151.861291102089
 20
-760.5720492988238
 30
0.0
  0
VERTEX
  5
361
330
35A
100
AcDbEntity
  8
Layer0
  6
Continuous
 62
     7
370
    15
100
AcDbVertex
100
AcDb2dVertex
 10
-1151.861291102089
 20
-872.1031046793237
 30
0.0
  0
VERTEX
  5
362
330
35A
100
AcDbEntity
  8
Layer0
  6
Continuous
 62
     7
370
    15
100
AcDbVertex
100
AcDb2dVertex
 10
-1134.861291102089
 20
-872.1031046793237
 30
0.0
  0
SEQEND
  5
363
330
35A
100
AcDbEntity
  8
Layer0
  6
Continuous
 62
     7
370
    15
  0
HATCH
  5
364
330
75
100
AcDbEntity
  8
Layer0
  6
Continuous
 62
     7
370
     0
100
AcDbHatch
 10
0.0
 20
0.0
 30
0.0
210
0.0
220
0.0
230
1.0
  2
SOLID
 70
     1
 71
     1
 91
        1
 92
        1
 93
        8
 72
     1
 10
-1134.861291102089
 20
-808.0018445463476
 11
-1121.187831547767
 21
-808.0018445463476
 72
     1
 10
-1121.187831547767
 20
-808.0018445463476
 11
-1121.187831547767
 21
-801.3103175458476
 72
     1
 10
-1121.187831547767
 20
-801.3103175458476
 11
-1134.861291102089
 21
-801.3103175458476
 72
     1
 10
-1134.861291102089
 20
-801.3103175458476
 11
-1134.861291102089
 21
-760.5720492988238
 72
     1
 10
-1134.861291102089
 20
-760.5720492988238
 11
-1151.861291102089
 21
-760.5720492988238
 72
     1
 10
-1151.861291102089
 20
-760.5720492988238
 11
-1151.861291102089
 21
-872.1031046793237
 72
     1
 10
-1151.861291102089
 20
-872.1031046793237
 11
-1134.861291102089
 21
-872.1031046793237
 72
     1
 10
-1134.861291102089
 20
-872.1031046793237
 11
-1134.861291102089
 21
-808.0018445463476
 97
        1
330
35A
 75
     0
 76
     1
 98
        1
 10
0.0
 20
0.0
  0
POLYLINE
  5
365
102
{ACAD_REACTORS
330
36F
102
}
330
75
100
AcDbEntity
  8
Layer0
  6
Continuous
 62
     7
370
    15
100
AcDb2dPolyline
 66
     1
 10
0.0
 20
0.0
 30
0.0
 70
     1
  0
VERTEX
  5
366
330
365
100
AcDbEntity
  8
Layer0
  6
Continuous
 62
     7
370
    15
100
AcDbVertex
100
AcDb2dVertex
 10
153.2568813317339
 20
-835.6876108518238
 30
0.0
  0
VERTEX
  5
367
330
365
100
AcDbEntity
  8
Layer0
  6
Continuous
 62
     7
370
    15
100
AcDbVertex
100
AcDb2dVertex
 10
153.2568813317339
 20
-828.6479079415237
 30
0.0
  0
VERTEX
  5
368
330
365
100
AcDbEntity
  8
Layer0
  6
Continuous
 62
     7
370
    15
100
AcDbVertex
100
AcDb2dVertex
 10
166.1387088979108
 20
-828.6479079415237
 30
0.0
  0
VERTEX
  5
369
330
365
100
AcDbEntity
  8
Layer0
  6
Continuous
 62
     7
370
    15
100
AcDbVertex
100
AcDb2dVertex
 10
166.1387088979108
 20
-762.5097202671049
 30
0.0
  0
VERTEX
  5
36A
330
365
100
AcDbEntity
  8
Layer0
  6
Continuous
 62
     7
370
    15
100
AcDbVertex
100
AcDb2dVertex
 10
183.1387088979108
 20
-762.5097202671049
 30
0.0
  0
VERTEX
  5
36B
330
365
100
AcDbEntity
  8
Layer0
  6
Continuous
 62
     7
370
    15
100
AcDbVertex
100
AcDb2dVertex
 10
183.1387088979108
 20
-872.1031046793237
 30
0.0
  0
VERTEX
  5
36C
330
365
100
AcDbEntity
  8
Layer0
  6
Continuous
 62
     7
370
    15
100
AcDbVertex
100
AcDb2dVertex
 10
166.1387088979108
 20
-872.1031046793237
 30
0.0
  0
VERTEX
  5
36D
330
365
100
AcDbEntity
  8
Layer0
  6
Continuous
 62
     7
370
    15
100
AcDbVertex
100
AcDb2dVertex
 10
166.1387088979108
 20
-835.6876108518238
 30
0.0
  0
SEQEND
  5
36E
330
365
100
AcDbEntity
  8
Layer0
  6
Continuous
 62
     7
370
    15
  0
HATCH
  5
36F
330
75
100
AcDbEntity
  8
Layer0
  6
Continuous
 62
     7
370
     0
100
AcDbHatch
 10
0.0
 20
0.0
 30
0.0
210
0.0
220
0.0
230
1.0
  2
SOLID
 70
     1
 71
     1
 91
        1
 92
        1
 93
        8
 72
     1
 10
153.2568813317339
 20
-835.6876108518238
 11
153.2568813317339
 21
-828.6479079415237
 72
     1
 10
153.2568813317339
 20
-828.6479079415237
 11
166.1387088979108
 21
-828.6479079415237
 72
     1
 10
166.1387088979108
 20
-828.6479079415237
 11
166.1387088979108
 21
-762.5097202671049
 72
     1
 10
166.1387088979108
 20
-762.5097202671049
 11
183.1387088979108
 21
-762.5097202671049
 72
     1
 10
183.1387088979108
 20
-762.5097202671049
 11
183.1387088979108
 21
-872.1031046793237
 72
     1
 10
183.1387088979108
 20
-872.1031046793237
 11
166.1387088979108
 21
-872.1031046793237
 72
     1
 10
166.1387088979108
 20
-872.1031046793237
 11
166.1387088979108
 21
-835.6876108518238
 72
     1
 10
166.1387088979108
 20
-835.6876108518238
 11
153.2568813317339
 21
-835.6876108518238
 97
        1
330
365
 75
     0
 76
     1
 98
        1
 10
0.0
 20
0.0
  0
INSERT
  5
370
330
75
100
AcDbEntity
  8
FIXT
 62
     7
100
AcDbBlockReference
  2
Group-11-1
 10
0.0
 20
0.0
 30
0.0
  0
INSERT
  5
371
330
75
100
AcDbEntity
  8
None
 62
     7
100
AcDbBlockReference
  2
Group-12-1
 10
0.0
 20
0.0
 30
0.0
  0
INSERT
  5
372
330
75
100
AcDbEntity
  8
None
 62
     7
100
AcDbBlockReference
  2
Group-13-1
 10
0.0
 20
0.0
 30
0.0
  0
WIPEOUT
  5
373
330
75
100
AcDbEntity
  8
None
  6
Continuous
 62
     7
370
     9
 92
      152
310
98000000040000000C0000000E000000B20000000C00000016000000000000C20C00000014000000010000006C0000000700000004000000824AD94DB86985C053B8E1C57F9A83400000000000000000824AD94DB86985C057B8E1C57FDA82400000000000000000834AD94DB85987C057B8E1C57FDA824000000000000000
310
00834AD94DB85987C053B8E1C57F9A83400000000000000000
100
AcDbWipeout
 90
        0
 10
-747.2149922347892
 20
603.3123891481762
 30
0.0
 11
62.00000000000011
 21
0.0
 31
0.0
 12
0.0
 22
62.00000000000011
 32
0.0
 13
1.0
 23
1.0
340
0
 70
     4
280
     1
281
    50
282
    50
283
     0
360
0
 71
     2
 91
        5
 14
0.4999999999999982
 24
0.1129032258064573
 14
0.4999999999999982
 24
0.4999999999999964
 14
-0.5000000000000018
 24
0.4999999999999964
 14
-0.5000000000000018
 24
0.1129032258064573
 14
0.4999999999999982
 24
0.1129032258064573
  0
POLYLINE
  5
374
330
75
100
AcDbEntity
  8
None
  6
Continuous
 62
     7
370
     9
100
AcDb2dPolyline
 66
     1
 10
0.0
 20
0.0
 30
0.0
 70
     1
  0
VERTEX
  5
375
330
374
100
AcDbEntity
  8
None
  6
Continuous
 62
     7
370
     9
100
AcDbVertex
100
AcDb2dVertex
 10
-685.2149922347891
 20
627.3123891481756
 30
0.0
  0
VERTEX
  5
376
330
374
100
AcDbEntity
  8
None
  6
Continuous
 62
     7
370
     9
100
AcDbVertex
100
AcDb2dVertex
 10
-685.2149922347891
 20
603.3123891481762
 30
0.0
  0
VERTEX
  5
377
330
374
100
AcDbEntity
  8
None
  6
Continuous
 62
     7
370
     9
100
AcDbVertex
100
AcDb2dVertex
 10
-747.2149922347892
 20
603.3123891481762
 30
0.0
  0
VERTEX
  5
378
330
374
100
AcDbEntity
  8
None
  6
Continuous
 62
     7
370
     9
100
AcDbVertex
100
AcDb2dVertex
 10
-747.2149922347892
 20
627.3123891481756
 30
0.0
  0
SEQEND
  5
379
330
374
100
AcDbEntity
  8
None
  6
Continuous
 62
     7
370
     9
  0
INSERT
  5
37A
330
75
100
AcDbEntity
  8
None
 62
     7
100
AcDbBlockReference
  2
Group-14-1
 10
0.0
 20
0.0
 30
0.0
  0
INSERT
  5
37B
330
75
100
AcDbEntity
  8
None
 62
     7
100
AcDbBlockReference
  2
Group-15-1
 10
0.0
 20
0.0
 30
0.0
  0
INSERT
  5
37C
330
75
100
AcDbEntity
  8
None
 62
     7
100
AcDbBlockReference
  2
Group-16-1
 10
0.0
 20
0.0
 30
0.0
  0
WIPEOUT
  5
37D
330
75
100
AcDbEntity
  8
None
  6
Continuous
 62
     7
370
     9
 92
      152
310
98000000040000000C0000000E000000B20000000C00000016000000000000C20C00000014000000010000006C0000000700000004000000814AD94DB82182C0487C3E5D30BE874000000000000000000095B29B70E37AC0487C3E5D30BE874000000000000000000095B29B70E37AC04A7C3E5D30A6874000000000000000
310
00814AD94DB82182C04A7C3E5D30A687400000000000000000
100
AcDbWipeout
 90
        0
 10
-580.2149922347891
 20
756.773615348976
 30
0.0
 11
150.0000000000001
 21
0.0
 31
0.0
 12
0.0
 22
150.0000000000001
 32
0.0
 13
1.0
 23
1.0
340
0
 70
     4
280
     1
281
    50
282
    50
283
     0
360
0
 71
     2
 91
        5
 14
-0.5
 24
0.4800000000000013
 14
0.5
 24
0.4800000000000013
 14
0.5
 24
0.5
 14
-0.5
 24
0.5
 14
-0.5
 24
0.4800000000000013
  0
POLYLINE
  5
37E
330
75
100
AcDbEntity
  8
None
  6
Continuous
 62
     7
370
     9
100
AcDb2dPolyline
 66
     1
 10
0.0
 20
0.0
 30
0.0
 70
     1
  0
VERTEX
  5
37F
330
37E
100
AcDbEntity
  8
None
  6
Continuous
 62
     7
370
     9
100
AcDbVertex
100
AcDb2dVertex
 10
-580.2149922347891
 20
759.7736153489759
 30
0.0
  0
VERTEX
  5
380
330
37E
100
AcDbEntity
  8
None
  6
Continuous
 62
     7
370
     9
100
AcDbVertex
100
AcDb2dVertex
 10
-430.214992234789
 20
759.7736153489759
 30
0.0
  0
VERTEX
  5
381
330
37E
100
AcDbEntity
  8
None
  6
Continuous
 62
     7
370
     9
100
AcDbVertex
100
AcDb2dVertex
 10
-430.214992234789
 20
756.773615348976
 30
0.0
  0
VERTEX
  5
382
330
37E
100
AcDbEntity
  8
None
  6
Continuous
 62
     7
370
     9
100
AcDbVertex
100
AcDb2dVertex
 10
-580.2149922347891
 20
756.773615348976
 30
0.0
  0
SEQEND
  5
383
330
37E
100
AcDbEntity
  8
None
  6
Continuous
 62
     7
370
     9
  0
ENDBLK
  5
77
330
75
100
AcDbEntity
  8
0
100
AcDbBlockEnd
  0
BLOCK
  5
79
330
78
100
AcDbEntity
  8
0
100
AcDbBlockBegin
  2
Group-18-1
 70
     0
 10
0.0
 20
0.0
 30
0.0
  3
Group-18-1
  1

  0
WIPEOUT
  5
384
330
78
100
AcDbEntity
  8
None
  6
Continuous
 62
     7
370
    15
 92
      152
310
98000000040000000C0000000E000000B20000000C00000016000000000000C20C00000014000000010000006C00000007000000040000000300000000388FC0472263D647788AC000000000000000000100000000D88EC0472263D647788AC000000000000000000100000000D88EC0462263D647A88AC000000000000000
310
000300000000388FC0462263D647A88AC00000000000000000
100
AcDbWipeout
 90
        0
 10
-999.0000000000003
 20
-853.0350768799624
 30
0.0
 11
12.00000000000023
 21
0.0
 31
0.0
 12
0.0
 22
12.00000000000023
 32
0.0
 13
1.0
 23
1.0
340
0
 70
     4
280
     1
281
    50
282
    50
283
     0
360
0
 71
     2
 91
        5
 14
-0.5
 24
0.0000000000000142
 14
0.5
 24
0.0000000000000142
 14
0.5
 24
0.5
 14
-0.5
 24
0.5
 14
-0.5
 24
0.0000000000000142
  0
POLYLINE
  5
385
330
78
100
AcDbEntity
  8
None
  6
Continuous
 62
     7
370
    15
100
AcDb2dPolyline
 66
     1
 10
0.0
 20
0.0
 30
0.0
 70
     1
  0
VERTEX
  5
386
330
385
100
AcDbEntity
  8
None
  6
Continuous
 62
     7
370
    15
100
AcDbVertex
100
AcDb2dVertex
 10
-999.0000000000003
 20
-847.0350768799624
 30
0.0
  0
VERTEX
  5
387
330
385
100
AcDbEntity
  8
None
  6
Continuous
 62
     7
370
    15
100
AcDbVertex
100
AcDb2dVertex
 10
-987.0000000000001
 20
-847.0350768799624
 30
0.0
  0
VERTEX
  5
388
330
385
100
AcDbEntity
  8
None
  6
Continuous
 62
     7
370
    15
100
AcDbVertex
100
AcDb2dVertex
 10
-987.0000000000001
 20
-853.0350768799624
 30
0.0
  0
VERTEX
  5
389
330
385
100
AcDbEntity
  8
None
  6
Continuous
 62
     7
370
    15
100
AcDbVertex
100
AcDb2dVertex
 10
-999.0000000000003
 20
-853.0350768799624
 30
0.0
  0
SEQEND
  5
38A
330
385
100
AcDbEntity
  8
None
  6
Continuous
 62
     7
370
    15
  0
WIPEOUT
  5
38B
330
78
100
AcDbEntity
  8
None
  6
Continuous
 62
     7
370
    15
 92
      152
310
98000000040000000C0000000E000000B20000000C00000016000000000000C20C00000014000000010000006C0000000700000004000000FEFFFFFFFFD78EC0452263D647A88AC000000000000000000200000000788EC0452263D647A88AC000000000000000000200000000788EC0462263D647D88AC000000000000000
310
00FEFFFFFFFFD78EC0462263D647D88AC00000000000000000
100
AcDbWipeout
 90
        0
 10
-986.9999999999995
 20
-859.0350768799624
 30
0.0
 11
11.99999999999955
 21
0.0
 31
0.0
 12
0.0
 22
11.99999999999955
 32
0.0
 13
1.0
 23
1.0
340
0
 70
     4
280
     1
281
    50
282
    50
283
     0
360
0
 71
     2
 91
        5
 14
-0.5000000000000142
 24
-0.0000000000000284
 14
0.4999999999999858
 24
-0.0000000000000284
 14
0.4999999999999858
 24
0.5
 14
-0.5000000000000142
 24
0.5
 14
-0.5000000000000142
 24
-0.0000000000000284
  0
POLYLINE
  5
38C
330
78
100
AcDbEntity
  8
None
  6
Continuous
 62
     7
370
    15
100
AcDb2dPolyline
 66
     1
 10
0.0
 20
0.0
 30
0.0
 70
     1
  0
VERTEX
  5
38D
330
38C
100
AcDbEntity
  8
None
  6
Continuous
 62
     7
370
    15
100
AcDbVertex
100
AcDb2dVertex
 10
-986.9999999999995
 20
-853.0350768799624
 30
0.0
  0
VERTEX
  5
38E
330
38C
100
AcDbEntity
  8
None
  6
Continuous
 62
     7
370
    15
100
AcDbVertex
100
AcDb2dVertex
 10
-975.0
 20
-853.0350768799624
 30
0.0
  0
VERTEX
  5
38F
330
38C
100
AcDbEntity
  8
None
  6
Continuous
 62
     7
370
    15
100
AcDbVertex
100
AcDb2dVertex
 10
-975.0
 20
-859.0350768799624
 30
0.0
  0
VERTEX
  5
390
330
38C
100
AcDbEntity
  8
None
  6
Continuous
 62
     7
370
    15
100
AcDbVertex
100
AcDb2dVertex
 10
-986.9999999999995
 20
-859.0350768799624
 30
0.0
  0
SEQEND
  5
391
330
38C
100
AcDbEntity
  8
None
  6
Continuous
 62
     7
370
    15
  0
WIPEOUT
  5
392
330
78
100
AcDbEntity
  8
None
  6
Continuous
 62
     7
370
    15
 92
      152
310
98000000040000000C0000000E000000B20000000C00000016000000000000C20C00000014000000010000006C0000000700000004000000FEFFFFFFFF778EC0462263D647788AC00000000000000000FCFFFFFFFF178EC0462263D647788AC00000000000000000FCFFFFFFFF178EC0462263D647A88AC000000000000000
310
00FEFFFFFFFF778EC0462263D647A88AC00000000000000000
100
AcDbWipeout
 90
        0
 10
-975.0
 20
-853.0350768799624
 30
0.0
 11
12.00000000000011
 21
0.0
 31
0.0
 12
0.0
 22
12.00000000000011
 32
0.0
 13
1.0
 23
1.0
340
0
 70
     4
280
     1
281
    50
282
    50
283
     0
360
0
 71
     2
 91
        5
 14
-0.4999999999999716
 24
0.0
 14
0.5000000000000284
 24
0.0
 14
0.5000000000000284
 24
0.5
 14
-0.4999999999999716
 24
0.5
 14
-0.4999999999999716
 24
0.0
  0
POLYLINE
  5
393
330
78
100
AcDbEntity
  8
None
  6
Continuous
 62
     7
370
    15
100
AcDb2dPolyline
 66
     1
 10
0.0
 20
0.0
 30
0.0
 70
     1
  0
VERTEX
  5
394
330
393
100
AcDbEntity
  8
None
  6
Continuous
 62
     7
370
    15
100
AcDbVertex
100
AcDb2dVertex
 10
-975.0
 20
-847.0350768799624
 30
0.0
  0
VERTEX
  5
395
330
393
100
AcDbEntity
  8
None
  6
Continuous
 62
     7
370
    15
100
AcDbVertex
100
AcDb2dVertex
 10
-962.9999999999999
 20
-847.0350768799624
 30
0.0
  0
VERTEX
  5
396
330
393
100
AcDbEntity
  8
None
  6
Continuous
 62
     7
370
    15
100
AcDbVertex
100
AcDb2dVertex
 10
-962.9999999999999
 20
-853.0350768799624
 30
0.0
  0
VERTEX
  5
397
330
393
100
AcDbEntity
  8
None
  6
Continuous
 62
     7
370
    15
100
AcDbVertex
100
AcDb2dVertex
 10
-975.0
 20
-853.0350768799624
 30
0.0
  0
SEQEND
  5
398
330
393
100
AcDbEntity
  8
None
  6
Continuous
 62
     7
370
    15
  0
WIPEOUT
  5
399
330
78
100
AcDbEntity
  8
None
  6
Continuous
 62
     7
370
    15
 92
      152
310
98000000040000000C0000000E000000B20000000C00000016000000000000C20C00000014000000010000006C0000000700000004000000FEFFFFFFFF178EC0462263D647A88AC00000000000000000FEFFFFFFFFB78DC0462263D647A88AC00000000000000000FEFFFFFFFFB78DC0462263D647D88AC000000000000000
310
00FEFFFFFFFF178EC0462263D647D88AC00000000000000000
100
AcDbWipeout
 90
        0
 10
-962.9999999999999
 20
-859.0350768799624
 30
0.0
 11
12.00000000000011
 21
0.0
 31
0.0
 12
0.0
 22
12.00000000000011
 32
0.0
 13
1.0
 23
1.0
340
0
 70
     4
280
     1
281
    50
282
    50
283
     0
360
0
 71
     2
 91
        5
 14
-0.5
 24
0.0
 14
0.5
 24
0.0
 14
0.5
 24
0.5
 14
-0.5
 24
0.5
 14
-0.5
 24
0.0
  0
POLYLINE
  5
39A
330
78
100
AcDbEntity
  8
None
  6
Continuous
 62
     7
370
    15
100
AcDb2dPolyline
 66
     1
 10
0.0
 20
0.0
 30
0.0
 70
     1
  0
VERTEX
  5
39B
330
39A
100
AcDbEntity
  8
None
  6
Continuous
 62
     7
370
    15
100
AcDbVertex
100
AcDb2dVertex
 10
-962.9999999999999
 20
-853.0350768799624
 30
0.0
  0
VERTEX
  5
39C
330
39A
100
AcDbEntity
  8
None
  6
Continuous
 62
     7
370
    15
100
AcDbVertex
100
AcDb2dVertex
 10
-950.9999999999998
 20
-853.0350768799624
 30
0.0
  0
VERTEX
  5
39D
330
39A
100
AcDbEntity
  8
None
  6
Continuous
 62
     7
370
    15
100
AcDbVertex
100
AcDb2dVertex
 10
-950.9999999999998
 20
-859.0350768799624
 30
0.0
  0
VERTEX
  5
39E
330
39A
100
AcDbEntity
  8
None
  6
Continuous
 62
     7
370
    15
100
AcDbVertex
100
AcDb2dVertex
 10
-962.9999999999999
 20
-859.0350768799624
 30
0.0
  0
SEQEND
  5
39F
330
39A
100
AcDbEntity
  8
None
  6
Continuous
 62
     7
370
    15
  0
WIPEOUT
  5
3A0
330
78
100
AcDbEntity
  8
None
  6
Continuous
 62
     7
370
    15
 92
      152
310
98000000040000000C0000000E000000B20000000C00000016000000000000C20C00000014000000010000006C0000000700000004000000FDFFFFFFFFB78DC0462263D647788AC00000000000000000FCFFFFFFFF578DC0462263D647788AC00000000000000000FCFFFFFFFF578DC0462263D647A88AC000000000000000
310
00FDFFFFFFFFB78DC0462263D647A88AC00000000000000000
100
AcDbWipeout
 90
        0
 10
-950.9999999999998
 20
-853.0350768799624
 30
0.0
 11
12.00000000000011
 21
0.0
 31
0.0
 12
0.0
 22
12.00000000000011
 32
0.0
 13
1.0
 23
1.0
340
0
 70
     4
280
     1
281
    50
282
    50
283
     0
360
0
 71
     2
 91
        5
 14
-0.4999999999999858
 24
0.0
 14
0.5000000000000142
 24
0.0
 14
0.5000000000000142
 24
0.5
 14
-0.4999999999999858
 24
0.5
 14
-0.4999999999999858
 24
0.0
  0
POLYLINE
  5
3A1
330
78
100
AcDbEntity
  8
None
  6
Continuous
 62
     7
370
    15
100
AcDb2dPolyline
 66
     1
 10
0.0
 20
0.0
 30
0.0
 70
     1
  0
VERTEX
  5
3A2
330
3A1
100
AcDbEntity
  8
None
  6
Continuous
 62
     7
370
    15
100
AcDbVertex
100
AcDb2dVertex
 10
-950.9999999999998
 20
-847.0350768799624
 30
0.0
  0
VERTEX
  5
3A3
330
3A1
100
AcDbEntity
  8
None
  6
Continuous
 62
     7
370
    15
100
AcDbVertex
100
AcDb2dVertex
 10
-938.9999999999997
 20
-847.0350768799624
 30
0.0
  0
VERTEX
  5
3A4
330
3A1
100
AcDbEntity
  8
None
  6
Continuous
 62
     7
370
    15
100
AcDbVertex
100
AcDb2dVertex
 10
-938.9999999999997
 20
-853.0350768799624
 30
0.0
  0
VERTEX
  5
3A5
330
3A1
100
AcDbEntity
  8
None
  6
Continuous
 62
     7
370
    15
100
AcDbVertex
100
AcDb2dVertex
 10
-950.9999999999998
 20
-853.0350768799624
 30
0.0
  0
SEQEND
  5
3A6
330
3A1
100
AcDbEntity
  8
None
  6
Continuous
 62
     7
370
    15
  0
WIPEOUT
  5
3A7
330
78
100
AcDbEntity
  8
None
  6
Continuous
 62
     7
370
    15
 92
      152
310
98000000040000000C0000000E000000B20000000C00000016000000000000C20C00000014000000010000006C00000007000000040000000200000000588DC0452263D647A88AC000000000000000000200000000788BC0452263D647A88AC000000000000000000200000000788BC0462263D647D88AC000000000000000
310
000200000000588DC0462263D647D88AC00000000000000000
100
AcDbWipeout
 90
        0
 10
-939.0000000000002
 20
-859.0350768799624
 30
0.0
 11
60.0
 21
0.0
 31
0.0
 12
0.0
 22
60.0
 32
0.0
 13
1.0
 23
1.0
340
0
 70
     4
280
     1
281
    50
282
    50
283
     0
360
0
 71
     2
 91
        5
 14
-0.5
 24
0.3999999999999986
 14
0.5
 24
0.3999999999999986
 14
0.5
 24
0.5
 14
-0.5
 24
0.5
 14
-0.5
 24
0.3999999999999986
  0
POLYLINE
  5
3A8
330
78
100
AcDbEntity
  8
None
  6
Continuous
 62
     7
370
    15
100
AcDb2dPolyline
 66
     1
 10
0.0
 20
0.0
 30
0.0
 70
     1
  0
VERTEX
  5
3A9
330
3A8
100
AcDbEntity
  8
None
  6
Continuous
 62
     7
370
    15
100
AcDbVertex
100
AcDb2dVertex
 10
-939.0000000000002
 20
-853.0350768799624
 30
0.0
  0
VERTEX
  5
3AA
330
3A8
100
AcDbEntity
  8
None
  6
Continuous
 62
     7
370
    15
100
AcDbVertex
100
AcDb2dVertex
 10
-879.0000000000002
 20
-853.0350768799624
 30
0.0
  0
VERTEX
  5
3AB
330
3A8
100
AcDbEntity
  8
None
  6
Continuous
 62
     7
370
    15
100
AcDbVertex
100
AcDb2dVertex
 10
-879.0000000000002
 20
-859.0350768799624
 30
0.0
  0
VERTEX
  5
3AC
330
3A8
100
AcDbEntity
  8
None
  6
Continuous
 62
     7
370
    15
100
AcDbVertex
100
AcDb2dVertex
 10
-939.0000000000002
 20
-859.0350768799624
 30
0.0
  0
SEQEND
  5
3AD
330
3A8
100
AcDbEntity
  8
None
  6
Continuous
 62
     7
370
    15
  0
WIPEOUT
  5
3AE
330
78
100
AcDbEntity
  8
None
  6
Continuous
 62
     7
370
    15
 92
      152
310
98000000040000000C0000000E000000B20000000C00000016000000000000C20C00000014000000010000006C00000007000000040000000200000000788BC0452263D647788AC000000000000000000200000000B887C0452263D647788AC000000000000000000200000000B887C0452263D647A88AC000000000000000
310
000200000000788BC0452263D647A88AC00000000000000000
100
AcDbWipeout
 90
        0
 10
-879.0000000000002
 20
-853.0350768799624
 30
0.0
 11
120.0
 21
0.0
 31
0.0
 12
0.0
 22
120.0
 32
0.0
 13
1.0
 23
1.0
340
0
 70
     4
280
     1
281
    50
282
    50
283
     0
360
0
 71
     2
 91
        5
 14
-0.5
 24
0.4499999999999993
 14
0.5
 24
0.4499999999999993
 14
0.5
 24
0.4999999999999991
 14
-0.5
 24
0.4999999999999991
 14
-0.5
 24
0.4499999999999993
  0
POLYLINE
  5
3AF
330
78
100
AcDbEntity
  8
None
  6
Continuous
 62
     7
370
    15
100
AcDb2dPolyline
 66
     1
 10
0.0
 20
0.0
 30
0.0
 70
     1
  0
VERTEX
  5
3B0
330
3AF
100
AcDbEntity
  8
None
  6
Continuous
 62
     7
370
    15
100
AcDbVertex
100
AcDb2dVertex
 10
-879.0000000000002
 20
-847.0350768799624
 30
0.0
  0
VERTEX
  5
3B1
330
3AF
100
AcDbEntity
  8
None
  6
Continuous
 62
     7
370
    15
100
AcDbVertex
100
AcDb2dVertex
 10
-759.0000000000002
 20
-847.0350768799624
 30
0.0
  0
VERTEX
  5
3B2
330
3AF
100
AcDbEntity
  8
None
  6
Continuous
 62
     7
370
    15
100
AcDbVertex
100
AcDb2dVertex
 10
-759.0000000000002
 20
-853.0350768799624
 30
0.0
  0
VERTEX
  5
3B3
330
3AF
100
AcDbEntity
  8
None
  6
Continuous
 62
     7
370
    15
100
AcDbVertex
100
AcDb2dVertex
 10
-879.0000000000002
 20
-853.0350768799624
 30
0.0
  0
SEQEND
  5
3B4
330
3AF
100
AcDbEntity
  8
None
  6
Continuous
 62
     7
370
    15
  0
WIPEOUT
  5
3B5
330
78
100
AcDbEntity
  8
None
  6
Continuous
 62
     7
370
    15
 92
      152
310
98000000040000000C0000000E000000B20000000C00000016000000000000C20C00000014000000010000006C00000007000000040000000400000000B887C0452263D647A88AC0000000000000000006000000003880C0452263D647A88AC0000000000000000006000000003880C0452263D647D88AC000000000000000
310
000400000000B887C0452263D647D88AC00000000000000000
100
AcDbWipeout
 90
        0
 10
-759.0000000000006
 20
-859.0350768799624
 30
0.0
 11
239.9999999999998
 21
0.0
 31
0.0
 12
0.0
 22
239.9999999999998
 32
0.0
 13
1.0
 23
1.0
340
0
 70
     4
280
     1
281
    50
282
    50
283
     0
360
0
 71
     2
 91
        5
 14
-0.4999999999999996
 24
0.4749999999999996
 14
0.5000000000000004
 24
0.4749999999999996
 14
0.5000000000000004
 24
0.4999999999999996
 14
-0.4999999999999996
 24
0.4999999999999996
 14
-0.4999999999999996
 24
0.4749999999999996
  0
POLYLINE
  5
3B6
330
78
100
AcDbEntity
  8
None
  6
Continuous
 62
     7
370
    15
100
AcDb2dPolyline
 66
     1
 10
0.0
 20
0.0
 30
0.0
 70
     1
  0
VERTEX
  5
3B7
330
3B6
100
AcDbEntity
  8
None
  6
Continuous
 62
     7
370
    15
100
AcDbVertex
100
AcDb2dVertex
 10
-759.0000000000006
 20
-853.0350768799624
 30
0.0
  0
VERTEX
  5
3B8
330
3B6
100
AcDbEntity
  8
None
  6
Continuous
 62
     7
370
    15
100
AcDbVertex
100
AcDb2dVertex
 10
-519.0000000000008
 20
-853.0350768799624
 30
0.0
  0
VERTEX
  5
3B9
330
3B6
100
AcDbEntity
  8
None
  6
Continuous
 62
     7
370
    15
100
AcDbVertex
100
AcDb2dVertex
 10
-519.0000000000008
 20
-859.0350768799624
 30
0.0
  0
VERTEX
  5
3BA
330
3B6
100
AcDbEntity
  8
None
  6
Continuous
 62
     7
370
    15
100
AcDbVertex
100
AcDb2dVertex
 10
-759.0000000000006
 20
-859.0350768799624
 30
0.0
  0
SEQEND
  5
3BB
330
3B6
100
AcDbEntity
  8
None
  6
Continuous
 62
     7
370
    15
  0
LINE
  5
3BC
330
78
100
AcDbEntity
  8
None
  6
Continuous
 62
     7
370
    15
100
AcDbLine
 10
-999.0000000000003
 20
-847.0350768799624
 30
0.0
 11
-999.0000000000003
 21
-859.0350768799624
 31
0.0
  0
LINE
  5
3BD
330
78
100
AcDbEntity
  8
None
  6
Continuous
 62
     7
370
    15
100
AcDbLine
 10
-279.0000000000006
 20
-859.0350768799624
 30
0.0
 11
-279.0000000000006
 21
-847.0350768799624
 31
0.0
  0
WIPEOUT
  5
3BE
330
78
100
AcDbEntity
  8
None
  6
Continuous
 62
     7
370
    15
 92
      152
310
98000000040000000C0000000E000000B20000000C00000016000000000000C20C00000014000000010000006C000000070000000400000003000000003880C0462263D647788AC00000000000000000FAFFFFFFFF6F71C0462263D647788AC00000000000000000FAFFFFFFFF6F71C0452263D647A88AC000000000000000
310
0003000000003880C0452263D647A88AC00000000000000000
100
AcDbWipeout
 90
        0
 10
-519.0000000000002
 20
-853.0350768799623
 30
0.0
 11
240.0000000000006
 21
0.0
 31
0.0
 12
0.0
 22
240.0000000000006
 32
0.0
 13
1.0
 23
1.0
340
0
 70
     4
280
     1
281
    50
282
    50
283
     0
360
0
 71
     2
 91
        5
 14
-0.5000000000000004
 24
0.4750000000000005
 14
0.4999999999999998
 24
0.4750000000000005
 14
0.4999999999999998
 24
0.5
 14
-0.5000000000000004
 24
0.5
 14
-0.5000000000000004
 24
0.4750000000000005
  0
POLYLINE
  5
3BF
330
78
100
AcDbEntity
  8
None
  6
Continuous
 62
     7
370
    15
100
AcDb2dPolyline
 66
     1
 10
0.0
 20
0.0
 30
0.0
 70
     1
  0
VERTEX
  5
3C0
330
3BF
100
AcDbEntity
  8
None
  6
Continuous
 62
     7
370
    15
100
AcDbVertex
100
AcDb2dVertex
 10
-519.0000000000002
 20
-847.0350768799624
 30
0.0
  0
VERTEX
  5
3C1
330
3BF
100
AcDbEntity
  8
None
  6
Continuous
 62
     7
370
    15
100
AcDbVertex
100
AcDb2dVertex
 10
-278.9999999999996
 20
-847.0350768799624
 30
0.0
  0
VERTEX
  5
3C2
330
3BF
100
AcDbEntity
  8
None
  6
Continuous
 62
     7
370
    15
100
AcDbVertex
100
AcDb2dVertex
 10
-278.9999999999996
 20
-853.0350768799623
 30
0.0
  0
VERTEX
  5
3C3
330
3BF
100
AcDbEntity
  8
None
  6
Continuous
 62
     7
370
    15
100
AcDbVertex
100
AcDb2dVertex
 10
-519.0000000000002
 20
-853.0350768799623
 30
0.0
  0
SEQEND
  5
3C4
330
3BF
100
AcDbEntity
  8
None
  6
Continuous
 62
     7
370
    15
  0
ENDBLK
  5
7A
330
78
100
AcDbEntity
  8
0
100
AcDbBlockEnd
  0
BLOCK
  5
7C
330
7B
100
AcDbEntity
  8
0
100
AcDbBlockBegin
  2
Group-19-1
 70
     0
 10
0.0
 20
0.0
 30
0.0
  3
Group-19-1
  1

  0
INSERT
  5
3C5
330
7B
100
AcDbEntity
  8
None
 62
     7
100
AcDbBlockReference
  2
Group-18-1
 10
0.0
 20
0.0
 30
0.0
  0
WIPEOUT
  5
3C6
330
7B
100
AcDbEntity
  8
None
  6
Continuous
 62
     7
370
     9
 92
      152
310
98000000040000000C0000000E000000B20000000C00000016000000000000C20C00000014000000010000006C00000007000000040000000000000000688FC0537455A040D18BC000000000000000003B8EE3388B0C8FC0537455A040D18BC000000000000000003B8EE3388B0C8FC08D0239D9CE2C8BC000000000000000
310
000000000000688FC08D0239D9CE2C8BC00000000000000000
100
AcDbWipeout
 90
        0
 10
-1005.0
 20
-890.1565558124661
 30
0.0
 11
20.55555555555543
 21
0.0
 31
0.0
 12
0.0
 22
20.55555555555543
 32
0.0
 13
1.0
 23
1.0
340
0
 70
     4
280
     1
281
    50
282
    50
283
     0
360
0
 71
     2
 91
        5
 14
-0.5
 24
0.5
 14
0.0561523437499929
 24
0.5
 14
0.0561523437499929
 24
-0.5
 14
-0.5
 24
-0.5
 14
-0.5
 24
0.5
  0
MTEXT
  5
3C7
330
7B
100
AcDbEntity
  8
None
 62
     7
100
AcDbMText
 10
-1005.0
 20
-870.6836831870482
 30
0.0
 40
14.74509484764017
 41
0.0
 71
     1
 72
     1
  1
0
  7
Helvetica
 73
     1
 44
0.8397955333929318
  0
WIPEOUT
  5
3C8
330
7B
100
AcDbEntity
  8
None
  6
Continuous
 62
     7
370
     9
 92
      152
310
98000000040000000C0000000E000000B20000000C00000016000000000000C20C00000014000000010000006C0000000700000004000000FA0AB101B3848DC0537455A040D18BC00000000000000000FA0AB101D9098DC0537455A040D18BC00000000000000000FA0AB101D9098DC08D0239D9CE2C8BC000000000000000
310
00FA0AB101B3848DC08D0239D9CE2C8BC00000000000000000
100
AcDbWipeout
 90
        0
 10
-944.5874055701709
 20
-890.1565558124661
 30
0.0
 11
20.55555555555543
 21
0.0
 31
0.0
 12
0.0
 22
20.55555555555543
 32
0.0
 13
1.0
 23
1.0
340
0
 70
     4
280
     1
281
    50
282
    50
283
     0
360
0
 71
     2
 91
        5
 14
-0.5
 24
0.5
 14
0.2470703125000071
 24
0.5
 14
0.2470703125000071
 24
-0.5
 14
-0.5
 24
-0.5
 14
-0.5
 24
0.5
  0
MTEXT
  5
3C9
330
7B
100
AcDbEntity
  8
None
 62
     7
100
AcDbMText
 10
-944.5874055701709
 20
-870.6836831870482
 30
0.0
 40
14.74509484764017
 41
0.0
 71
     1
 72
     1
  1
5'
  7
Helvetica
 73
     1
 44
0.8397955333929318
  0
WIPEOUT
  5
3CA
330
7B
100
AcDbEntity
  8
None
  6
Continuous
 62
     7
370
     9
 92
      152
310
98000000040000000C0000000E000000B20000000C00000016000000000000C20C00000014000000010000006C000000070000000400000085B5664187E88BC0537455A040D18BC00000000000000000BF434A7A38128BC0537455A040D18BC00000000000000000BF434A7A38128BC08D0239D9CE2C8BC000000000000000
310
0085B5664187E88BC08D0239D9CE2C8BC00000000000000000
100
AcDbWipeout
 90
        0
 10
-893.0660427116533
 20
-890.1565558124661
 30
0.0
 11
26.78846571180543
 21
0.0
 31
0.0
 12
0.0
 22
26.78846571180543
 32
0.0
 13
1.0
 23
1.0
340
0
 70
     4
280
     1
281
    50
282
    50
283
     0
360
0
 71
     2
 91
        5
 14
-0.5
 24
0.5
 14
0.5
 24
0.5
 14
0.5
 24
-0.2673285874859488
 14
-0.5
 24
-0.2673285874859488
 14
-0.5
 24
0.5
  0
MTEXT
  5
3CB
330
7B
100
AcDbEntity
  8
None
 62
     7
100
AcDbMText
 10
-893.0660427116533
 20
-870.6836831870482
 30
0.0
 40
14.74509484764017
 41
0.0
 71
     1
 72
     1
  1
10'
  7
Helvetica
 73
     1
 44
0.8397955333929318
  0
WIPEOUT
  5
3CC
330
7B
100
AcDbEntity
  8
None
  6
Continuous
 62
     7
370
     9
 92
      152
310
98000000040000000C0000000E000000B20000000C00000016000000000000C20C00000014000000010000006C0000000700000004000000F7156203660988C0527455A040D18BC0000000000000000030A4453C173387C0527455A040D18BC0000000000000000030A4453C173387C08D0239D9CE2C8BC000000000000000
310
00F7156203660988C08D0239D9CE2C8BC00000000000000000
100
AcDbWipeout
 90
        0
 10
-769.1748111403421
 20
-890.1565558124661
 30
0.0
 11
26.78846571180554
 21
0.0
 31
0.0
 12
0.0
 22
26.78846571180554
 32
0.0
 13
1.0
 23
1.0
340
0
 70
     4
280
     1
281
    50
282
    50
283
     0
360
0
 71
     2
 91
        5
 14
-0.4999999999999964
 24
0.4999999999999929
 14
0.5000000000000036
 24
0.4999999999999929
 14
0.5000000000000036
 24
-0.2673285874859488
 14
-0.4999999999999964
 24
-0.2673285874859488
 14
-0.4999999999999964
 24
0.4999999999999929
  0
MTEXT
  5
3CD
330
7B
100
AcDbEntity
  8
None
 62
     7
100
AcDbMText
 10
-769.1748111403421
 20
-870.6836831870482
 30
0.0
 40
14.74509484764017
 41
0.0
 71
     1
 72
     1
  1
20'
  7
Helvetica
 73
     1
 44
0.8397955333929318
  0
WIPEOUT
  5
3CE
330
7B
100
AcDbEntity
  8
None
  6
Continuous
 62
     7
370
     9
 92
      152
310
98000000040000000C0000000E000000B20000000C00000016000000000000C20C00000014000000010000006C0000000700000004000000F215620366A980C0537455A040D18BC0000000000000000052488B782EA67FC0537455A040D18BC0000000000000000052488B782EA67FC08C0239D9CE2C8BC000000000000000
310
00F215620366A980C08C0239D9CE2C8BC00000000000000000
100
AcDbWipeout
 90
        0
 10
-533.1748111403414
 20
-890.1565558124661
 30
0.0
 11
26.7884657118056
 21
0.0
 31
0.0
 12
0.0
 22
26.7884657118056
 32
0.0
 13
1.0
 23
1.0
340
0
 70
     4
280
     1
281
    50
282
    50
283
     0
360
0
 71
     2
 91
        5
 14
-0.5000000000000036
 24
0.5
 14
0.5
 24
0.5
 14
0.5
 24
-0.2673285874859488
 14
-0.5000000000000036
 24
-0.2673285874859488
 14
-0.5000000000000036
 24
0.5
  0
MTEXT
  5
3CF
330
7B
100
AcDbEntity
  8
None
 62
     7
100
AcDbMText
 10
-533.1748111403414
 20
-870.6836831870482
 30
0.0
 40
14.74509484764017
 41
0.0
 71
     1
 72
     1
  1
40'
  7
Helvetica
 73
     1
 44
0.8397955333929318
  0
WIPEOUT
  5
3D0
330
7B
100
AcDbEntity
  8
None
  6
Continuous
 62
     7
370
     9
 92
      152
310
98000000040000000C0000000E000000B20000000C00000016000000000000C20C00000014000000010000006C000000070000000400000095B96AD8C96972C0537455A040D18BC0000000000000000006D6314A2CBD70C0537455A040D18BC0000000000000000006D6314A2CBD70C08C0239D9CE2C8BC000000000000000
310
0095B96AD8C96972C08C0239D9CE2C8BC00000000000000000
100
AcDbWipeout
 90
        0
 10
-294.6117786568587
 20
-890.1565558124661
 30
0.0
 11
26.7884657118056
 21
0.0
 31
0.0
 12
0.0
 22
26.7884657118056
 32
0.0
 13
1.0
 23
1.0
340
0
 70
     4
280
     1
281
    50
282
    50
283
     0
360
0
 71
     2
 91
        5
 14
-0.4999999999999982
 24
0.5
 14
0.5000000000000018
 24
0.5
 14
0.5000000000000018
 24
-0.2673285874859488
 14
-0.4999999999999982
 24
-0.2673285874859488
 14
-0.4999999999999982
 24
0.5
  0
MTEXT
  5
3D1
330
7B
100
AcDbEntity
  8
None
 62
     7
100
AcDbMText
 10
-294.6117786568587
 20
-870.6836831870482
 30
0.0
 40
14.74509484764017
 41
0.0
 71
     1
 72
     1
  1
60'
  7
Helvetica
 73
     1
 44
0.8397955333929318
  0
ENDBLK
  5
7D
330
7B
100
AcDbEntity
  8
0
100
AcDbBlockEnd
  0
BLOCK
  5
7F
330
7E
100
AcDbEntity
  8
0
100
AcDbBlockBegin
  2
Group-20-1
 70
     0
 10
0.0
 20
0.0
 30
0.0
  3
Group-20-1
  1

  0
INSERT
  5
3D2
330
7E
100
AcDbEntity
  8
None
 62
     7
100
AcDbBlockReference
  2
Group-19-1
 10
0.0
 20
0.0
 30
0.0
  0
ENDBLK
  5
80
330
7E
100
AcDbEntity
  8
0
100
AcDbBlockEnd
  0
BLOCK
  5
82
330
81
100
AcDbEntity
  8
0
100
AcDbBlockBegin
  2
Group-21-1
 70
     0
 10
0.0
 20
0.0
 30
0.0
  3
Group-21-1
  1

  0
WIPEOUT
  5
3D3
330
81
100
AcDbEntity
  8
None
  6
Continuous
 62
     7
370
     9
 92
      152
310
98000000040000000C0000000E000000B20000000C00000016000000000000C20C00000014000000010000006C00000007000000040000004FCBD92C304E8FC0ACAAAAAAAAFE89C00000000000000000F8758457D91988C0ACAAAAAAAAFE89C00000000000000000F8758457D91988C001000000000889C000000000000000
310
004FCBD92C304E8FC001000000000889C00000000000000000
100
AcDbWipeout
 90
        0
 10
-1001.773523046033
 20
-831.8333333333334
 30
0.0
 11
230.5423990885417
 21
0.0
 31
0.0
 12
0.0
 22
230.5423990885417
 32
0.0
 13
1.0
 23
1.0
340
0
 70
     4
280
     1
281
    50
282
    50
283
     0
360
0
 71
     2
 91
        5
 14
-0.5000000000000009
 24
0.5000000000000004
 14
0.4999999999999996
 24
0.5000000000000004
 14
0.4999999999999996
 24
0.3662574283288711
 14
-0.5000000000000009
 24
0.3662574283288711
 14
-0.5000000000000009
 24
0.5000000000000004
  0
MTEXT
  5
3D4
330
81
100
AcDbEntity
  8
None
 62
     7
100
AcDbMText
 10
-1001.773523046033
 20
-802.6240243952063
 30
0.0
 40
22.11764227146026
 41
0.0
 71
     1
 72
     1
  1
SCALE = 1 : 185
  7
Helvetica
 73
     1
 44
0.8397955333929318
  0
INSERT
  5
3D5
330
81
100
AcDbEntity
  8
None
 62
     7
100
AcDbBlockReference
  2
Group-20-1
 10
0.0
 20
0.0
 30
0.0
  0
ENDBLK
  5
83
330
81
100
AcDbEntity
  8
0
100
AcDbBlockEnd
  0
BLOCK
  5
9D
330
9C
100
AcDbEntity
  8
0
100
AcDbBlockBegin
  2
VW_SLASH
 70
     0
 10
0.0
 20
0.0
 30
0.0
  3
VW_SLASH
  1

  0
INSERT
  5
9F
330
9C
100
AcDbEntity
  8
None
  6
ByBlock
 62
     0
370
    -2
100
AcDbBlockReference
  2

 10
0.0
 20
0.0
 30
0.0
  0
LINE
  5
A0
330
9C
100
AcDbEntity
  8
None
  6
ByBlock
 62
     0
370
    -2
100
AcDbLine
 10
0.0
 20
0.0
 30
0.0
 11
-1.0
 21
0.0
 31
0.0
  0
POLYLINE
  5
A1
330
9C
100
AcDbEntity
  8
None
  6
Continuous
 62
     0
370
    20
100
AcDb2dPolyline
 66
     1
 10
0.0
 20
0.0
 30
0.0
  0
VERTEX
  5
A2
330
A1
100
AcDbEntity
  8
None
  6
Continuous
 62
     0
370
    20
100
AcDbVertex
100
AcDb2dVertex
 10
0.3513091552037657
 20
0.3513091552037657
 30
0.0
  0
VERTEX
  5
A3
330
A1
100
AcDbEntity
  8
None
  6
Continuous
 62
     0
370
    20
100
AcDbVertex
100
AcDb2dVertex
 10
-0.3513091552037657
 20
-0.3513091552037657
 30
0.0
  0
SEQEND
  5
A4
330
A1
100
AcDbEntity
  8
None
  6
Continuous
 62
     0
370
    20
  0
ENDBLK
  5
9E
330
9C
100
AcDbEntity
  8
0
100
AcDbBlockEnd
  0
BLOCK
  5
A6
330
A5
100
AcDbEntity
  8
0
100
AcDbBlockBegin
  2
VW_FILLEDARROW
 70
     0
 10
0.0
 20
0.0
 30
0.0
  3
VW_FILLEDARROW
  1

  0
INSERT
  5
A8
330
A5
100
AcDbEntity
  8
None
  6
ByBlock
 62
     0
370
    -2
100
AcDbBlockReference
  2

 10
0.0
 20
0.0
 30
0.0
  0
POLYLINE
  5
A9
102
{ACAD_REACTORS
330
AE
102
}
330
A5
100
AcDbEntity
  8
None
  6
Continuous
 62
     0
370
     5
100
AcDb2dPolyline
 66
     1
 10
0.0
 20
0.0
 30
0.0
 70
     1
  0
VERTEX
  5
AA
330
A9
100
AcDbEntity
  8
None
  6
Continuous
 62
     0
370
     5
100
AcDbVertex
100
AcDb2dVertex
 10
-0.9936523437500001
 20
0.2662483430651049
 30
0.0
  0
VERTEX
  5
AB
330
A9
100
AcDbEntity
  8
None
  6
Continuous
 62
     0
370
     5
100
AcDbVertex
100
AcDb2dVertex
 10
0.0
 20
0.0
 30
0.0
  0
VERTEX
  5
AC
330
A9
100
AcDbEntity
  8
None
  6
Continuous
 62
     0
370
     5
100
AcDbVertex
100
AcDb2dVertex
 10
-0.9936523437500001
 20
-0.2662483430651051
 30
0.0
  0
SEQEND
  5
AD
330
A9
100
AcDbEntity
  8
None
  6
Continuous
 62
     0
370
     5
  0
HATCH
  5
AE
330
A5
100
AcDbEntity
  8
None
  6
Continuous
 62
     0
370
     0
100
AcDbHatch
 10
0.0
 20
0.0
 30
0.0
210
0.0
220
0.0
230
1.0
  2
SOLID
 70
     1
 71
     1
 91
        1
 92
        1
 93
        3
 72
     1
 10
-0.9936523437500001
 20
0.2662483430651049
 11
0.0
 21
0.0
 72
     1
 10
0.0
 20
0.0
 11
-0.9936523437500001
 21
-0.2662483430651051
 72
     1
 10
-0.9936523437500001
 20
-0.2662483430651051
 11
-0.9936523437500001
 21
0.2662483430651049
 97
        1
330
A9
 75
     0
 76
     1
 98
        1
 10
0.0
 20
0.0
  0
ENDBLK
  5
A7
330
A5
100
AcDbEntity
  8
0
100
AcDbBlockEnd
  0
ENDSEC
  0
SECTION
  2
ENTITIES
  0
POLYLINE
  5
3D6
330
1F
100
AcDbEntity
  8
None
  6
Continuous
 62
     7
370
    60
100
AcDb2dPolyline
 66
     1
 10
0.0
 20
0.0
 30
0.0
 70
     1
  0
VERTEX
  5
3D7
330
3D6
100
AcDbEntity
  8
None
  6
Continuous
 62
     7
370
    60
100
AcDbVertex
100
AcDb2dVertex
 10
-1483.641732283465
 20
926.8208661417324
 30
0.0
  0
VERTEX
  5
3D8
330
3D6
100
AcDbEntity
  8
None
  6
Continuous
 62
     7
370
    60
100
AcDbVertex
100
AcDb2dVertex
 10
1476.358267716535
 20
926.8208661417324
 30
0.0
  0
VERTEX
  5
3D9
330
3D6
100
AcDbEntity
  8
None
  6
Continuous
 62
     7
370
    60
100
AcDbVertex
100
AcDb2dVertex
 10
1476.358267716535
 20
-923.1791338582677
 30
0.0
  0
VERTEX
  5
3DA
330
3D6
100
AcDbEntity
  8
None
  6
Continuous
 62
     7
370
    60
100
AcDbVertex
100
AcDb2dVertex
 10
-1483.641732283465
 20
-923.1791338582677
 30
0.0
  0
SEQEND
  5
3DB
330
3D6
100
AcDbEntity
  8
None
  6
Continuous
 62
     7
370
    60
  0
POLYLINE
  5
3DC
330
1F
100
AcDbEntity
  8
None
  6
Continuous
 62
     7
370
    60
100
AcDb2dPolyline
 66
     1
 10
0.0
 20
0.0
 30
0.0
 70
     1
  0
VERTEX
  5
3DD
330
3DC
100
AcDbEntity
  8
None
  6
Continuous
 62
     7
370
    60
100
AcDbVertex
100
AcDb2dVertex
 10
-1483.641732283465
 20
926.8208661417324
 30
0.0
  0
VERTEX
  5
3DE
330
3DC
100
AcDbEntity
  8
None
  6
Continuous
 62
     7
370
    60
100
AcDbVertex
100
AcDb2dVertex
 10
828.8582677165354
 20
926.8208661417324
 30
0.0
  0
VERTEX
  5
3DF
330
3DC
100
AcDbEntity
  8
None
  6
Continuous
 62
     7
370
    60
100
AcDbVertex
100
AcDb2dVertex
 10
828.8582677165354
 20
-923.1791338582677
 30
0.0
  0
VERTEX
  5
3E0
330
3DC
100
AcDbEntity
  8
None
  6
Continuous
 62
     7
370
    60
100
AcDbVertex
100
AcDb2dVertex
 10
-1483.641732283465
 20
-923.1791338582677
 30
0.0
  0
SEQEND
  5
3E1
330
3DC
100
AcDbEntity
  8
None
  6
Continuous
 62
     7
370
    60
  0
WIPEOUT
  5
3E2
330
1F
100
AcDbEntity
  8
None
  6
Continuous
 62
     7
370
     5
 92
      152
310
98000000040000000C0000000E000000B20000000C00000016000000000000C20C00000014000000010000006C0000000700000004000000D48321CDD2BF8C40882D9D19C94972400000000000000000CFFA1EBA7EAC9540882D9D19C94972400000000000000000CFFA1EBA7EAC954086AD3A4EBB4B834000000000000000
310
00D48321CDD2BF8C4086AD3A4EBB4B83400000000000000000
100
AcDbWipeout
 90
        0
 10
919.9779303186755
 20
292.611596693016
 30
0.0
 11
467.1458265516495
 21
0.0
 31
0.0
 12
0.0
 22
467.1458265516495
 32
0.0
 13
1.0
 23
1.0
340
0
 70
     4
280
     1
281
    50
282
    50
283
     0
360
0
 71
     2
 91
        5
 14
-0.4999999999999998
 24
0.4999999999999999
 14
0.5000000000000004
 24
0.4999999999999999
 14
0.5000000000000004
 24
-0.1954035392098146
 14
-0.4999999999999998
 24
-0.1954035392098146
 14
-0.4999999999999998
 24
0.4999999999999999
  0
MTEXT
  5
3E3
330
1F
100
AcDbEntity
  8
None
 62
     7
100
AcDbMText
 10
1153.5508435945
 20
606.5212831820595
 30
0.0
 40
34.94510315571019
 41
0.0
 71
     2
 72
     1
  1
2400 BOUNDARY ROAD\PBURNABY, B.C. V5M 3Z3\PCANADA\P\P{\H0.8947x;\lT: 604•482•2000\P}{\H0.8947x;\lF: 604•482•2007\P}
  7
Arial Narrow
 73
     1
 44
0.9301738196474555
  0
WIPEOUT
  5
3E4
330
1F
100
AcDbEntity
  8
None
  6
Continuous
 62
     7
370
     5
 92
      152
310
98000000040000000C0000000E000000B20000000C00000016000000000000C20C00000014000000010000006C0000000700000004000000E6800C6F1D718B40C4D5D4FEC535674000000000000000001EEB30E2570F9540C4D5D4FEC535674000000000000000001EEB30E2570F954076A953932138714000000000000000
310
00E6800C6F1D718B4076A95393213871400000000000000000
100
AcDbWipeout
 90
        0
 10
878.1393719651068
 20
185.6804193646367
 30
0.0
 11
469.6964518229166
 21
0.0
 31
0.0
 12
0.0
 22
469.6964518229166
 32
0.0
 13
1.0
 23
1.0
340
0
 70
     4
280
     1
281
    50
282
    50
283
     0
360
0
 71
     2
 91
        5
 14
-0.5000000000000002
 24
0.4999999999999999
 14
0.5
 24
0.4999999999999999
 14
0.5
 24
0.3087535525781566
 14
-0.5000000000000002
 24
0.3087535525781566
 14
-0.5000000000000002
 24
0.4999999999999999
  0
MTEXT
  5
3E5
330
1F
100
AcDbEntity
  8
None
 62
     7
100
AcDbMText
 10
1112.987597876565
 20
257.9959177471064
 30
0.0
 40
55.91216504913628
 41
0.0
 71
     2
 72
     1
  1
SOUND STAGE
  7
Arial Narrow (bold)
 73
     1
 44
1.446475657041058
  0
POLYLINE
  5
3E6
330
1F
100
AcDbEntity
  8
None
  6
Continuous
 62
     7
370
    60
100
AcDb2dPolyline
 66
     1
 10
0.0
 20
0.0
 30
0.0
 70
     1
  0
VERTEX
  5
3E7
330
3E6
100
AcDbEntity
  8
None
  6
Continuous
 62
     7
370
    60
100
AcDbVertex
100
AcDb2dVertex
 10
828.8582677165354
 20
-485.625
 30
0.0
  0
VERTEX
  5
3E8
330
3E6
100
AcDbEntity
  8
None
  6
Continuous
 62
     7
370
    60
100
AcDbVertex
100
AcDb2dVertex
 10
1476.358267716535
 20
-485.625
 30
0.0
  0
VERTEX
  5
3E9
330
3E6
100
AcDbEntity
  8
None
  6
Continuous
 62
     7
370
    60
100
AcDbVertex
100
AcDb2dVertex
 10
1476.358267716535
 20
-923.1791338582677
 30
0.0
  0
VERTEX
  5
3EA
330
3E6
100
AcDbEntity
  8
None
  6
Continuous
 62
     7
370
    60
100
AcDbVertex
100
AcDb2dVertex
 10
828.8582677165354
 20
-923.1791338582677
 30
0.0
  0
SEQEND
  5
3EB
330
3E6
100
AcDbEntity
  8
None
  6
Continuous
 62
     7
370
    60
  0
MTEXT
  5
3EC
330
1F
100
AcDbEntity
  8
None
 62
     7
100
AcDbMText
 10
886.8403796171533
 20
128.709048948279
 30
0.0
 40
41.93412378685221
 41
0.0
 71
     1
 72
     1
  1
FEATURES\P{\H0.7083x;\l•12,305 sq. ft.\P•SOUNDPROOF\P•ELEPHANT DOORS\P•3600 amps 120/208V \P•GRID = 4,600 pounds per any one \Ppoint on truss\P•Interior is checkered Flat Black\Pacoustical panels\P•12,000cfm exhaust fans}
  7
Arial Narrow
 73
     1
 44
0.8489681687258522
  0
INSERT
  5
3ED
330
1F
100
AcDbEntity
  8
elements-ojects
 62
     7
100
AcDbBlockReference
  2
Group-1
 10
0.0
 20
0.0
 30
0.0
 41
185.0
 42
185.0
 43
185.0
  0
WIPEOUT
  5
3EE
330
1F
100
AcDbEntity
  8
None
  6
Continuous
 62
     7
370
     5
 92
      152
310
98000000040000000C0000000E000000B20000000C00000016000000000000C20C00000014000000010000006C0000000700000004000000BBEEE49A994695403CBB7156E7EC60400000000000000000F57C68DB348796403CBB7156E7EC60400000000000000000F57C68DB348796406BAA05784018754000000000000000
310
00BBEEE49A994695406BAA0578401875400000000000000000
100
AcDbWipeout
 90
        0
 10
1361.65000493724
 20
135.4032394620243
 30
0.0
 11
202.1125000000001
 21
0.0
 31
0.0
 12
0.0
 22
202.1125000000001
 32
0.0
 13
1.0
 23
1.0
340
0
 70
     4
280
     1
281
    50
282
    50
283
     0
360
0
 71
     2
 91
        5
 14
-0.5
 24
0.5
 14
-0.1034306968225334
 24
0.5
 14
-0.1034306968225334
 24
-0.4999999999999998
 14
-0.5
 24
-0.4999999999999998
 14
-0.5
 24
0.5
  0
MTEXT
  5
3EF
330
1F
100
AcDbEntity
  8
None
 62
     7
100
AcDbMText
 10
1401.725811581467
 20
298.113110822581
 30
0.0
 40
125.8023713605567
 41
0.0
 71
     2
 72
     1
  1
5
  7
Arial Narrow (bold)
 73
     1
 44
0.6428780697960256
  0
LINE
  5
3F0
330
1F
100
AcDbEntity
  8
None
  6
Continuous
 62
     7
370
    40
100
AcDbLine
 10
1343.160207052887
 20
179.0489150792221
 30
0.0
 11
885.7708320528873
 21
179.0489150792221
 31
0.0
  0
MTEXT
  5
3F1
330
1F
100
AcDbEntity
  8
None
 62
     7
100
AcDbMText
 10
872.4758395413326
 20
-519.3009724570113
 30
0.0
 40
36.78431911127387
 41
0.0
 71
     1
 72
     1
  1
SITE LEGEND\P
  7
Arial Narrow
 73
     1
 44
1.178220171553443
  0
INSERT
  5
3F2
330
1F
100
AcDbEntity
  8
None
 62
     7
100
AcDbBlockReference
  2
Group-4-1
 10
0.0
 20
0.0
 30
0.0
 41
185.0
 42
185.0
 43
185.0
  0
DIMENSION
  5
3F3
330
1F
100
AcDbEntity
  8
Dimension
  6
Continuous
 62
     1
370
     9
100
AcDbDimension
  2
*D5
 10
-1134.861291102089
 20
853.5348027842226
 30
0.0
 11
-484.3612911020892
 21
853.5348027842226
 31
0.0
 70
    32
 71
     5
 42
1301.0
  3
ASME
100
AcDbAlignedDimension
 13
166.1387088979108
 23
597.1563391165506
 33
0.0
 14
-1134.861291102089
 24
567.1563391165506
 34
0.0
100
AcDbRotatedDimension
1001
ACAD
1000
DSTYLE
1002
{
1070
   147
1040
2.890625
1070
   340
1005
87
1002
}
  0
DIMENSION
  5
3F4
330
1F
100
AcDbEntity
  8
Dimension
  6
Continuous
 62
     1
370
     9
100
AcDbDimension
  2
*D6
 10
-1296.0
 20
627.3123891481756
 30
0.0
 11
-1296.0
 21
-53.68761085182416
 31
0.0
 70
    32
 71
     5
 42
1362.0
  3
ASME
100
AcDbAlignedDimension
 13
-978.6620727348723
 23
-734.6876108518239
 33
0.0
 14
-1002.662072734872
 24
627.3123891481756
 34
0.0
 50
-90.0
100
AcDbRotatedDimension
1001
ACAD
1000
DSTYLE
1002
{
1070
   147
1040
2.890625
1070
   340
1005
87
1070
   271
1070
     0
1002
}
  0
WIPEOUT
  5
3F5
330
1F
100
AcDbEntity
  8
None
  6
Continuous
 62
     1
370
     9
 92
      152
310
98000000040000000C0000000E000000B20000000C00000016000000000000C20C00000014000000010000006C0000000700000004000000F14F62FC3DB286C03A9EF1E14350744000000000000000001A95DE4681296FC03A9EF1E14350744000000000000000001A95DE4681296FC090F34637993D764000000000000000
310
00F14F62FC3DB286C090F34637993D76400000000000000000
100
AcDbWipeout
 90
        0
 10
-726.280266540589
 20
325.0165728986937
 30
0.0
 11
476.9832356770833
 21
0.0
 31
0.0
 12
0.0
 22
476.9832356770833
 32
0.0
 13
1.0
 23
1.0
340
0
 70
     4
280
     1
281
    50
282
    50
283
     0
360
0
 71
     2
 91
        5
 14
-0.5
 24
0.5
 14
0.5000000000000001
 24
0.5
 14
0.5000000000000001
 24
0.4353576163121015
 14
-0.5
 24
0.4353576163121015
 14
-0.5
 24
0.5
  0
MTEXT
  5
3F6
330
1F
100
AcDbEntity
  8
None
 62
     1
100
AcDbMText
 10
-726.280266540589
 20
354.2258818368206
 30
0.0
 40
22.11764227146026
 41
0.0
 71
     1
 72
     1
  1
Height to U.S. of Truss = 40'-8 1/2"
  7
Helvetica
 73
     1
 44
0.8397955333929318
  0
LINE
  5
3F7
330
1F
100
AcDbEntity
  8
None
  6
Continuous
 62
     1
370
     9
100
AcDbLine
 10
-248.5234363647897
 20
345.0673795627298
 30
0.0
 11
-12.66207273487194
 21
345.0673795627298
 31
0.0
  0
POLYLINE
  5
3F8
102
{ACAD_REACTORS
330
3FD
102
}
330
1F
100
AcDbEntity
  8
None
  6
Continuous
 62
     1
370
     5
100
AcDb2dPolyline
 66
     1
 10
0.0
 20
0.0
 30
0.0
 70
     1
  0
VERTEX
  5
3F9
330
3F8
100
AcDbEntity
  8
None
  6
Continuous
 62
     1
370
     5
100
AcDbVertex
100
AcDb2dVertex
 10
-35.78707273487194
 20
351.2637046376995
 30
0.0
  0
VERTEX
  5
3FA
330
3F8
100
AcDbEntity
  8
None
  6
Continuous
 62
     1
370
     5
100
AcDbVertex
100
AcDb2dVertex
 10
-12.66207273487194
 20
345.0673795627298
 30
0.0
  0
VERTEX
  5
3FB
330
3F8
100
AcDbEntity
  8
None
  6
Continuous
 62
     1
370
     5
100
AcDbVertex
100
AcDb2dVertex
 10
-35.78707273487194
 20
338.87105448776
 30
0.0
  0
SEQEND
  5
3FC
330
3F8
100
AcDbEntity
  8
None
  6
Continuous
 62
     1
370
     5
  0
HATCH
  5
3FD
330
1F
100
AcDbEntity
  8
None
  6
Continuous
 62
     1
370
     0
100
AcDbHatch
 10
0.0
 20
0.0
 30
0.0
210
0.0
220
0.0
230
1.0
  2
SOLID
 70
     1
 71
     1
 91
        1
 92
        1
 93
        3
 72
     1
 10
-35.78707273487194
 20
351.2637046376995
 11
-12.66207273487194
 21
345.0673795627298
 72
     1
 10
-12.66207273487194
 20
345.0673795627298
 11
-35.78707273487194
 21
338.87105448776
 72
     1
 10
-35.78707273487194
 20
338.87105448776
 11
-35.78707273487194
 21
351.2637046376995
 97
        1
330
3F8
 75
     0
 76
     1
 98
        1
 10
0.0
 20
0.0
  0
LINE
  5
3FE
330
1F
100
AcDbEntity
  8
None
  6
Continuous
 62
     1
370
     9
100
AcDbLine
 10
-729.8608548291736
 20
345.0673795627298
 30
0.0
 11
-954.6620727348721
 21
345.0673795627298
 31
0.0
  0
POLYLINE
  5
3FF
102
{ACAD_REACTORS
330
404
102
}
330
1F
100
AcDbEntity
  8
None
  6
Continuous
 62
     1
370
     5
100
AcDb2dPolyline
 66
     1
 10
0.0
 20
0.0
 30
0.0
 70
     1
  0
VERTEX
  5
400
330
3FF
100
AcDbEntity
  8
None
  6
Continuous
 62
     1
370
     5
100
AcDbVertex
100
AcDb2dVertex
 10
-931.5370727348721
 20
338.87105448776
 30
0.0
  0
VERTEX
  5
401
330
3FF
100
AcDbEntity
  8
None
  6
Continuous
 62
     1
370
     5
100
AcDbVertex
100
AcDb2dVertex
 10
-954.6620727348721
 20
345.0673795627298
 30
0.0
  0
VERTEX
  5
402
330
3FF
100
AcDbEntity
  8
None
  6
Continuous
 62
     1
370
     5
100
AcDbVertex
100
AcDb2dVertex
 10
-931.5370727348721
 20
351.2637046376995
 30
0.0
  0
SEQEND
  5
403
330
3FF
100
AcDbEntity
  8
None
  6
Continuous
 62
     1
370
     5
  0
HATCH
  5
404
330
1F
100
AcDbEntity
  8
None
  6
Continuous
 62
     1
370
     0
100
AcDbHatch
 10
0.0
 20
0.0
 30
0.0
210
0.0
220
0.0
230
1.0
  2
SOLID
 70
     1
 71
     1
 91
        1
 92
        1
 93
        3
 72
     1
 10
-931.5370727348721
 20
338.87105448776
 11
-954.6620727348721
 21
345.0673795627298
 72
     1
 10
-954.6620727348721
 20
345.0673795627298
 11
-931.5370727348721
 21
351.2637046376995
 72
     1
 10
-931.5370727348721
 20
351.2637046376995
 11
-931.5370727348721
 21
338.87105448776
 97
        1
330
3FF
 75
     0
 76
     1
 98
        1
 10
0.0
 20
0.0
  0
INSERT
  5
405
330
1F
100
AcDbEntity
  8
None
 62
     7
100
AcDbBlockReference
  2
Group-17-1
 10
0.0
 20
0.0
 30
0.0
  0
INSERT
  5
406
330
1F
100
AcDbEntity
  8
None
 62
     7
100
AcDbBlockReference
  2
Group-21-1
 10
0.0
 20
0.0
 30
0.0
  0
WIPEOUT
  5
407
330
1F
100
AcDbEntity
  8
None
  6
Continuous
 62
     1
370
     9
 92
      152
310
98000000040000000C0000000E000000B20000000C00000016000000000000C20C00000014000000010000006C0000000700000004000000F24F62FC3DEA81C00FCA7DD9F223884000000000000000008F4A6F2351937BC00FCA7DD9F223884000000000000000008F4A6F2351937BC04958611281F1884000000000000000
310
00F24F62FC3DEA81C04958611281F188400000000000000000
100
AcDbWipeout
 90
        0
 10
-573.280266540589
 20
772.4935788943566
 30
0.0
 11
132.0729573567708
 21
0.0
 31
0.0
 12
0.0
 22
132.0729573567708
 32
0.0
 13
1.0
 23
1.0
340
0
 70
     4
280
     1
281
    50
282
    50
283
     0
360
0
 71
     2
 91
        5
 14
-0.5000000000000004
 24
0.5
 14
0.4999999999999996
 24
0.5
 14
0.4999999999999996
 24
0.3054526455780362
 14
-0.5000000000000004
 24
0.3054526455780362
 14
-0.5000000000000004
 24
0.5
  0
MTEXT
  5
408
330
1F
100
AcDbEntity
  8
None
 62
     1
100
AcDbMText
 10
-573.280266540589
 20
796.8346696761291
 30
0.0
 40
18.43136855955022
 41
0.0
 71
     1
 72
     1
  1
12' Loading
  7
Helvetica
 73
     1
 44
0.8397955333929318
  0
VIEWPORT
  5
409
330
1B
100
AcDbEntity
 67
     1
  8
0
100
AcDbViewport
 10
5.25
 20
4.0
 30
0.0
 40
11.638
 41
8.993
 68
     1
 69
     1
 12
5.25
 22
4.0
 13
0.0
 23
0.0
 14
0.5
 24
0.5
 15
0.5
 25
0.5
 16
0.0
 26
0.0
 36
1.0
 17
0.0
 27
0.0
 37
0.0
 42
50.0
 43
0.0
 44
0.0
 45
8.993
 50
0.0
 51
0.0
 72
   100
 90
   557152
  1

281
     0
 71
     1
 74
     0
110
0.0
120
0.0
130
0.0
111
1.0
121
0.0
131
0.0
112
0.0
122
1.0
132
0.0
 79
     0
146
0.0
  0
ENDSEC
  0
SECTION
  2
OBJECTS
  0
DICTIONARY
  5
C
330
0
100
AcDbDictionary
281
     1
  3
ACAD_GROUP
350
D
  3
ACAD_LAYOUT
350
1A
  3
ACAD_MATERIAL
350
3B
  3
ACAD_MLEADERSTYLE
350
40C
  3
ACAD_MLINESTYLE
350
17
  3
ACAD_PLOTSETTINGS
350
19
  3
ACAD_PLOTSTYLENAME
350
E
  3
ACAD_SCALELIST
350
1D0
  3
ACAD_VISUALSTYLE
350
2A
  3
ACAD_WIPEOUT_VARS
350
84
  3
AcDbVariableDictionary
350
40A
  0
DICTIONARY
  5
D
102
{ACAD_REACTORS
330
C
102
}
330
C
100
AcDbDictionary
281
     1
  0
DICTIONARY
  5
1A
102
{ACAD_REACTORS
330
C
102
}
330
C
100
AcDbDictionary
281
     1
  3
Layout1
350
1E
  3
Model
350
22
  0
DICTIONARY
  5
3B
102
{ACAD_REACTORS
330
C
102
}
330
C
100
AcDbDictionary
281
     1
  3
ByBlock
350
3D
  3
ByLayer
350
3C
  3
Global
350
3E
  0
DICTIONARY
  5
40C
102
{ACAD_REACTORS
330
C
102
}
330
C
100
AcDbDictionary
281
     1
  0
DICTIONARY
  5
17
102
{ACAD_REACTORS
330
C
102
}
330
C
100
AcDbDictionary
281
     1
  3
Standard
350
18
  0
DICTIONARY
  5
19
102
{ACAD_REACTORS
330
C
102
}
330
C
100
AcDbDictionary
281
     1
  0
ACDBDICTIONARYWDFLT
  5
E
102
{ACAD_REACTORS
330
C
102
}
330
C
100
AcDbDictionary
281
     1
  3
Normal
350
F
100
AcDbDictionaryWithDefault
340
F
  0
DICTIONARY
  5
1D0
102
{ACAD_REACTORS
330
C
102
}
330
C
100
AcDbDictionary
281
     1
  3
A0
350
1D1
  3
A1
350
1D2
  3
A2
350
1D3
  3
A3
350
1D4
  3
A4
350
1D5
  3
A5
350
1D6
  3
A6
350
1D7
  3
A7
350
1D8
  3
A8
350
1D9
  3
A9
350
1DA
  3
B0
350
1DB
  3
B1
350
1DC
  3
B2
350
1DD
  3
B3
350
1DE
  3
B4
350
1DF
  3
B5
350
1E0
  3
B6
350
1E1
  3
B7
350
1E2
  3
B8
350
1E3
  3
B9
350
1E4
  3
C0
350
1E5
  3
C1
350
1E6
  3
C2
350
1E7
  3
C3
350
1E8
  3
C4
350
1E9
  3
C5
350
1EA
  3
C6
350
1EB
  3
C7
350
1EC
  3
C8
350
1ED
  3
C9
350
1EE
  3
D0
350
1EF
  3
D1
350
1F0
  3
D2
350
1F1
  0
DICTIONARY
  5
2A
102
{ACAD_REACTORS
330
C
102
}
330
C
100
AcDbDictionary
281
     1
  3
2dWireframe
350
2F
  3
3D Hidden
350
31
  3
3dWireframe
350
30
  3
Basic
350
32
  3
Brighten
350
36
  3
ColorChange
350
3A
  3
Conceptual
350
34
  3
Dim
350
35
  3
Facepattern
350
39
  3
Flat
350
2B
  3
FlatWithEdges
350
2C
  3
Gouraud
350
2D
  3
GouraudWithEdges
350
2E
  3
Linepattern
350
38
  3
Realistic
350
33
  3
Thicken
350
37
  0
WIPEOUTVARIABLES
  5
84
102
{ACAD_REACTORS
330
C
102
}
330
C
100
AcDbWipeoutVariables
 70
     0
  0
DICTIONARY
  5
40A
102
{ACAD_REACTORS
330
C
102
}
330
C
100
AcDbDictionary
281
     1
  3
CANNOSCALE
350
40D
  3
DIMASSOC
350
40E
  3
HIDETEXT
350
40F
  0
LAYOUT
  5
1E
102
{ACAD_REACTORS
330
1A
102
}
330
1A
100
AcDbPlotSettings
  1

  2
none_device
  4
Letter_(8.50_x_11.00_Inches)
  6

 40
6.35
 41
6.35
 42
6.35001
 43
6.35001
 44
215.9
 45
279.4
 46
0.0
 47
0.0
 48
0.0
 49
0.0
140
0.0
141
0.0
142
1.0
143
1.0
 70
   688
 72
     0
 73
     1
 74
     5
  7

 75
    16
147
1.0
148
0.0
149
0.0
100
AcDbLayout
  1
Layout1
 70
     1
 71
     1
 10
-0.25
 20
-0.25
 11
10.75
 21
8.25
 12
0.0
 22
0.0
 32
0.0
 14
1.000000000000000E+20
 24
1.000000000000000E+20
 34
1.000000000000000E+20
 15
-1.000000000000000E+20
 25
-1.000000000000000E+20
 35
-1.000000000000000E+20
146
0.0
 13
0.0
 23
0.0
 33
0.0
 16
1.0
 26
0.0
 36
0.0
 17
0.0
 27
1.0
 37
0.0
 76
     0
330
1B
331
409
  0
LAYOUT
  5
22
102
{ACAD_REACTORS
330
1A
102
}
330
1A
100
AcDbPlotSettings
  1

  2
none_device
  4

  6

 40
0.0
 41
0.0
 42
0.0
 43
0.0
 44
0.0
 45
0.0
 46
0.0
 47
0.0
 48
0.0
 49
0.0
140
0.0
141
0.0
142
1.0
143
1.0
 70
  1712
 72
     0
 73
     0
 74
     0
  7

 75
     0
147
1.0
148
0.0
149
0.0
100
AcDbLayout
  1
Model
 70
     1
 71
     0
 10
0.0
 20
0.0
 11
12.0
 21
9.0
 12
0.0
 22
0.0
 32
0.0
 14
-1483.641732283465
 24
-923.1791338582677
 34
-15.2625
 15
1476.358267716535
 25
926.8208661417324
 35
15.2625
146
0.0
 13
0.0
 23
0.0
 33
0.0
 16
1.0
 26
0.0
 36
0.0
 17
0.0
 27
1.0
 37
0.0
 76
     0
330
1F
331
29
  0
MATERIAL
  5
3D
102
{ACAD_REACTORS
330
3B
102
}
102
{ACAD_XDICTIONARY
360
432
102
}
330
3B
100
AcDbMaterial
  1
ByBlock
  0
MATERIAL
  5
3C
102
{ACAD_REACTORS
330
3B
102
}
102
{ACAD_XDICTIONARY
360
430
102
}
330
3B
100
AcDbMaterial
  1
ByLayer
  0
MATERIAL
  5
3E
102
{ACAD_REACTORS
330
3B
102
}
102
{ACAD_XDICTIONARY
360
434
102
}
330
3B
100
AcDbMaterial
  1
Global
  0
MLINESTYLE
  5
18
102
{ACAD_REACTORS
330
17
102
}
330
17
100
AcDbMlineStyle
  2
Standard
 70
     0
  3

 62
   256
 51
90.0
 52
90.0
 71
     2
 49
0.5
 62
   256
  6
BYLAYER
 49
-0.5
 62
   256
  6
BYLAYER
  0
ACDBPLACEHOLDER
  5
F
102
{ACAD_REACTORS
330
E
102
}
330
E
  0
SCALE
  5
1D1
102
{ACAD_REACTORS
330
1D0
102
}
330
1D0
100
AcDbScale
 70
     0
300
1:1
140
1.0
141
1.0
290
     1
  0
SCALE
  5
1D2
102
{ACAD_REACTORS
330
1D0
102
}
330
1D0
100
AcDbScale
 70
     0
300
1:2
140
1.0
141
2.0
290
     0
  0
SCALE
  5
1D3
102
{ACAD_REACTORS
330
1D0
102
}
330
1D0
100
AcDbScale
 70
     0
300
1:4
140
1.0
141
4.0
290
     0
  0
SCALE
  5
1D4
102
{ACAD_REACTORS
330
1D0
102
}
330
1D0
100
AcDbScale
 70
     0
300
1:5
140
1.0
141
5.0
290
     0
  0
SCALE
  5
1D5
102
{ACAD_REACTORS
330
1D0
102
}
330
1D0
100
AcDbScale
 70
     0
300
1:8
140
1.0
141
8.0
290
     0
  0
SCALE
  5
1D6
102
{ACAD_REACTORS
330
1D0
102
}
330
1D0
100
AcDbScale
 70
     0
300
1:10
140
1.0
141
10.0
290
     0
  0
SCALE
  5
1D7
102
{ACAD_REACTORS
330
1D0
102
}
330
1D0
100
AcDbScale
 70
     0
300
1:16
140
1.0
141
16.0
290
     0
  0
SCALE
  5
1D8
102
{ACAD_REACTORS
330
1D0
102
}
330
1D0
100
AcDbScale
 70
     0
300
1:20
140
1.0
141
20.0
290
     0
  0
SCALE
  5
1D9
102
{ACAD_REACTORS
330
1D0
102
}
330
1D0
100
AcDbScale
 70
     0
300
1:30
140
1.0
141
30.0
290
     0
  0
SCALE
  5
1DA
102
{ACAD_REACTORS
330
1D0
102
}
330
1D0
100
AcDbScale
 70
     0
300
1:40
140
1.0
141
40.0
290
     0
  0
SCALE
  5
1DB
102
{ACAD_REACTORS
330
1D0
102
}
330
1D0
100
AcDbScale
 70
     0
300
1:50
140
1.0
141
50.0
290
     0
  0
SCALE
  5
1DC
102
{ACAD_REACTORS
330
1D0
102
}
330
1D0
100
AcDbScale
 70
     0
300
1:100
140
1.0
141
100.0
290
     0
  0
SCALE
  5
1DD
102
{ACAD_REACTORS
330
1D0
102
}
330
1D0
100
AcDbScale
 70
     0
300
2:1
140
2.0
141
1.0
290
     0
  0
SCALE
  5
1DE
102
{ACAD_REACTORS
330
1D0
102
}
330
1D0
100
AcDbScale
 70
     0
300
4:1
140
4.0
141
1.0
290
     0
  0
SCALE
  5
1DF
102
{ACAD_REACTORS
330
1D0
102
}
330
1D0
100
AcDbScale
 70
     0
300
8:1
140
8.0
141
1.0
290
     0
  0
SCALE
  5
1E0
102
{ACAD_REACTORS
330
1D0
102
}
330
1D0
100
AcDbScale
 70
     0
300
10:1
140
10.0
141
1.0
290
     0
  0
SCALE
  5
1E1
102
{ACAD_REACTORS
330
1D0
102
}
330
1D0
100
AcDbScale
 70
     0
300
100:1
140
100.0
141
1.0
290
     0
  0
SCALE
  5
1E2
102
{ACAD_REACTORS
330
1D0
102
}
330
1D0
100
AcDbScale
 70
     0
300
1/128" = 1'-0"
140
0.0078125
141
12.0
290
     0
  0
SCALE
  5
1E3
102
{ACAD_REACTORS
330
1D0
102
}
330
1D0
100
AcDbScale
 70
     0
300
1/64" = 1'-0"
140
0.015625
141
12.0
290
     0
  0
SCALE
  5
1E4
102
{ACAD_REACTORS
330
1D0
102
}
330
1D0
100
AcDbScale
 70
     0
300
1/32" = 1'-0"
140
0.03125
141
12.0
290
     0
  0
SCALE
  5
1E5
102
{ACAD_REACTORS
330
1D0
102
}
330
1D0
100
AcDbScale
 70
     0
300
1/16" = 1'-0"
140
0.0625
141
12.0
290
     0
  0
SCALE
  5
1E6
102
{ACAD_REACTORS
330
1D0
102
}
330
1D0
100
AcDbScale
 70
     0
300
3/32" = 1'-0"
140
0.09375
141
12.0
290
     0
  0
SCALE
  5
1E7
102
{ACAD_REACTORS
330
1D0
102
}
330
1D0
100
AcDbScale
 70
     0
300
1/8" = 1'-0"
140
0.125
141
12.0
290
     0
  0
SCALE
  5
1E8
102
{ACAD_REACTORS
330
1D0
102
}
330
1D0
100
AcDbScale
 70
     0
300
3/16" = 1'-0"
140
0.1875
141
12.0
290
     0
  0
SCALE
  5
1E9
102
{ACAD_REACTORS
330
1D0
102
}
330
1D0
100
AcDbScale
 70
     0
300
1/4" = 1'-0"
140
0.25
141
12.0
290
     0
  0
SCALE
  5
1EA
102
{ACAD_REACTORS
330
1D0
102
}
330
1D0
100
AcDbScale
 70
     0
300
3/8" = 1'-0"
140
0.375
141
12.0
290
     0
  0
SCALE
  5
1EB
102
{ACAD_REACTORS
330
1D0
102
}
330
1D0
100
AcDbScale
 70
     0
300
1/2" = 1'-0"
140
0.5
141
12.0
290
     0
  0
SCALE
  5
1EC
102
{ACAD_REACTORS
330
1D0
102
}
330
1D0
100
AcDbScale
 70
     0
300
3/4" = 1'-0"
140
0.75
141
12.0
290
     0
  0
SCALE
  5
1ED
102
{ACAD_REACTORS
330
1D0
102
}
330
1D0
100
AcDbScale
 70
     0
300
1" = 1'-0"
140
1.0
141
12.0
290
     0
  0
SCALE
  5
1EE
102
{ACAD_REACTORS
330
1D0
102
}
330
1D0
100
AcDbScale
 70
     0
300
1-1/2" = 1'-0"
140
1.5
141
12.0
290
     0
  0
SCALE
  5
1EF
102
{ACAD_REACTORS
330
1D0
102
}
330
1D0
100
AcDbScale
 70
     0
300
3" = 1'-0"
140
3.0
141
12.0
290
     0
  0
SCALE
  5
1F0
102
{ACAD_REACTORS
330
1D0
102
}
330
1D0
100
AcDbScale
 70
     0
300
6" = 1'-0"
140
6.0
141
12.0
290
     0
  0
SCALE
  5
1F1
102
{ACAD_REACTORS
330
1D0
102
}
330
1D0
100
AcDbScale
 70
     0
300
1'-0" = 1'-0"
140
12.0
141
12.0
290
     0
  0
VISUALSTYLE
  5
2F
102
{ACAD_REACTORS
330
2A
102
}
102
{ACAD_XDICTIONARY
360
418
102
}
330
2A
100
AcDbVisualStyle
  2
2dWireframe
 70
     4
 71
     0
 72
     2
 73
     0
 90
        0
 40
-0.6
 41
-30.0
 62
     5
 63
     7
 74
     1
 91
        4
 64
     7
 65
   257
 75
     1
175
     1
 42
1.0
 92
        0
 66
   257
 43
1.0
 76
     1
 77
     6
 78
     2
 67
     7
 79
     5
170
     0
171
     0
290
     0
174
     0
 93
        1
 44
0.0
173
     0
291
     0
 45
0.0
1001
ACAD
1000
AcDbSavedByObjectVersion
1070
     0
  0
VISUALSTYLE
  5
31
102
{ACAD_REACTORS
330
2A
102
}
102
{ACAD_XDICTIONARY
360
41C
102
}
330
2A
100
AcDbVisualStyle
  2
3D Hidden
 70
     6
 71
     1
 72
     2
 73
     2
 90
        0
 40
-0.6
 41
-30.0
 62
     5
 63
     7
 74
     2
 91
        2
 64
     7
 65
   257
 75
     2
175
     1
 42
40.0
 92
        0
 66
   257
 43
1.0
 76
     1
 77
     6
 78
     2
 67
     7
 79
     3
170
     0
171
     0
290
     0
174
     0
 93
        1
 44
0.0
173
     0
291
     0
 45
0.0
1001
ACAD
1000
AcDbSavedByObjectVersion
1070
     0
  0
VISUALSTYLE
  5
30
102
{ACAD_REACTORS
330
2A
102
}
102
{ACAD_XDICTIONARY
360
41A
102
}
330
2A
100
AcDbVisualStyle
  2
3dWireframe
 70
     5
 71
     0
 72
     2
 73
     0
 90
        0
 40
-0.6
 41
-30.0
 62
     5
 63
     7
 74
     1
 91
        4
 64
     7
 65
   257
 75
     1
175
     1
 42
1.0
 92
        0
 66
   257
 43
1.0
 76
     1
 77
     6
 78
     2
 67
     7
 79
     5
170
     0
171
     0
290
     0
174
     0
 93
        1
 44
0.0
173
     0
291
     0
 45
0.0
1001
ACAD
1000
AcDbSavedByObjectVersion
1070
     0
  0
VISUALSTYLE
  5
32
102
{ACAD_REACTORS
330
2A
102
}
102
{ACAD_XDICTIONARY
360
41E
102
}
330
2A
100
AcDbVisualStyle
  2
Basic
 70
     7
 71
     1
 72
     0
 73
     1
 90
        0
 40
-0.6
 41
-30.0
 62
     5
 63
     7
 74
     0
 91
        4
 64
     7
 65
   257
 75
     1
175
     1
 42
1.0
 92
        8
 66
     7
 43
1.0
 76
     1
 77
     6
 78
     2
 67
     7
 79
     5
170
     0
171
     0
290
     0
174
     0
 93
        1
 44
0.0
173
     0
291
     1
 45
0.0
1001
ACAD
1000
AcDbSavedByObjectVersion
1070
     0
  0
VISUALSTYLE
  5
36
102
{ACAD_REACTORS
330
2A
102
}
102
{ACAD_XDICTIONARY
360
426
102
}
330
2A
100
AcDbVisualStyle
  2
Brighten
 70
    12
 71
     2
 72
     2
 73
     0
 90
        0
 40
-0.6
 41
-30.0
 62
     5
 63
     7
 74
     1
 91
        4
 64
     7
 65
   257
 75
     1
175
     1
 42
1.0
 92
        8
 66
     7
 43
1.0
 76
     1
 77
     6
 78
     2
 67
     7
 79
     5
170
     0
171
     0
290
     0
174
     0
 93
        1
 44
50.0
173
     0
291
     1
 45
0.0
1001
ACAD
1000
AcDbSavedByObjectVersion
1070
     0
  0
VISUALSTYLE
  5
3A
102
{ACAD_REACTORS
330
2A
102
}
102
{ACAD_XDICTIONARY
360
42E
102
}
330
2A
100
AcDbVisualStyle
  2
ColorChange
 70
    16
 71
     2
 72
     2
 73
     3
 90
        0
 40
-0.6
 41
-30.0
 62
     5
 63
     8
 74
     1
 91
        4
 64
     7
 65
   257
 75
     1
175
     1
 42
1.0
 92
        8
 66
     8
 43
1.0
 76
     1
 77
     6
 78
     2
 67
     7
 79
     5
170
     0
171
     0
290
     0
174
     0
 93
        1
 44
0.0
173
     0
291
     1
 45
0.0
1001
ACAD
1000
AcDbSavedByObjectVersion
1070
     0
  0
VISUALSTYLE
  5
34
102
{ACAD_REACTORS
330
2A
102
}
102
{ACAD_XDICTIONARY
360
422
102
}
330
2A
100
AcDbVisualStyle
  2
Conceptual
 70
     9
 71
     3
 72
     2
 73
     0
 90
        0
 40
-0.6
 41
-30.0
 62
     5
 63
     7
 74
     2
 91
        2
 64
     7
 65
   257
 75
     1
175
     1
 42
40.0
 92
        8
 66
     7
 43
1.0
 76
     1
 77
     6
 78
     2
 67
     7
 79
     3
170
     0
171
     0
290
     0
174
     0
 93
        1
 44
0.0
173
     0
291
     0
 45
0.0
1001
ACAD
1000
AcDbSavedByObjectVersion
1070
     0
  0
VISUALSTYLE
  5
35
102
{ACAD_REACTORS
330
2A
102
}
102
{ACAD_XDICTIONARY
360
424
102
}
330
2A
100
AcDbVisualStyle
  2
Dim
 70
    11
 71
     2
 72
     2
 73
     0
 90
        0
 40
-0.6
 41
-30.0
 62
     5
 63
     7
 74
     1
 91
        4
 64
     7
 65
   257
 75
     1
175
     1
 42
1.0
 92
        8
 66
     7
 43
1.0
 76
     1
 77
     6
 78
     2
 67
     7
 79
     5
170
     0
171
     0
290
     0
174
     0
 93
        1
 44
-50.0
173
     0
291
     1
 45
0.0
1001
ACAD
1000
AcDbSavedByObjectVersion
1070
     0
  0
VISUALSTYLE
  5
39
102
{ACAD_REACTORS
330
2A
102
}
102
{ACAD_XDICTIONARY
360
42C
102
}
330
2A
100
AcDbVisualStyle
  2
Facepattern
 70
    15
 71
     2
 72
     2
 73
     0
 90
        0
 40
-0.6
 41
-30.0
 62
     5
 63
     7
 74
     1
 91
        4
 64
     7
 65
   257
 75
     1
175
     1
 42
1.0
 92
        8
 66
     7
 43
1.0
 76
     1
 77
     6
 78
     2
 67
     7
 79
     5
170
     0
171
     0
290
     0
174
     0
 93
        1
 44
0.0
173
     0
291
     1
 45
0.0
1001
ACAD
1000
AcDbSavedByObjectVersion
1070
     0
  0
VISUALSTYLE
  5
2B
102
{ACAD_REACTORS
330
2A
102
}
102
{ACAD_XDICTIONARY
360
410
102
}
330
2A
100
AcDbVisualStyle
  2
Flat
 70
     0
 71
     2
 72
     1
 73
     1
 90
        2
 40
-0.6
 41
30.0
 62
     5
 63
     7
 74
     0
 91
        4
 64
     7
 65
   257
 75
     1
175
     1
 42
1.0
 92
        8
 66
     7
 43
1.0
 76
     1
 77
     6
 78
     2
 67
     7
 79
     5
170
     0
171
     0
290
     0
174
     0
 93
       13
 44
0.0
173
     0
291
     1
 45
0.0
1001
ACAD
1000
AcDbSavedByObjectVersion
1070
     0
  0
VISUALSTYLE
  5
2C
102
{ACAD_REACTORS
330
2A
102
}
102
{ACAD_XDICTIONARY
360
412
102
}
330
2A
100
AcDbVisualStyle
  2
FlatWithEdges
 70
     1
 71
     2
 72
     1
 73
     1
 90
        2
 40
-0.6
 41
30.0
 62
     5
 63
     7
 74
     1
 91
        4
 64
     7
 65
   257
 75
     1
175
     1
 42
1.0
 92
        0
 66
   257
 43
1.0
 76
     1
 77
     6
 78
     2
 67
     7
 79
     5
170
     0
171
     0
290
     0
174
     0
 93
       13
 44
0.0
173
     0
291
     1
 45
0.0
1001
ACAD
1000
AcDbSavedByObjectVersion
1070
     0
  0
VISUALSTYLE
  5
2D
102
{ACAD_REACTORS
330
2A
102
}
102
{ACAD_XDICTIONARY
360
414
102
}
330
2A
100
AcDbVisualStyle
  2
Gouraud
 70
     2
 71
     2
 72
     2
 73
     1
 90
        2
 40
-0.6
 41
30.0
 62
     5
 63
     7
 74
     0
 91
        4
 64
     7
 65
   257
 75
     1
175
     1
 42
1.0
 92
        0
 66
     7
 43
1.0
 76
     1
 77
     6
 78
     2
 67
     7
 79
     5
170
     0
171
     0
290
     0
174
     0
 93
       13
 44
0.0
173
     0
291
     1
 45
0.0
1001
ACAD
1000
AcDbSavedByObjectVersion
1070
     0
  0
VISUALSTYLE
  5
2E
102
{ACAD_REACTORS
330
2A
102
}
102
{ACAD_XDICTIONARY
360
416
102
}
330
2A
100
AcDbVisualStyle
  2
GouraudWithEdges
 70
     3
 71
     2
 72
     2
 73
     1
 90
        2
 40
-0.6
 41
30.0
 62
     5
 63
     7
 74
     1
 91
        4
 64
     7
 65
   257
 75
     1
175
     1
 42
1.0
 92
        0
 66
   257
 43
1.0
 76
     1
 77
     6
 78
     2
 67
     7
 79
     5
170
     0
171
     0
290
     0
174
     0
 93
       13
 44
0.0
173
     0
291
     1
 45
0.0
1001
ACAD
1000
AcDbSavedByObjectVersion
1070
     0
  0
VISUALSTYLE
  5
38
102
{ACAD_REACTORS
330
2A
102
}
102
{ACAD_XDICTIONARY
360
42A
102
}
330
2A
100
AcDbVisualStyle
  2
Linepattern
 70
    14
 71
     2
 72
     2
 73
     0
 90
        0
 40
-0.6
 41
-30.0
 62
     5
 63
     7
 74
     1
 91
        4
 64
     7
 65
   257
 75
     7
175
     7
 42
1.0
 92
        8
 66
     7
 43
1.0
 76
     1
 77
     6
 78
     2
 67
     7
 79
     5
170
     0
171
     0
290
     0
174
     0
 93
        1
 44
0.0
173
     0
291
     1
 45
0.0
1001
ACAD
1000
AcDbSavedByObjectVersion
1070
     0
  0
VISUALSTYLE
  5
33
102
{ACAD_REACTORS
330
2A
102
}
102
{ACAD_XDICTIONARY
360
420
102
}
330
2A
100
AcDbVisualStyle
  2
Realistic
 70
     8
 71
     2
 72
     2
 73
     0
 90
        0
 40
-0.6
 41
-30.0
 62
     5
 63
     7
 74
     1
 91
        0
 64
     7
 65
   257
 75
     1
175
     1
 42
1.0
 92
        8
 66
     8
 43
1.0
 76
     1
 77
     6
 78
     2
 67
     7
 79
     5
170
     0
171
     0
290
     0
174
     0
 93
       13
 44
0.0
173
     0
291
     0
 45
0.0
1001
ACAD
1000
AcDbSavedByObjectVersion
1070
     0
  0
VISUALSTYLE
  5
37
102
{ACAD_REACTORS
330
2A
102
}
102
{ACAD_XDICTIONARY
360
428
102
}
330
2A
100
AcDbVisualStyle
  2
Thicken
 70
    13
 71
     2
 72
     2
 73
     0
 90
        0
 40
-0.6
 41
-30.0
 62
     5
 63
     7
 74
     1
 91
        4
 64
     7
 65
   257
 75
     1
175
     1
 42
1.0
 92
       12
 66
     7
 43
1.0
 76
     1
 77
     6
 78
     2
 67
     7
 79
     5
170
     0
171
     0
290
     0
174
     0
 93
        1
 44
0.0
173
     0
291
     1
 45
0.0
1001
ACAD
1000
AcDbSavedByObjectVersion
1070
     0
  0
DICTIONARYVAR
  5
40D
102
{ACAD_REACTORS
330
40A
102
}
330
40A
100
DictionaryVariables
280
     0
  1
1:1
  0
DICTIONARYVAR
  5
40E
102
{ACAD_REACTORS
330
40A
102
}
330
40A
100
DictionaryVariables
280
     0
  1
2
  0
DICTIONARYVAR
  5
40F
102
{ACAD_REACTORS
330
40A
102
}
330
40A
100
DictionaryVariables
280
     0
  1
1
  0
DICTIONARY
  5
432
330
3D
100
AcDbDictionary
280
     1
281
     1
  3
ACAD_XREC_ROUNDTRIP
360
433
  0
DICTIONARY
  5
430
330
3C
100
AcDbDictionary
280
     1
281
     1
  3
ACAD_XREC_ROUNDTRIP
360
431
  0
DICTIONARY
  5
434
330
3E
100
AcDbDictionary
280
     1
281
     1
  3
ACAD_XREC_ROUNDTRIP
360
435
  0
DICTIONARY
  5
418
330
2F
100
AcDbDictionary
280
     1
281
     1
  3
ACAD_XREC_ROUNDTRIP
360
419
  0
DICTIONARY
  5
41C
330
31
100
AcDbDictionary
280
     1
281
     1
  3
ACAD_XREC_ROUNDTRIP
360
41D
  0
DICTIONARY
  5
41A
330
30
100
AcDbDictionary
280
     1
281
     1
  3
ACAD_XREC_ROUNDTRIP
360
41B
  0
DICTIONARY
  5
41E
330
32
100
AcDbDictionary
280
     1
281
     1
  3
ACAD_XREC_ROUNDTRIP
360
41F
  0
DICTIONARY
  5
426
330
36
100
AcDbDictionary
280
     1
281
     1
  3
ACAD_XREC_ROUNDTRIP
360
427
  0
DICTIONARY
  5
42E
330
3A
100
AcDbDictionary
280
     1
281
     1
  3
ACAD_XREC_ROUNDTRIP
360
42F
  0
DICTIONARY
  5
422
330
34
100
AcDbDictionary
280
     1
281
     1
  3
ACAD_XREC_ROUNDTRIP
360
423
  0
DICTIONARY
  5
424
330
35
100
AcDbDictionary
280
     1
281
     1
  3
ACAD_XREC_ROUNDTRIP
360
425
  0
DICTIONARY
  5
42C
330
39
100
AcDbDictionary
280
     1
281
     1
  3
ACAD_XREC_ROUNDTRIP
360
42D
  0
DICTIONARY
  5
410
330
2B
100
AcDbDictionary
280
     1
281
     1
  3
ACAD_XREC_ROUNDTRIP
360
411
  0
DICTIONARY
  5
412
330
2C
100
AcDbDictionary
280
     1
281
     1
  3
ACAD_XREC_ROUNDTRIP
360
413
  0
DICTIONARY
  5
414
330
2D
100
AcDbDictionary
280
     1
281
     1
  3
ACAD_XREC_ROUNDTRIP
360
415
  0
DICTIONARY
  5
416
330
2E
100
AcDbDictionary
280
     1
281
     1
  3
ACAD_XREC_ROUNDTRIP
360
417
  0
DICTIONARY
  5
42A
330
38
100
AcDbDictionary
280
     1
281
     1
  3
ACAD_XREC_ROUNDTRIP
360
42B
  0
DICTIONARY
  5
420
330
33
100
AcDbDictionary
280
     1
281
     1
  3
ACAD_XREC_ROUNDTRIP
360
421
  0
DICTIONARY
  5
428
330
37
100
AcDbDictionary
280
     1
281
     1
  3
ACAD_XREC_ROUNDTRIP
360
429
  0
XRECORD
  5
433
102
{ACAD_REACTORS
330
432
102
}
330
432
100
AcDbXrecord
280
     1
102
MATERIAL
148
0.0
149
0.0
149
0.0
 93
        0
 94
      127
282
     0
 72
     1
 77
     1
171
     1
175
     1
179
     1
273
     0
  0
XRECORD
  5
431
102
{ACAD_REACTORS
330
430
102
}
330
430
100
AcDbXrecord
280
     1
102
MATERIAL
148
0.0
149
0.0
149
0.0
 93
        0
 94
      127
282
     0
 72
     1
 77
     1
171
     1
175
     1
179
     1
273
     0
  0
XRECORD
  5
435
102
{ACAD_REACTORS
330
434
102
}
330
434
100
AcDbXrecord
280
     1
102
MATERIAL
148
0.0
149
0.0
149
0.0
 93
        0
 94
      127
282
     0
 72
     1
 77
     1
171
     1
175
     1
179
     1
273
     0
  0
XRECORD
  5
419
102
{ACAD_REACTORS
330
418
102
}
330
418
100
AcDbXrecord
280
     1
102
RTVSPropertyOp0
 70
     1
102
RTVSPropertyOp1
 70
     1
102
RTVSPropertyOp2
 70
     1
102
RTVSPropertyOp3
 70
     1
102
RTVSPropertyOp4
 70
     1
102
RTVSPropertyOp5
 70
     1
102
RTVSPropertyOp6
 70
     1
102
RTVSPropertyOp7
 70
     1
102
RTVSPropertyOp8
 70
     1
102
RTVSPropertyOp9
 70
     1
102
RTVSPropertyOp10
 70
     1
102
RTVSPropertyOp11
 70
     1
102
RTVSPropertyOp12
 70
     1
102
RTVSPropertyOp13
 70
     1
102
RTVSPropertyOp14
 70
     1
102
RTVSPropertyOp15
 70
     1
102
RTVSPropertyOp16
 70
     1
102
RTVSPropertyOp17
 70
     1
102
RTVSPropertyOp18
 70
     1
102
RTVSPropertyOp19
 70
     1
102
RTVSPropertyOp20
 70
     1
102
RTVSPropertyOp21
 70
     1
102
RTVSPropertyOp22
 70
     1
102
RTVSPropertyOp23
 70
     1
102
RTVSPropertyOp24
 70
     1
102
RTVSPropertyOp25
 70
     1
102
RTVSPropertyOp26
 70
     1
102
RTVSPropertyOp27
 70
     1
  0
XRECORD
  5
41D
102
{ACAD_REACTORS
330
41C
102
}
330
41C
100
AcDbXrecord
280
     1
102
RTVSPropertyOp0
 70
     1
102
RTVSPropertyOp1
 70
     1
102
RTVSPropertyOp2
 70
     1
102
RTVSPropertyOp3
 70
     1
102
RTVSPropertyOp4
 70
     1
102
RTVSPropertyOp5
 70
     1
102
RTVSPropertyOp6
 70
     1
102
RTVSPropertyOp7
 70
     1
102
RTVSPropertyOp8
 70
     1
102
RTVSPropertyOp9
 70
     1
102
RTVSPropertyOp10
 70
     1
102
RTVSPropertyOp11
 70
     1
102
RTVSPropertyOp12
 70
     1
102
RTVSPropertyOp13
 70
     1
102
RTVSPropertyOp14
 70
     1
102
RTVSPropertyOp15
 70
     1
102
RTVSPropertyOp16
 70
     1
102
RTVSPropertyOp17
 70
     1
102
RTVSPropertyOp18
 70
     1
102
RTVSPropertyOp19
 70
     1
102
RTVSPropertyOp20
 70
     1
102
RTVSPropertyOp21
 70
     1
102
RTVSPropertyOp22
 70
     1
102
RTVSPropertyOp23
 70
     1
102
RTVSPropertyOp24
 70
     1
102
RTVSPropertyOp25
 70
     1
102
RTVSPropertyOp26
 70
     1
102
RTVSPropertyOp27
 70
     1
  0
XRECORD
  5
41B
102
{ACAD_REACTORS
330
41A
102
}
330
41A
100
AcDbXrecord
280
     1
102
RTVSPropertyOp0
 70
     1
102
RTVSPropertyOp1
 70
     1
102
RTVSPropertyOp2
 70
     1
102
RTVSPropertyOp3
 70
     1
102
RTVSPropertyOp4
 70
     1
102
RTVSPropertyOp5
 70
     1
102
RTVSPropertyOp6
 70
     1
102
RTVSPropertyOp7
 70
     1
102
RTVSPropertyOp8
 70
     1
102
RTVSPropertyOp9
 70
     1
102
RTVSPropertyOp10
 70
     1
102
RTVSPropertyOp11
 70
     1
102
RTVSPropertyOp12
 70
     1
102
RTVSPropertyOp13
 70
     1
102
RTVSPropertyOp14
 70
     1
102
RTVSPropertyOp15
 70
     1
102
RTVSPropertyOp16
 70
     1
102
RTVSPropertyOp17
 70
     1
102
RTVSPropertyOp18
 70
     1
102
RTVSPropertyOp19
 70
     1
102
RTVSPropertyOp20
 70
     1
102
RTVSPropertyOp21
 70
     1
102
RTVSPropertyOp22
 70
     1
102
RTVSPropertyOp23
 70
     1
102
RTVSPropertyOp24
 70
     1
102
RTVSPropertyOp25
 70
     1
102
RTVSPropertyOp26
 70
     1
102
RTVSPropertyOp27
 70
     1
  0
XRECORD
  5
41F
102
{ACAD_REACTORS
330
41E
102
}
330
41E
100
AcDbXrecord
280
     1
102
RTVSPropertyOp0
 70
     1
102
RTVSPropertyOp1
 70
     1
102
RTVSPropertyOp2
 70
     1
102
RTVSPropertyOp3
 70
     1
102
RTVSPropertyOp4
 70
     1
102
RTVSPropertyOp5
 70
     1
102
RTVSPropertyOp6
 70
     1
102
RTVSPropertyOp7
 70
     1
102
RTVSPropertyOp8
 70
     1
102
RTVSPropertyOp9
 70
     1
102
RTVSPropertyOp10
 70
     1
102
RTVSPropertyOp11
 70
     1
102
RTVSPropertyOp12
 70
     1
102
RTVSPropertyOp13
 70
     1
102
RTVSPropertyOp14
 70
     1
102
RTVSPropertyOp15
 70
     1
102
RTVSPropertyOp16
 70
     1
102
RTVSPropertyOp17
 70
     1
102
RTVSPropertyOp18
 70
     1
102
RTVSPropertyOp19
 70
     1
102
RTVSPropertyOp20
 70
     1
102
RTVSPropertyOp21
 70
     1
102
RTVSPropertyOp22
 70
     1
102
RTVSPropertyOp23
 70
     1
102
RTVSPropertyOp24
 70
     1
102
RTVSPropertyOp25
 70
     1
102
RTVSPropertyOp26
 70
     1
102
RTVSPropertyOp27
 70
     1
  0
XRECORD
  5
427
102
{ACAD_REACTORS
330
426
102
}
330
426
100
AcDbXrecord
280
     1
102
RTVSPropertyOp0
 70
     1
102
RTVSPropertyOp1
 70
     1
102
RTVSPropertyOp2
 70
     1
102
RTVSPropertyOp3
 70
     1
102
RTVSPropertyOp4
 70
     1
102
RTVSPropertyOp5
 70
     1
102
RTVSPropertyOp6
 70
     1
102
RTVSPropertyOp7
 70
     1
102
RTVSPropertyOp8
 70
     1
102
RTVSPropertyOp9
 70
     1
102
RTVSPropertyOp10
 70
     1
102
RTVSPropertyOp11
 70
     1
102
RTVSPropertyOp12
 70
     1
102
RTVSPropertyOp13
 70
     1
102
RTVSPropertyOp14
 70
     1
102
RTVSPropertyOp15
 70
     1
102
RTVSPropertyOp16
 70
     1
102
RTVSPropertyOp17
 70
     1
102
RTVSPropertyOp18
 70
     1
102
RTVSPropertyOp19
 70
     1
102
RTVSPropertyOp20
 70
     1
102
RTVSPropertyOp21
 70
     1
102
RTVSPropertyOp22
 70
     1
102
RTVSPropertyOp23
 70
     1
102
RTVSPropertyOp24
 70
     1
102
RTVSPropertyOp25
 70
     1
102
RTVSPropertyOp26
 70
     1
102
RTVSPropertyOp27
 70
     1
  0
XRECORD
  5
42F
102
{ACAD_REACTORS
330
42E
102
}
330
42E
100
AcDbXrecord
280
     1
102
RTVSPropertyOp0
 70
     1
102
RTVSPropertyOp1
 70
     1
102
RTVSPropertyOp2
 70
     1
102
RTVSPropertyOp3
 70
     1
102
RTVSPropertyOp4
 70
     1
102
RTVSPropertyOp5
 70
     1
102
RTVSPropertyOp6
 70
     1
102
RTVSPropertyOp7
 70
     1
102
RTVSPropertyOp8
 70
     1
102
RTVSPropertyOp9
 70
     1
102
RTVSPropertyOp10
 70
     1
102
RTVSPropertyOp11
 70
     1
102
RTVSPropertyOp12
 70
     1
102
RTVSPropertyOp13
 70
     1
102
RTVSPropertyOp14
 70
     1
102
RTVSPropertyOp15
 70
     1
102
RTVSPropertyOp16
 70
     1
102
RTVSPropertyOp17
 70
     1
102
RTVSPropertyOp18
 70
     1
102
RTVSPropertyOp19
 70
     1
102
RTVSPropertyOp20
 70
     1
102
RTVSPropertyOp21
 70
     1
102
RTVSPropertyOp22
 70
     1
102
RTVSPropertyOp23
 70
     1
102
RTVSPropertyOp24
 70
     1
102
RTVSPropertyOp25
 70
     1
102
RTVSPropertyOp26
 70
     1
102
RTVSPropertyOp27
 70
     1
  0
XRECORD
  5
423
102
{ACAD_REACTORS
330
422
102
}
330
422
100
AcDbXrecord
280
     1
102
RTVSPropertyOp0
 70
     1
102
RTVSPropertyOp1
 70
     1
102
RTVSPropertyOp2
 70
     1
102
RTVSPropertyOp3
 70
     1
102
RTVSPropertyOp4
 70
     1
102
RTVSPropertyOp5
 70
     1
102
RTVSPropertyOp6
 70
     1
102
RTVSPropertyOp7
 70
     1
102
RTVSPropertyOp8
 70
     1
102
RTVSPropertyOp9
 70
     1
102
RTVSPropertyOp10
 70
     1
102
RTVSPropertyOp11
 70
     1
102
RTVSPropertyOp12
 70
     1
102
RTVSPropertyOp13
 70
     1
102
RTVSPropertyOp14
 70
     1
102
RTVSPropertyOp15
 70
     1
102
RTVSPropertyOp16
 70
     1
102
RTVSPropertyOp17
 70
     1
102
RTVSPropertyOp18
 70
     1
102
RTVSPropertyOp19
 70
     1
102
RTVSPropertyOp20
 70
     1
102
RTVSPropertyOp21
 70
     1
102
RTVSPropertyOp22
 70
     1
102
RTVSPropertyOp23
 70
     1
102
RTVSPropertyOp24
 70
     1
102
RTVSPropertyOp25
 70
     1
102
RTVSPropertyOp26
 70
     1
102
RTVSPropertyOp27
 70
     1
  0
XRECORD
  5
425
102
{ACAD_REACTORS
330
424
102
}
330
424
100
AcDbXrecord
280
     1
102
RTVSPropertyOp0
 70
     1
102
RTVSPropertyOp1
 70
     1
102
RTVSPropertyOp2
 70
     1
102
RTVSPropertyOp3
 70
     1
102
RTVSPropertyOp4
 70
     1
102
RTVSPropertyOp5
 70
     1
102
RTVSPropertyOp6
 70
     1
102
RTVSPropertyOp7
 70
     1
102
RTVSPropertyOp8
 70
     1
102
RTVSPropertyOp9
 70
     1
102
RTVSPropertyOp10
 70
     1
102
RTVSPropertyOp11
 70
     1
102
RTVSPropertyOp12
 70
     1
102
RTVSPropertyOp13
 70
     1
102
RTVSPropertyOp14
 70
     1
102
RTVSPropertyOp15
 70
     1
102
RTVSPropertyOp16
 70
     1
102
RTVSPropertyOp17
 70
     1
102
RTVSPropertyOp18
 70
     1
102
RTVSPropertyOp19
 70
     1
102
RTVSPropertyOp20
 70
     1
102
RTVSPropertyOp21
 70
     1
102
RTVSPropertyOp22
 70
     1
102
RTVSPropertyOp23
 70
     1
102
RTVSPropertyOp24
 70
     1
102
RTVSPropertyOp25
 70
     1
102
RTVSPropertyOp26
 70
     1
102
RTVSPropertyOp27
 70
     1
  0
XRECORD
  5
42D
102
{ACAD_REACTORS
330
42C
102
}
330
42C
100
AcDbXrecord
280
     1
102
RTVSPropertyOp0
 70
     1
102
RTVSPropertyOp1
 70
     1
102
RTVSPropertyOp2
 70
     1
102
RTVSPropertyOp3
 70
     1
102
RTVSPropertyOp4
 70
     1
102
RTVSPropertyOp5
 70
     1
102
RTVSPropertyOp6
 70
     1
102
RTVSPropertyOp7
 70
     1
102
RTVSPropertyOp8
 70
     1
102
RTVSPropertyOp9
 70
     1
102
RTVSPropertyOp10
 70
     1
102
RTVSPropertyOp11
 70
     1
102
RTVSPropertyOp12
 70
     1
102
RTVSPropertyOp13
 70
     1
102
RTVSPropertyOp14
 70
     1
102
RTVSPropertyOp15
 70
     1
102
RTVSPropertyOp16
 70
     1
102
RTVSPropertyOp17
 70
     1
102
RTVSPropertyOp18
 70
     1
102
RTVSPropertyOp19
 70
     1
102
RTVSPropertyOp20
 70
     1
102
RTVSPropertyOp21
 70
     1
102
RTVSPropertyOp22
 70
     1
102
RTVSPropertyOp23
 70
     1
102
RTVSPropertyOp24
 70
     1
102
RTVSPropertyOp25
 70
     1
102
RTVSPropertyOp26
 70
     1
102
RTVSPropertyOp27
 70
     1
  0
XRECORD
  5
411
102
{ACAD_REACTORS
330
410
102
}
330
410
100
AcDbXrecord
280
     1
102
RTVSPropertyOp0
 70
     1
102
RTVSPropertyOp1
 70
     1
102
RTVSPropertyOp2
 70
     1
102
RTVSPropertyOp3
 70
     1
102
RTVSPropertyOp4
 70
     1
102
RTVSPropertyOp5
 70
     1
102
RTVSPropertyOp6
 70
     1
102
RTVSPropertyOp7
 70
     1
102
RTVSPropertyOp8
 70
     1
102
RTVSPropertyOp9
 70
     1
102
RTVSPropertyOp10
 70
     1
102
RTVSPropertyOp11
 70
     1
102
RTVSPropertyOp12
 70
     1
102
RTVSPropertyOp13
 70
     1
102
RTVSPropertyOp14
 70
     1
102
RTVSPropertyOp15
 70
     1
102
RTVSPropertyOp16
 70
     1
102
RTVSPropertyOp17
 70
     1
102
RTVSPropertyOp18
 70
     1
102
RTVSPropertyOp19
 70
     1
102
RTVSPropertyOp20
 70
     1
102
RTVSPropertyOp21
 70
     1
102
RTVSPropertyOp22
 70
     1
102
RTVSPropertyOp23
 70
     1
102
RTVSPropertyOp24
 70
     1
102
RTVSPropertyOp25
 70
     1
102
RTVSPropertyOp26
 70
     1
102
RTVSPropertyOp27
 70
     1
  0
XRECORD
  5
413
102
{ACAD_REACTORS
330
412
102
}
330
412
100
AcDbXrecord
280
     1
102
RTVSPropertyOp0
 70
     1
102
RTVSPropertyOp1
 70
     1
102
RTVSPropertyOp2
 70
     1
102
RTVSPropertyOp3
 70
     1
102
RTVSPropertyOp4
 70
     1
102
RTVSPropertyOp5
 70
     1
102
RTVSPropertyOp6
 70
     1
102
RTVSPropertyOp7
 70
     1
102
RTVSPropertyOp8
 70
     1
102
RTVSPropertyOp9
 70
     1
102
RTVSPropertyOp10
 70
     1
102
RTVSPropertyOp11
 70
     1
102
RTVSPropertyOp12
 70
     1
102
RTVSPropertyOp13
 70
     1
102
RTVSPropertyOp14
 70
     1
102
RTVSPropertyOp15
 70
     1
102
RTVSPropertyOp16
 70
     1
102
RTVSPropertyOp17
 70
     1
102
RTVSPropertyOp18
 70
     1
102
RTVSPropertyOp19
 70
     1
102
RTVSPropertyOp20
 70
     1
102
RTVSPropertyOp21
 70
     1
102
RTVSPropertyOp22
 70
     1
102
RTVSPropertyOp23
 70
     1
102
RTVSPropertyOp24
 70
     1
102
RTVSPropertyOp25
 70
     1
102
RTVSPropertyOp26
 70
     1
102
RTVSPropertyOp27
 70
     1
  0
XRECORD
  5
415
102
{ACAD_REACTORS
330
414
102
}
330
414
100
AcDbXrecord
280
     1
102
RTVSPropertyOp0
 70
     1
102
RTVSPropertyOp1
 70
     1
102
RTVSPropertyOp2
 70
     1
102
RTVSPropertyOp3
 70
     1
102
RTVSPropertyOp4
 70
     1
102
RTVSPropertyOp5
 70
     1
102
RTVSPropertyOp6
 70
     1
102
RTVSPropertyOp7
 70
     1
102
RTVSPropertyOp8
 70
     1
102
RTVSPropertyOp9
 70
     1
102
RTVSPropertyOp10
 70
     1
102
RTVSPropertyOp11
 70
     1
102
RTVSPropertyOp12
 70
     1
102
RTVSPropertyOp13
 70
     1
102
RTVSPropertyOp14
 70
     1
102
RTVSPropertyOp15
 70
     1
102
RTVSPropertyOp16
 70
     1
102
RTVSPropertyOp17
 70
     1
102
RTVSPropertyOp18
 70
     1
102
RTVSPropertyOp19
 70
     1
102
RTVSPropertyOp20
 70
     1
102
RTVSPropertyOp21
 70
     1
102
RTVSPropertyOp22
 70
     1
102
RTVSPropertyOp23
 70
     1
102
RTVSPropertyOp24
 70
     1
102
RTVSPropertyOp25
 70
     1
102
RTVSPropertyOp26
 70
     1
102
RTVSPropertyOp27
 70
     1
  0
XRECORD
  5
417
102
{ACAD_REACTORS
330
416
102
}
330
416
100
AcDbXrecord
280
     1
102
RTVSPropertyOp0
 70
     1
102
RTVSPropertyOp1
 70
     1
102
RTVSPropertyOp2
 70
     1
102
RTVSPropertyOp3
 70
     1
102
RTVSPropertyOp4
 70
     1
102
RTVSPropertyOp5
 70
     1
102
RTVSPropertyOp6
 70
     1
102
RTVSPropertyOp7
 70
     1
102
RTVSPropertyOp8
 70
     1
102
RTVSPropertyOp9
 70
     1
102
RTVSPropertyOp10
 70
     1
102
RTVSPropertyOp11
 70
     1
102
RTVSPropertyOp12
 70
     1
102
RTVSPropertyOp13
 70
     1
102
RTVSPropertyOp14
 70
     1
102
RTVSPropertyOp15
 70
     1
102
RTVSPropertyOp16
 70
     1
102
RTVSPropertyOp17
 70
     1
102
RTVSPropertyOp18
 70
     1
102
RTVSPropertyOp19
 70
     1
102
RTVSPropertyOp20
 70
     1
102
RTVSPropertyOp21
 70
     1
102
RTVSPropertyOp22
 70
     1
102
RTVSPropertyOp23
 70
     1
102
RTVSPropertyOp24
 70
     1
102
RTVSPropertyOp25
 70
     1
102
RTVSPropertyOp26
 70
     1
102
RTVSPropertyOp27
 70
     1
  0
XRECORD
  5
42B
102
{ACAD_REACTORS
330
42A
102
}
330
42A
100
AcDbXrecord
280
     1
102
RTVSPropertyOp0
 70
     1
102
RTVSPropertyOp1
 70
     1
102
RTVSPropertyOp2
 70
     1
102
RTVSPropertyOp3
 70
     1
102
RTVSPropertyOp4
 70
     1
102
RTVSPropertyOp5
 70
     1
102
RTVSPropertyOp6
 70
     1
102
RTVSPropertyOp7
 70
     1
102
RTVSPropertyOp8
 70
     1
102
RTVSPropertyOp9
 70
     1
102
RTVSPropertyOp10
 70
     1
102
RTVSPropertyOp11
 70
     1
102
RTVSPropertyOp12
 70
     1
102
RTVSPropertyOp13
 70
     1
102
RTVSPropertyOp14
 70
     1
102
RTVSPropertyOp15
 70
     1
102
RTVSPropertyOp16
 70
     1
102
RTVSPropertyOp17
 70
     1
102
RTVSPropertyOp18
 70
     1
102
RTVSPropertyOp19
 70
     1
102
RTVSPropertyOp20
 70
     1
102
RTVSPropertyOp21
 70
     1
102
RTVSPropertyOp22
 70
     1
102
RTVSPropertyOp23
 70
     1
102
RTVSPropertyOp24
 70
     1
102
RTVSPropertyOp25
 70
     1
102
RTVSPropertyOp26
 70
     1
102
RTVSPropertyOp27
 70
     1
  0
XRECORD
  5
421
102
{ACAD_REACTORS
330
420
102
}
330
420
100
AcDbXrecord
280
     1
102
RTVSPropertyOp0
 70
     1
102
RTVSPropertyOp1
 70
     1
102
RTVSPropertyOp2
 70
     1
102
RTVSPropertyOp3
 70
     1
102
RTVSPropertyOp4
 70
     1
102
RTVSPropertyOp5
 70
     1
102
RTVSPropertyOp6
 70
     1
102
RTVSPropertyOp7
 70
     1
102
RTVSPropertyOp8
 70
     1
102
RTVSPropertyOp9
 70
     1
102
RTVSPropertyOp10
 70
     1
102
RTVSPropertyOp11
 70
     1
102
RTVSPropertyOp12
 70
     1
102
RTVSPropertyOp13
 70
     1
102
RTVSPropertyOp14
 70
     1
102
RTVSPropertyOp15
 70
     1
102
RTVSPropertyOp16
 70
     1
102
RTVSPropertyOp17
 70
     1
102
RTVSPropertyOp18
 70
     1
102
RTVSPropertyOp19
 70
     1
102
RTVSPropertyOp20
 70
     1
102
RTVSPropertyOp21
 70
     1
102
RTVSPropertyOp22
 70
     1
102
RTVSPropertyOp23
 70
     1
102
RTVSPropertyOp24
 70
     1
102
RTVSPropertyOp25
 70
     1
102
RTVSPropertyOp26
 70
     1
102
RTVSPropertyOp27
 70
     1
  0
XRECORD
  5
429
102
{ACAD_REACTORS
330
428
102
}
330
428
100
AcDbXrecord
280
     1
102
RTVSPropertyOp0
 70
     1
102
RTVSPropertyOp1
 70
     1
102
RTVSPropertyOp2
 70
     1
102
RTVSPropertyOp3
 70
     1
102
RTVSPropertyOp4
 70
     1
102
RTVSPropertyOp5
 70
     1
102
RTVSPropertyOp6
 70
     1
102
RTVSPropertyOp7
 70
     1
102
RTVSPropertyOp8
 70
     1
102
RTVSPropertyOp9
 70
     1
102
RTVSPropertyOp10
 70
     1
102
RTVSPropertyOp11
 70
     1
102
RTVSPropertyOp12
 70
     1
102
RTVSPropertyOp13
 70
     1
102
RTVSPropertyOp14
 70
     1
102
RTVSPropertyOp15
 70
     1
102
RTVSPropertyOp16
 70
     1
102
RTVSPropertyOp17
 70
     1
102
RTVSPropertyOp18
 70
     1
102
RTVSPropertyOp19
 70
     1
102
RTVSPropertyOp20
 70
     1
102
RTVSPropertyOp21
 70
     1
102
RTVSPropertyOp22
 70
     1
102
RTVSPropertyOp23
 70
     1
102
RTVSPropertyOp24
 70
     1
102
RTVSPropertyOp25
 70
     1
102
RTVSPropertyOp26
 70
     1
102
RTVSPropertyOp27
 70
     1
  0
ENDSEC
  0
EOF
